#TITLE:U R Weird M8;
#SUBTITLE:;
#ARTIST:The A.M.D.A;
#TITLETRANSLIT:;
#SUBTITLETRANSLIT:;
#ARTISTTRANSLIT:;
#CRChallenge:;
#BANNER:;
#BACKGROUND:;
#LYRICSPATH:;
#CDTITLE:;
#MUSIC:m8.ogg;
#OFFSET:0.000;
#SAMPLESTART:66.293;
#SAMPLELENGTH:12.000;
#SELECTABLE:YES;
#BPMS:0.000=170.000,86.000=85.000,94.000=42.500,95.000=170.000,191.000=191.000,203.000=195.000,207.000=215.000,223.000=218.000,239.000=227.000,243.000=216.160,243.333=211.740,243.667=222.160,244.000=212.600,244.667=227.240,245.000=217.600,254.667=228.460,267.000=240.000,270.000=232.000,271.000=250.000,287.000=265.000,296.000=265.440,299.000=266.460,303.000=275.000,306.000=277.020,317.000=273.400,319.000=285.000,335.000=295.000,351.000=42.500;
#STOPS:84.500=0.706
;
#BGCHANGES:;
#NOTES:
     dance-single:
     Renard:
     Medium:
     10:
     0.670,0.684,0.299,0.145,0.690:
0000
0000
0000
0000
,
0000
0000
0000
0000
,
0000
0000
0000
0000
,
0000
0000
0000
0000
,
0000
0000
0000
0000
,
0000
0000
0000
0000
,
1000
0000
0000
1000
0000
0000
0001
0000
0001
0100
0000
0000
,
0010
0000
0010
1000
0000
1000
0100
0000
0000
0100
0000
0000
,
0010
0000
0000
0001
0000
0000
1000
0000
1000
0010
0000
0000
,
0100
0000
0100
0001
0000
0001
0010
0000
0000
0010
0000
0000
,
0001
0000
0000
0001
0000
0000
1000
0000
1000
0010
0000
0000
,
0100
0000
0100
0001
0000
0001
0010
0000
0000
0010
0000
0000
,
0100
0200
0000
0000
,
0000
0000
0000
0000
0000
0000
0000
0000
0000
0000
0000
0300
,
1000
0000
0000
1100
0000
0000
0100
0000
0010
0001
0000
0000
,
1000
0000
0010
0100
0000
0001
0100
0000
0000
0101
0000
0000
,
0001
0000
0000
1010
0000
0000
1000
0000
0100
0010
0000
0000
,
0001
0000
0010
0100
0000
1000
0001
0000
0000
1001
0000
0000
,
0100
0000
0000
0110
0000
0000
0010
0000
1000
0100
0000
0000
,
0010
0000
0001
0010
0000
0100
1000
0000
0000
1100
0000
0000
,
0011
0000
0000
0011
0000
0000
0110
0000
0100
1000
0000
0000
,
2002
0000
0000
0000
0000
0000
3003
0000
0000
0MM0
0000
0000
2M00
0000
0M00
00M0
0000
30M2
0M00
0000
0M00
M000
0000
M000
,
02M3
0000
00M0
M000
0000
M000
032M
0000
000M
2M30
0000
000M
32M0
0000
00M0
000M
0000
032M
M000
0000
M000
0M00
0000
0M00
,
M032
0000
0000
0000
M000
0000
00M0
0000
0000
0000
20M3
0000
0M00
0000
0000
0000
0M00
0000
000M
0000
0000
0000
000M
0000
3M20
000M
M000
0M00
000M
M000
0M00
000M
M000
0M00
000M
0000
1030
0000
0000
0000
0000
0000
0000
0000
1000
0000
0000
0000
,
0001
0000
0001
0100
0000
0100
0010
0000
0010
1000
0000
1000
,
0100
0000
0100
0010
0000
0010
0001
0000
0001
1000
0000
1000
,
0010
0000
0010
0100
0000
0100
0001
0000
0001
0010
0000
0010
,
0100
0000
0100
1000
0000
1000
0010
0000
0010
0100
0000
0100
,
0001
0000
0001
1000
0000
1000
0100
0000
0100
0010
0000
0010
,
0001
0000
0001
1000
0000
1000
0010
0000
0010
1000
0000
1000
,
0001
0000
0001
0100
0000
0100
0001
0000
0001
1000
0000
1000
,
0100
0000
0100
0010
0000
0010
0001
0000
0001
1000
0000
1000
,
0010
0000
0010
0100
0000
0100
0001
0000
0001
0010
0000
0010
,
0001
0000
0001
1000
0000
1000
0100
0000
0100
0010
0000
0010
,
0001
0000
0001
1000
0000
1000
0010
0000
0010
0100
0000
0100
,
0001
0000
0001
0010
0000
0010
0100
0000
0100
1000
0000
1000
,
0010
0000
0010
0100
0000
0100
0001
0000
0001
1000
0000
1000
,
0100
0000
0100
0010
0000
0010
0001
0000
0001
2000
0000
0000
,
0000
0000
0002
0000
0000
0000
0000
3003
0000
1000
0000
1000
,
0001
0000
0001
0100
0010
0100
0010
0000
0010
1000
0000
0000
,
1010
0000
0000
0001
0000
0100
0001
0000
0000
0010
0000
0100
,
1000
0000
0001
0010
0000
0000
0110
0000
0000
0100
0000
0000
,
1010
0000
0000
1000
0000
0010
0100
0000
0000
0001
0000
0010
,
0100
0000
1000
0001
0000
0000
0101
0000
0000
0110
0000
0000
,
0110
0000
0000
0010
0000
1000
0100
0000
0000
0010
0000
0001
,
0010
0000
0100
1000
0000
0000
0010
0000
0000
0110
0000
0000
,
0110
0000
0000
0100
0000
0001
0020
0000
0000
0000
0000
0000
,
0000
0000
MM3M
MM0M
MM0M
0000
0010
0000
,
0100
0000
0000
1000
0000
1000
0010
0000
0000
0100
0000
0001
,
0010
0000
0100
1000
0000
0000
1010
0000
0000
1000
0000
0000
,
0101
0000
0000
0001
0000
0010
0100
0000
0000
1000
0000
1000
,
0010
0000
0010
0100
0000
0000
0101
0000
0000
1000
0000
1000
,
0001
0000
0001
1000
0000
1000
0001
1000
0001
1000
0000
1000
,
0001
0000
0001
1000
0000
1000
0001
1000
0001
1000
0000
1000
,
0001
0000
0001
1000
0000
1000
0001
1000
0001
1000
0000
1000
,
0001
0000
1000
0001
0000
1000
0001
0000
1000
0001
0000
0000
,
0100
0000
0000
0010
0000
0000
1000
0000
1000
0100
0000
0000
,
0010
0000
0000
0001
0000
0000
1000
0000
1000
0010
0000
0000
,
0100
0000
0000
0001
0000
0000
0010
0000
0010
0100
0000
1000
,
0010
0000
0100
0001
0000
0000
0010
0000
0001
1000
0000
0000
,
0001
0000
0000
0100
0000
0000
0010
0000
1000
0010
0000
0000
,
0100
0000
0000
0001
0000
0000
0010
0000
0100
1000
0000
0000
,
0001
0000
0000
0010
0000
0000
0001
0000
0001
1000
0000
0100
,
0010
0000
0001
1000
0000
0000
0010
0000
0010
0100
0000
0001
,
1000
0000
0001
1000
0000
0010
0100
0010
0100
0001
0000
1000
,
0001
0000
1000
0001
0000
0100
0010
0100
0010
1000
0000
0001
,
1000
0000
0001
1000
0000
0010
0100
0010
0100
0010
0000
0010
,
1000
0000
1000
0001
0000
0001
0100
0000
0000
1010
0000
0000
,
0110
0101
0110
1010
,
0110
0101
0110
1010
,
1100
0011
0101
0110
,
1010
0000
1001
0000
1000
0010
1000
0100
,
0010
0001
1000
0100
0010
0001
1000
0100
,
0010
0001
1000
0100
0010
0001
1000
0100
,
0010
0001
1000
0100
0010
0001
1000
0100
,
0010
0001
1000
0100
0010
0001
1000
0100
,
0010
0001
1000
0100
0010
0001
1000
0100
,
0010
0001
1000
0100
0010
0001
1000
0100
,
0010
0001
1000
0100
0010
0001
1000
0100
,
0010
0001
1000
0100
0010
0001
1000
0100
,
0010
0001
1000
0100
0010
0001
1000
0100
,
0010
0001
1000
0100
0010
0001
1000
0100
,
0010
0001
1000
0100
0010
0001
1000
0100
,
0010
0001
1000
0100
0010
0001
1000
0100
,
0010
0001
1000
0100
0010
0001
1000
0100
,
0010
0001
1000
0100
0010
0001
1000
0100
,
0010
0001
0010
0100
1000
0001
0010
0100
,
1000
0100
0010
0001
1000
0001
2002
0000
,
0000
0000
0000
0000
,
0000
0000
0000
3003
0000
0000
0000
0000
0000
0000
0000
0000
0000
0000
0000
0000
;
#NOTES:
     dance-single:
     Renard:
     Easy:
     8:
     0.568,0.648,1.000,0.065,0.000:
0000
0000
0000
0000
,
0000
0000
0000
0000
,
0000
0000
0000
0000
,
0000
0000
0000
0000
,
0000
0000
0000
0000
,
0000
0000
0000
0000
,
1000
1000
1000
1000
,
1000
1000
1000
1000
,
0001
0001
0001
0001
,
0001
0001
0001
0001
,
0100
0100
0100
0100
,
0100
0100
0100
0100
,
0010
0010
0020
0000
,
0000
0000
0000
0000
,
0130
0001
1000
1001
,
1000
0100
0010
0110
,
0010
0001
1000
1001
,
1000
0010
0100
0110
,
0100
0001
1000
1001
,
1000
0100
0010
0110
,
0010
0001
1000
1001
,
2000
3000
0010
0010
,
0100
0002
1003
1000
,
0100
0020
0032
0013
,
0010
0100
0100
0010
,
0100
0010
0100
1000
,
1000
0001
0001
1000
,
0001
1000
0001
0100
,
0100
0010
0010
0100
,
0010
0100
0010
1000
,
1000
0001
0001
1000
,
0001
0010
0100
1000
,
1100
1000
1100
1000
,
1100
1000
0000
0001
,
0011
0001
0011
0001
,
0011
0001
0001
1000
,
1000
0010
0100
0001
,
0001
0100
0010
1000
,
0100
0010
0001
1000
,
1000
0001
0001
0100
,
0100
0110
0110
0010
,
1000
1001
1001
1000
,
0100
0110
0110
0011
,
0011
0110
0110
0100
,
1000
1100
1100
1000
,
0010
0110
0110
0100
,
0001
0010
0002
0000
,
0000
0000
0000
1003
,
1000
0100
0100
0110
,
0110
0011
0011
0001
,
0010
0110
0110
1100
,
1100
1001
0000
1000
,
0001
0101
0101
0001
,
1000
1100
0000
1000
,
0001
0011
0011
0001
,
1000
1010
0000
1001
,
1001
1001
1001
1001
,
1001
1001
1001
0110
,
0110
0110
0110
0110
,
0110
0110
0110
1001
,
1001
1001
1001
0110
,
0110
0110
0110
1001
,
1001
0110
0110
1001
,
0110
1001
0110
1010
,
1010
0101
0101
0011
,
0011
1100
1100
1010
,
1010
0101
0101
0011
,
0011
1100
1100
1001
,
1001
0110
0110
1001
,
1001
0110
0110
1001
,
1001
0110
0110
1001
,
1001
0110
0110
1001
,
1001
1001
1001
1001
,
1001
1001
1001
0110
,
0110
0110
0110
0110
,
0110
0110
0110
1001
,
1001
1001
1001
1001
,
1001
1001
1001
0110
,
0110
0110
0110
1001
,
1001
0110
0110
1001
,
1001
1001
1001
1001
,
1001
1001
1001
1001
,
1001
1001
1001
1001
,
1001
1001
1001
0110
,
0110
0110
0110
0110
,
0110
0110
0110
0110
,
0110
0110
0110
0110
,
0110
0110
0110
2002
,
0000
0000
0000
0000
,
0000
0000
0000
3003
0000
0000
0000
0000
0000
0000
0000
0000
0000
0000
0000
0000
;
#NOTES:
     dance-single:
     Renard:
     Beginner:
     4:
     0.374,0.397,0.113,0.089,0.000:
0000
0000
0000
0000
,
0000
0000
0000
0000
,
0000
0000
0000
0000
,
0000
0000
0000
0000
,
0000
0000
0000
0000
,
0000
0000
0000
0000
,
1000
1000
1000
1000
,
1000
1000
1000
1000
,
1000
1000
1000
1000
,
1000
1000
1000
1000
,
0001
0001
0001
0001
,
0001
0001
0001
0001
,
0001
0001
0002
0000
,
0000
0000
0003
0000
,
1000
0000
1000
0000
,
1000
1000
1000
0000
,
0001
0000
0001
0000
,
0001
0001
0001
0000
,
0100
0000
0100
0000
,
0100
0100
0100
0000
,
0010
0000
0010
0000
,
0020
0030
0100
0100
,
0020
0000
0130
0100
,
0020
0000
0130
0010
,
0010
0010
0100
0010
,
0110
0010
0100
0010
,
0010
0010
0100
0010
,
0110
0010
0100
0010
,
0010
0010
0100
0010
,
0110
0010
0100
0001
,
1000
0001
1000
0001
,
1000
0001
1000
0100
,
0100
0010
0010
0001
,
1000
0001
1000
0010
,
0010
0100
0100
0001
,
1000
0001
1000
0100
,
0100
0010
0010
0001
,
1000
0001
1000
0010
,
0010
2000
0000
3002
,
0000
1003
1001
1000
,
1000
1000
1000
1001
,
1001
1001
0000
0001
,
0001
0001
0001
1001
,
1001
1001
0000
0100
,
0100
0100
0100
0110
,
0110
0110
0000
0010
,
0010
0010
0100
0020
,
0000
0000
0000
1030
,
1000
1000
1000
1000
,
1000
2000
0000
3001
,
0001
0001
0001
0001
,
0001
0002
0000
0103
,
0010
0100
0010
0100
,
0010
0100
0010
0100
,
0010
0100
0010
0100
,
0010
0100
0010
1000
,
0001
1000
0001
1000
,
0001
1000
0001
1000
,
0001
1000
0001
1000
,
0001
1000
0001
0100
,
0010
0100
0010
0100
,
0001
1000
0001
1000
,
0010
0100
0010
0100
,
0001
1000
0001
1000
,
0010
0100
0010
0100
,
0001
1000
0001
1000
,
0010
0100
0010
0100
,
0001
1000
0001
1000
,
0001
1000
0001
1000
,
0001
1000
0001
1000
,
0001
1000
0001
1000
,
0100
0010
0001
1000
,
0001
1000
0001
1000
,
0001
1000
0001
1000
,
0001
1000
0001
1000
,
0001
0010
0100
1000
,
0001
1000
0001
1000
,
0001
1000
0001
1000
,
0001
1000
0001
1000
,
0100
0010
0001
1000
,
0001
1000
0001
1000
,
0001
1000
0001
1000
,
0001
1000
0001
1000
,
0001
0010
0100
1000
,
0001
1000
0001
1000
,
0001
1000
0001
1000
,
0100
0010
0001
1000
,
0001
0100
0010
2002
,
0000
0000
0000
0000
,
0000
0000
0000
3003
0000
0000
0000
0000
;
