#TITLE:Twist;
#SUBTITLE:;
#ARTIST:Tommyknocker;
#TITLETRANSLIT:;
#SUBTITLETRANSLIT:;
#ARTISTTRANSLIT:;
#CRChallenge:;
#BANNER:twist.jpg;
#BACKGROUND:twist-bg.jpg;
#LYRICSPATH:;
#CDTITLE:;
#MUSIC:twist.ogg;
#OFFSET:0.000;
#SAMPLESTART:78.254;
#SAMPLELENGTH:12.000;
#SELECTABLE:YES;
#BPMS:0.000=171.530;
#STOPS:;
#BGCHANGES:;
#NOTES:
     dance-single:
     Renard:
     Medium:
     9:
     0.625,0.639,0.311,0.151,0.329:
0000
0000
0000
0000
,
0000
0000
0000
0000
,
0000
0000
0000
0000
,
0000
0000
0000
0000
,
1001
0000
0000
0000
1000
0000
0001
0000
0100
0000
0010
0000
1000
0010
1000
0000
,
0100
0000
0010
0001
0010
0100
0000
0000
,
1001
0000
0000
0000
0100
0000
0010
0000
1000
0000
0100
0000
0010
0001
0010
0000
,
0011
1100
2002
0000
,
0010
0010
3013
1001
,
0101
0000
0100
0010
1000
0100
0010
0010
,
0001
0000
0000
0000
0010
0000
0100
0000
1000
0000
0010
0100
0010
0000
0100
0000
,
0001
0000
0100
0002
0200
0000
1313
0000
,
2002
0010
3013
0110
,
0110
0000
0010
1000
0100
0010
0011
0000
,
0110
0000
0010
1000
0110
0000
0010
0001
,
2002
0200
0000
3313
,
0001
0000
0000
0000
0001
0000
1000
0000
0100
0000
0010
0000
0001
0010
0001
0000
,
0010
0000
0010
0100
1000
0010
0000
0000
,
0100
0000
0000
0000
0100
0000
0001
0000
0100
0000
0010
0000
1000
0010
1000
0000
,
0100
0000
0100
0010
0001
1000
0000
0000
,
0001
0000
0000
0000
0001
0000
0100
0000
0010
0000
1000
0000
0100
1000
0100
0000
,
1000
0000
0001
0010
0001
1000
0000
0000
,
0010
1000
0010
1000
0000
0000
0000
0000
1000
0000
1000
0001
0000
0000
0000
0000
,
0001
0100
0001
0100
0001
0000
0000
0000
0001
0000
1000
0000
0001
0000
0000
0000
,
1000
0100
0000
0100
0000
0000
0000
0000
1000
0000
0001
0000
0100
0000
0000
0000
,
0010
1000
0000
1000
0000
0000
0000
0000
0010
0000
0100
0000
0001
0000
0010
0000
,
0100
0010
0000
0010
0000
0000
0000
0000
0001
0000
1000
0000
0010
0000
0100
0000
,
0001
1000
0000
1000
0000
0000
0000
0000
0001
0000
0010
0000
0100
0000
1000
0000
,
0010
0100
0000
0100
0000
0000
0000
0000
0001
0000
0010
0000
0100
0000
1000
0000
,
0001
0100
0000
0100
0000
0000
0000
0000
0001
0000
1000
0000
0100
0000
0010
0000
,
0001
0010
0000
0010
0000
0000
0000
0000
0100
0000
1000
0000
0010
0000
0100
0000
,
0010
0100
0000
0100
0000
0000
0000
0000
0001
0000
0010
0000
1100
0000
0000
0000
,
1000
0000
1000
0100
0000
0100
0001
0100
,
0010
0000
0010
0001
0000
0001
0010
1000
,
0010
0000
0010
0100
0000
0100
1000
0100
,
0001
0000
0001
0100
0000
0100
0010
0001
,
0010
0000
0010
1000
0000
1000
0010
0001
,
0010
0000
0010
0100
0000
0100
1000
0100
,
0001
0000
0001
0100
0000
0100
1000
0100
,
0010
0000
0010
0100
0000
0100
1001
0000
,
0100
0100
0100
0100
,
0010
0000
1000
0000
0010
0100
0000
0000
0001
0000
0100
0010
0000
0000
0000
0000
,
1000
1000
0100
0100
,
0010
0000
0001
0000
0010
0100
0000
0000
1000
0000
0001
0010
0000
0000
0000
0000
,
0100
0100
1000
1000
,
0010
0000
0100
0000
0001
0100
0000
0000
0010
0000
1000
0010
0000
0000
0000
0000
,
1000
0100
0010
0001
,
0010
0000
0100
0000
1000
0001
0000
0000
0010
0000
0001
1000
0000
0000
0000
0000
,
1001
0000
0000
0000
0001
0100
0000
0000
0010
0000
1000
0010
0000
0000
0000
0000
,
1100
0000
0000
0000
0010
0001
0000
0000
1000
0000
0100
0010
0000
0000
0000
0000
,
0011
0000
0000
0000
0110
0000
0000
0000
1000
0000
0001
0100
0000
0000
0000
0000
,
0000
0000
0001
0000
1000
0100
0000
0000
0100
0000
0010
0001
0000
0000
0000
0000
,
1001
0000
0000
0000
0110
0000
0000
0000
0010
0000
1000
0001
0000
0000
0000
0000
,
0110
0000
0000
0000
1001
0000
0000
0000
0100
0000
0010
1000
0000
0000
0000
0000
,
0101
0000
0000
0000
0110
0000
0000
0000
0010
0000
2000
0002
0000
0000
0000
0000
,
0M00
00M0
0M00
00M0
3M13
0000
0000
0000
,
1000
0000
0001
0000
0100
0010
0000
0000
1000
0000
0100
0010
0000
0000
0001
0000
,
0010
0000
0100
0000
1000
0001
0000
0000
0010
0000
0100
1000
0000
0000
0001
0000
,
0010
0000
0100
0000
1000
0010
0000
0000
0100
0000
0001
0100
0000
0000
0010
0000
,
1000
0000
0100
0000
0010
0001
0000
0000
0010
0000
0100
1000
0000
0000
0001
0000
,
0010
0000
0100
0000
1000
0001
0000
0000
0100
0000
0010
1000
0000
0000
0100
0000
,
0010
0000
0001
0000
0010
0100
0000
0000
1000
0000
0001
0010
0000
0000
0100
0000
,
1000
0000
0010
0000
0100
0001
0000
0000
0100
0000
0010
1000
0000
0000
0000
0000
,
0001
1000
0100
0010
0001
0000
1001
0000
,
0110
0000
0000
0000
0001
1000
0000
0000
0110
0000
0000
0000
2002
0000
0000
3003
,
0001
0000
0100
0000
0010
1000
0000
0000
0010
0000
1000
0000
2000
0000
0000
0000
,
3001
0000
0010
0000
0100
1000
0000
0000
0001
0000
0010
0000
2001
0000
0000
0000
,
3010
0000
0100
0000
0001
0100
0000
0000
0010
0000
2000
0000
0000
0000
0000
0000
,
3001
0000
1000
0000
0100
1000
0000
0000
0001
0000
0100
0000
0000
0000
0000
0000
,
0001
0000
1000
0000
0100
0010
0000
0000
0001
0000
0010
0000
0000
0000
0000
0000
,
0100
1000
0100
1000
0000
0000
0000
0000
0001
0000
0001
0010
0000
0000
0010
0000
,
0100
1000
0100
1000
0000
0000
0000
0000
1001
0000
0000
0000
0000
0000
0000
0000
;
#NOTES:
     dance-single:
     Renard:
     Easy:
     6:
     0.430,0.606,0.273,0.038,0.000:
0000
0000
0000
0000
,
0000
0000
0000
0000
,
0000
0000
0000
0000
,
0000
0000
0000
0000
,
1000
0000
1000
0001
1000
0001
1000
0001
,
1000
0000
0001
1000
0001
1000
0000
0000
,
0010
0000
0100
0010
0100
0010
0100
0001
,
1000
1000
1000
0000
,
1000
0001
0100
1001
,
1000
0000
0100
1000
0001
1000
0001
1000
,
0001
0001
0100
0100
,
0010
1000
0100
1100
,
1000
0001
0010
1001
,
0001
0000
0100
0010
0100
0010
0000
0100
,
0010
0100
0001
1000
,
1100
1001
0110
0000
,
1000
0000
0010
1000
0010
0000
1000
0000
,
0001
0000
0100
0001
0100
0000
0001
0000
,
1000
1000
0100
0100
,
0010
0000
0010
0001
0010
0000
0001
0000
,
0011
0110
0110
0011
,
0110
0110
0011
0110
,
0110
0000
0011
0000
,
1001
0000
0000
0000
,
1000
0001
1000
0000
0010
0100
0010
0000
,
0100
0001
0100
0000
0001
0000
0000
0000
,
1000
0100
1000
0000
0100
0010
0100
0000
,
0010
0001
0010
0000
0001
0000
0000
0000
,
1000
0010
1000
0000
0001
0100
0001
0000
,
1000
0100
1000
0000
0001
0010
0001
0000
,
1000
0010
1000
0000
0001
0100
0001
0000
,
1000
0001
1000
0000
0001
0000
0000
0000
,
1000
1000
0001
0001
,
0100
0100
0010
0010
,
1000
1000
0100
0100
,
0010
0010
0001
0001
,
1000
0000
0000
1000
0000
0000
1000
0000
,
0001
0000
0000
0001
0000
0000
0001
0000
,
0100
0000
0000
0100
0000
0000
0100
0000
,
0010
0000
0000
0010
0000
0000
0110
0000
,
0100
0100
0100
0100
,
0001
1000
0001
0000
1000
0000
1000
0000
,
0001
0001
1000
1000
,
0010
0100
0010
0000
0100
0000
0100
0000
,
0010
0010
0100
0100
,
0001
1000
0001
0000
1000
0000
0001
0000
,
1000
0100
1000
0000
0100
0000
1000
0000
,
0001
0010
0001
0000
1000
0000
0001
0000
,
0220
0000
0000
0330
,
1001
0000
1000
0000
0001
1000
0001
0000
,
0110
0110
0110
0000
,
0010
0000
0000
0000
,
0100
0001
1000
0100
,
0010
0001
0010
0100
,
1100
1100
1001
1001
,
0000
0000
0000
0000
,
1000
0000
0001
0000
0100
0001
0100
0000
,
0001
0000
1000
0000
0100
1000
0100
0000
,
1000
0000
0001
0000
0100
0001
0100
0000
,
0001
1000
0100
0100
,
1000
0000
0001
0000
0100
0001
0100
0000
,
0001
0000
1000
0000
0100
1000
0100
0000
,
1000
0000
0001
0000
0100
0001
0100
0000
,
0001
1000
1100
1100
,
1000
0000
0001
0000
1000
0100
1000
0000
,
0001
0000
0010
0000
0001
1000
0001
0000
,
0100
0000
0010
0000
1000
0010
0000
0000
,
0000
0000
1000
0000
0001
0100
0000
0000
,
0001
0000
1000
0000
0100
1000
0000
0000
,
0001
0000
0010
0000
0100
1000
0000
0000
,
0001
0100
0010
1000
,
2000
0002
3013
0000
;
#NOTES:
     dance-single:
     Renard:
     Beginner:
     3:
     0.303,0.336,0.207,0.056,0.000:
0000
0000
0000
0000
,
0000
0000
0000
0000
,
0000
0000
0000
0000
,
0000
0000
0000
0000
,
1000
1000
0001
0001
,
0100
0100
0100
0000
,
0001
0001
1000
1000
,
0100
0100
0100
0000
,
1000
1000
0001
0100
,
0001
0010
0001
0010
,
0001
1000
0001
1000
,
0001
0100
0001
0100
,
0010
0010
1000
1000
,
0100
1000
0001
0010
,
0001
0001
1000
1000
,
0010
0100
0110
0000
,
0010
0100
0010
0100
,
0010
0010
0010
0000
,
1000
0001
1000
0001
,
1000
1000
1000
0000
,
1000
0001
1000
0001
,
1000
0001
0001
0000
,
0100
0100
0010
0010
,
0100
0000
0000
0000
,
1001
0000
0110
0000
,
2002
0000
3003
0000
,
0110
0000
1001
0000
,
0220
0000
0330
0000
,
1001
0000
0110
0000
,
2002
0000
3003
0000
,
1001
0000
0110
0000
,
0110
0000
1001
0000
,
1000
1000
0100
0100
,
1000
1000
0100
0100
,
1000
1000
0100
0100
,
1000
1000
0100
0100
,
1000
0000
1000
0000
,
0100
0000
0100
0000
,
0010
0000
0001
0000
,
0010
0000
0000
1001
,
1000
0000
1000
0000
,
0001
0100
0010
1000
,
0001
0000
0001
0000
,
0100
0010
1000
0100
,
0010
0000
0001
0000
,
0010
0100
1000
0010
,
0100
0000
0100
0000
,
0001
1000
0001
1000
,
1001
0000
0000
0000
,
0110
0000
0000
0000
,
1001
0001
0001
0001
,
1001
0000
0000
0000
,
1001
1000
1000
1000
,
0010
0100
0001
1000
,
0100
0100
0010
0001
,
0000
0000
1001
0000
,
1000
0000
0001
1000
,
0001
0000
1000
0001
,
1000
0000
0010
0100
,
0010
0000
0100
0001
,
1000
0000
0100
0010
,
0001
0000
1000
0010
,
0100
0000
0001
0010
,
0001
1000
0100
1000
,
0001
0000
0010
0000
,
0001
0000
0010
0100
,
1000
0000
0100
0000
,
1000
0100
1000
0000
,
0001
0000
0100
0000
,
0001
1000
0100
0000
,
1000
0000
0100
0000
,
0010
0100
1001
0000
;
#NOTES:
     dance-single:
     Renard:
     Hard:
     9:
     0.653,0.841,0.480,0.216,0.372:
0000
0000
0000
0000
,
0000
0000
0000
0000
,
0000
0000
0000
0000
,
0000
0000
0000
0000
0000
0000
0000
0000
0000
0000
0000
0000
1000
0000
0001
0100
,
0000
0000
0000
0000
,
0000
0000
0000
0000
,
0000
0000
0000
0000
,
0202
0310
2010
3003
,
1001
1011
1001
0111
,
1001
0000
2100
0100
0001
0001
3010
0100
,
0012
0000
0000
0000
1000
0000
1000
0000
0103
0000
0001
1000
0100
0000
0000
0000
,
1100
0000
1002
1000
0200
0000
0313
0000
,
1100
0110
2002
3013
,
0201
0000
0310
0010
1000
1000
0100
0000
,
1100
0010
0001
0000
0101
0010
1000
0000
,
2002
0000
0000
3013
,
0001
0000
0000
0000
0100
0000
0100
0000
0010
0000
0010
0000
1000
0010
0001
0000
,
0010
0000
0100
0100
0001
1000
0002
2000
,
0000
0000
0000
0000
,
0000
0000
0000
0000
0000
3003
1000
0001
,
1000
0000
0000
0000
0100
0000
0100
0000
0001
0000
0100
0000
0010
0001
0010
0000
,
1000
0000
0010
0100
1000
0001
0100
0100
,
0010
1000
0010
1000
0000
0000
0000
0000
0001
0000
0100
0001
0000
0000
0000
0000
,
1000
0100
1000
0100
0000
0000
0000
0000
1000
0000
0000
0000
1000
0000
0000
0000
,
0001
0100
0001
0100
0010
0000
0000
0000
1000
0000
1000
0100
0010
0000
0001
0000
,
1000
0010
1000
0010
0100
0000
0000
0000
0001
0000
0001
0010
0100
0000
1000
0000
,
0001
0100
0001
0100
0010
0000
0000
0000
1000
0000
1000
0100
0010
0000
0001
0000
,
1000
0010
1000
0010
0100
0000
0000
0000
0001
0000
0001
0010
0100
0000
1000
0000
,
0010
0001
0010
0001
1000
0000
0000
0000
0100
0000
0100
0001
1000
0000
0010
0000
,
0100
1000
0100
1000
0001
0000
0000
0000
0010
0000
0010
1000
0001
0000
0100
0000
,
0010
0001
0010
0001
1000
0000
0000
0000
0100
0000
0100
0001
1000
0000
0010
0000
,
0100
1000
0100
1000
0001
0000
0000
0000
0010
0000
0010
1000
0001
0000
0100
0000
,
0001
0000
0001
0100
0000
0100
1000
0010
,
0001
0000
0001
0100
0000
0100
1000
0010
,
0001
0000
0001
0100
0000
0100
1000
0010
,
0001
0000
0001
0100
0000
0100
1000
0010
,
0001
0000
0001
0100
0000
0100
0002
0000
,
2000
0000
0000
0000
,
0000
0000
0000
0000
,
0000
0000
0000
3113
,
1000
1000
1000
1000
,
0000
0000
0101
0000
0010
1000
0000
0000
1100
0000
1000
0010
0000
0000
0000
0000
,
0001
0001
0001
0001
,
0000
0000
0101
0000
0010
1000
0000
0000
1100
0000
1000
0100
0000
0000
0000
0000
,
0001
0001
0001
0001
,
0000
0000
0011
0000
0100
1000
0000
0000
1010
0000
0010
0100
0000
0000
0000
0000
,
0001
0001
0001
0001
,
0000
0000
1010
0000
0100
0001
0000
0000
1100
0000
1000
0010
0000
0000
0000
0000
,
2001
0000
0000
0000
,
3111
0000
0000
0000
,
0002
0110
1010
0113
,
0000
0000
0000
0000
,
0112
1010
0110
1010
,
0110
1010
0110
1013
,
2110
0101
0110
3101
,
0000
0000
1111
0000
,
0001
0000
1000
0100
1000
0000
0001
0100
0001
0000
1000
0100
1000
0000
0001
0100
,
0001
0000
1000
0100
1000
0000
0001
0100
0001
0000
1000
0100
1000
0000
0001
0100
,
0001
0000
1000
0100
1000
0000
0001
0100
0001
0000
1000
0100
1000
0000
0001
0100
,
0001
0000
1000
0100
1000
0000
0001
0100
0001
0000
1000
0000
0100
0000
0010
0000
,
0001
0000
1000
0010
1000
0000
0001
0010
0001
0000
1000
0010
1000
0000
0001
0010
,
0001
0000
1000
0010
1000
0000
0001
0010
0001
0000
1000
0010
1000
0000
0001
0010
,
0001
0000
1000
0010
1000
0000
0001
0010
0001
0000
1000
0010
1000
0000
0001
0010
,
0100
1000
0001
0100
0010
1000
0100
0000
,
1002
2003
0002
3013
,
0101
0000
0010
0000
1000
0100
0000
0000
0011
0000
0100
0000
1000
0000
0010
0000
,
0100
0000
0001
0000
0100
0010
0000
0000
1010
0000
0100
0000
0000
0000
1000
0000
,
0010
0000
1000
0000
0100
0010
0000
0000
0001
0000
0010
0000
0100
0000
1000
0000
,
0001
0000
0100
0000
0010
1000
0000
0000
0101
0000
0010
0000
1000
0000
0100
0000
,
0010
0001
0010
0001
0000
0000
0000
0000
1000
0000
1000
0100
0000
0000
0000
0000
,
1000
0010
1000
0010
0000
0000
0000
0000
0100
0000
0100
0001
0000
0000
0000
0000
,
0010
0001
0010
0001
0000
0000
0000
0000
1100
0000
0000
0000
0000
0000
0000
0000
;
