#TITLE:Tower of Science;
#SUBTITLE:;
#ARTIST:Neko feat N. Sato;
#TITLETRANSLIT:;
#SUBTITLETRANSLIT:;
#ARTISTTRANSLIT:;
#CRChallenge:;
#BANNER:science.png;
#BACKGROUND:science-bg.png;
#LYRICSPATH:;
#CDTITLE:!cdtitle.png;
#MUSIC:science.ogg;
#OFFSET:0.000;
#SAMPLESTART:12.287;
#SAMPLELENGTH:12.000;
#SELECTABLE:YES;
#BPMS:0.000=155.000,64.000=77.500,80.000=155.000;
#STOPS:;
#BGCHANGES:;
#NOTES:
     dance-single:
     Renard:
     Hard:
     12:
     0.782,1.000,0.205,0.010,1.000:
0000
0000
0000
0000
,
0000
0000
0000
0000
,
0000
0000
0000
0000
,
0000
0000
0000
0000
,
1100
0000
0000
0000
0011
0000
0000
0000
0000
0000
0000
0000
1000
0100
0010
0001
,
1000
0001
0000
0001
1000
0000
1000
0010
0000
0010
0100
0000
0001
0000
0010
0000
,
0100
1000
0000
1000
0001
0000
0001
0010
0000
0010
0001
0000
0010
0100
1000
0001
,
0010
0001
0000
1000
0100
0000
0010
0001
0010
0100
1000
0000
1001
0000
0000
0000
,
0001
0100
0000
0100
0010
0000
0010
1000
0000
1000
0100
0000
0110
0000
0000
0000
,
0010
0001
0000
0001
1000
0000
1000
0010
0000
0010
0100
0000
0110
0000
0000
0000
,
0100
0010
0000
0010
1000
0000
1000
0001
0000
0001
0010
0000
0011
0000
0000
0000
,
0010
0100
0000
0100
1000
0000
1000
0001
0000
0001
0100
0000
0010
1000
0001
1000
,
0010
0100
0000
0100
0001
0000
0001
1000
0000
1000
0100
0000
0010
0001
0010
0100
,
1000
0001
0000
0001
0100
0000
0100
0010
0000
0010
1000
0000
0010
0000
0100
0000
,
0001
0100
0000
0100
0010
0000
0010
1000
0000
1000
0010
0000
0100
0001
0010
0100
,
1000
0001
0000
0001
1000
0000
1000
0001
0000
0000
0100
0000
0110
0000
0000
0000
,
1010
0000
0000
0000
0000
0000
1000
0000
0100
0000
0000
0000
0000
0000
0100
0000
0010
0000
0000
0010
0000
0000
0010
0000
0001
0000
0000
0000
0000
0000
0000
0000
,
1000
0000
0000
0000
0000
0000
1000
0000
0001
0000
0000
0000
0000
0000
0001
0000
0100
0000
0000
0010
0000
0000
1000
0000
0001
0000
0000
0000
0000
0000
0010
0001
,
0010
0000
0000
0000
0000
0000
0100
0000
1000
0000
0000
0000
0000
0000
0001
0000
0100
0000
0000
0100
0000
0000
0100
0000
0010
0000
0000
0000
0000
0000
1000
0000
,
0100
0000
0000
0000
0000
0000
0010
0000
0001
0000
0000
0000
0000
0000
0010
0000
0100
0000
0000
1000
0000
0000
0001
0000
0010
0000
0001
0000
0010
0100
1000
0001
,
1000
0100
0000
0100
1000
0000
1000
0001
0000
0001
0100
0000
0001
0000
0010
0000
,
0100
1000
0000
1000
0001
0000
0001
0010
0000
0010
0001
0000
1000
0000
0010
0000
,
0100
0010
0000
0010
1000
0000
1000
0001
0000
0001
0010
0000
0100
0000
1000
0000
,
0001
0100
0000
0100
0001
0000
0001
1000
0000
1000
0100
0000
0010
0000
0001
0000
,
1000
0100
0000
0100
1000
0000
0001
0010
0000
0010
0001
0000
1000
0000
0010
0000
,
0100
0010
0000
0010
0100
0000
0001
1000
0000
1000
0001
0000
1000
0000
0100
0000
,
0010
0001
0000
0001
0010
0000
0100
1000
0000
1000
0100
0000
1000
0000
0001
0000
,
0100
0000
0010
0000
1000
0000
0001
0100
0010
1000
0001
0000
1001
0000
0000
0000
,
1000
0000
0100
0010
0001
0010
0100
1000
0001
0010
0100
0010
0000
0001
0010
0100
,
1000
0001
0100
0010
1000
0100
1000
0001
0010
0100
1000
0001
0010
0001
1000
0000
,
0001
0000
0100
0001
1000
0100
0010
0001
0000
1000
0100
1000
0001
0010
0100
1000
,
0100
1000
0010
0100
0000
0010
1000
0001
0100
0001
1000
0100
0010
0001
0010
0100
,
1000
0000
0000
0000
0000
0000
0100
0000
0000
0000
0000
0000
1000
0000
0000
0001
0000
0000
0000
0000
0000
0001
0000
0000
0010
0000
0000
0000
0100
0000
0000
0000
1000
0000
0000
0000
0001
0000
0000
0000
0010
0000
0000
0000
0100
0000
0000
0000
,
1000
0100
0010
0001
1000
0100
0010
0001
1000
0000
0001
0100
0001
1000
0100
0000
,
1000
0100
1000
0100
1000
0100
1000
0100
1000
0100
1000
0100
0010
0001
0010
0001
0010
0001
0010
0001
0010
0001
0010
0001
,
0100
0001
0100
0001
0100
0001
1000
0010
1000
0010
1000
0010
2000
0000
0000
0000
0000
0000
0000
0000
0000
0000
0000
0000
,
3001
0000
0010
0100
1000
0100
0010
0001
1000
0100
0010
0001
1000
0010
0100
0001
,
1000
0000
0000
0100
0000
0000
0010
0000
0000
0000
0000
0000
0001
0000
0000
0000
0000
0000
0010
0000
0001
0000
0010
0000
0001
0000
0000
0010
0000
0000
0100
0000
0000
1000
0000
0000
0001
0000
0000
1000
0000
0000
0001
0000
0000
1000
0000
0000
,
0001
0000
0000
0010
0000
0000
0100
0000
0000
1000
0000
0000
0001
0000
0000
0000
0000
0000
0000
0000
0000
0000
0000
0000
1000
0000
0000
0000
0000
0000
0001
0000
0000
0000
0001
0000
1000
0000
0000
0000
0000
0000
0001
0000
0000
0000
0001
0000
,
1000
0100
0010
0001
0010
0100
1000
0001
0010
0100
1000
0100
0010
0001
1000
0000
,
10M1
0M00
0000
0M00
10M1
0000
00M0
0M00
0000
0M00
000M
0000
M000
0M00
00M0
000M
,
M000
000M
0000
000M
0M00
0000
0M00
00M0
0000
00M0
M000
0000
0M00
0000
00M0
0000
,
000M
00M0
0000
00M0
0M00
0000
0M00
M000
0000
M000
000M
0000
0M00
00M0
M000
0M00
,
00M0
000M
0000
000M
M000
0000
M000
00M0
0M00
000M
00M0
0000
0M00
0000
M00M
0000
,
1001
0110
0000
0000
,
0010
0000
0000
0000
1000
0000
0000
0001
0000
0000
0100
0000
0001
0000
1000
0000
,
0100
0000
0000
0000
0010
0000
0000
0001
0000
0000
0010
0000
0100
0000
1000
0000
,
0001
0000
0010
0000
0100
0000
1000
0000
0001
0000
0100
0001
0100
0001
0100
0000
,
0001
1000
0000
1000
0100
0000
0100
0010
0000
0010
0001
0000
0011
0000
0000
0000
,
0010
0100
0000
0100
1000
0000
1000
0001
0000
0001
0100
0000
0101
0000
0000
0000
,
0100
0010
0000
0010
1000
0000
1000
0001
0000
0001
0010
0000
0011
0000
0000
0000
,
0010
0100
0000
0100
1000
0000
1000
0001
0000
0001
0100
0000
0101
0000
0000
0000
,
0100
0010
0000
0010
1000
0000
1000
0001
0000
0001
0010
0000
0011
0000
0000
0000
,
0010
0001
0000
0001
1000
0000
1000
0100
0000
0100
1000
0000
1100
0000
0000
0000
,
1000
0010
0000
0010
1000
0000
0001
0100
0000
0100
0001
0000
0101
0000
0000
0000
,
0001
0000
0000
1000
0000
0000
0100
0000
0000
0010
0000
0000
0001
0000
0000
0000
0000
0000
0010
0000
0000
0000
0000
0000
0100
0000
0000
0000
0000
0000
1000
0000
0100
0000
0010
0000
0001
0000
0000
0000
0000
0000
0000
0000
0000
0000
0000
0000
;
#NOTES:
     dance-single:
     Renard:
     Medium:
     9:
     0.633,0.941,0.184,0.000,0.824:
0000
0000
0000
0000
,
0000
0000
0000
0000
,
0000
0000
0000
0000
,
0000
0000
0000
0000
,
1100
1001
0000
0000
,
0001
0000
0000
0000
0100
0000
0000
0010
0000
0000
1000
0000
0100
0000
0010
0000
,
0001
0000
0000
0000
0010
0000
0000
0100
0000
0000
1000
0000
0001
0000
0100
0000
,
0010
0000
1000
0000
0001
0010
1001
0000
,
0001
0100
0000
0001
0100
0000
0000
0000
0010
0000
1000
0000
1010
0000
0000
0000
,
1000
0100
0000
1000
0100
0000
0000
0000
0010
0000
0001
0000
0011
0000
0000
0000
,
0001
0100
0000
0001
0100
0000
0000
0000
0001
0000
0100
0000
0101
0000
0000
0000
,
0100
0010
0000
0010
1000
0000
0000
0000
1000
0001
0000
0001
0100
0000
0000
0000
,
0001
1000
0000
1000
0100
0000
0000
0000
0100
0000
1000
0000
0001
0000
0000
0000
,
0010
0001
0000
0001
1000
0000
0000
0000
0001
0000
0100
0000
0010
0000
0000
0000
,
1000
0010
0000
0010
0100
0000
0000
0000
0001
0000
0010
0000
0100
0000
0000
0000
,
1000
0001
0000
0001
0100
0000
0000
0000
0100
0000
0010
1000
0010
0000
0000
0000
,
1010
0000
0000
0000
0000
0000
1000
0000
0100
0000
0000
0000
0000
0000
0100
0000
0010
0000
0000
0010
0000
0000
0010
0000
0001
0000
0000
0000
0000
0000
0000
0000
,
1000
0000
0000
0000
0000
0000
1000
0000
0001
0000
0000
0000
0000
0000
0001
0000
0100
0000
0000
0010
0000
0000
1000
0000
0001
0000
0000
0000
0000
0000
0010
0001
,
0010
0000
0000
0000
0000
0000
0100
0000
1000
0000
0000
0000
0000
0000
0001
0000
0100
0000
0000
0100
0000
0000
0100
0000
0010
0000
0000
0000
0000
0000
1000
0000
,
0100
0000
0000
0000
0000
0000
0010
0000
0001
0000
0000
0000
0000
0000
0010
0000
0100
0000
0000
1000
0000
0000
0001
0000
0010
0000
0001
0000
0010
0000
0100
0000
,
1000
0100
0000
0010
0001
0000
1000
0000
0010
0000
0100
0000
0110
0000
0000
0000
,
0010
1000
0000
0001
0010
0000
0100
0000
1000
0000
0001
0000
0101
0000
0000
0000
,
0001
0100
0000
0010
1000
0000
0001
0000
0010
0000
0100
0000
1100
0000
0000
0000
,
1000
0100
0000
0010
0001
0000
1000
0000
0010
0000
0100
0000
0110
0000
0000
0000
,
0010
1000
0010
1000
0010
1000
0010
1000
0010
1000
0010
1000
0010
1000
0010
1000
,
0001
0100
0001
0100
0001
0100
0001
0100
0001
0100
0001
0100
0001
0100
0001
0100
,
0001
0010
0001
0010
0001
0010
0001
0010
0001
0010
0001
0010
0001
0010
0001
0010
,
0100
1000
0100
1000
0100
1000
0100
1000
0100
0000
0000
0000
1001
0000
0000
0000
,
0001
0000
0100
0000
0010
0000
0000
0010
1000
0000
0100
0000
0010
0000
0000
0000
,
0001
0000
1000
0000
0010
0000
0000
0010
1000
0000
0010
0000
0100
0000
0001
0000
,
0010
0000
0000
0000
0001
0000
0000
0001
1000
0000
0100
0000
0010
0000
0000
0000
,
0001
0000
1000
0000
0010
0000
0000
0010
0100
0000
0001
0000
1000
0000
0100
1000
,
0100
0000
0000
0000
1000
0000
0000
0001
0010
0000
0001
0000
1000
0000
0000
0000
,
0010
0000
0000
0000
1000
0000
0000
0001
0100
0000
0001
0000
1000
0000
0000
0000
,
0001
0100
0001
0100
0001
0100
0001
0100
0010
0100
0010
0100
0010
0100
0010
0100
,
0010
1000
0010
1000
0001
1000
0001
1000
0100
0000
1000
0000
0100
1000
0001
0000
,
1000
0000
0100
1000
0100
0000
1000
0000
0001
0000
0000
0100
0000
0000
0010
1000
,
0010
1000
0010
0000
1000
0000
0001
0000
0100
0000
0001
0000
1000
0100
0010
0001
,
1000
0000
0000
1001
0000
0000
0000
0000
0001
0000
1000
0000
0001
0000
1000
0000
,
0001
1000
0001
1000
0010
0100
0010
0100
0001
1000
0001
1000
0010
0100
0010
0000
,
10M1
0M00
0000
0M00
10M1
0000
00M0
0M00
0000
0M00
000M
0000
M000
0M00
00M0
000M
,
M000
000M
0000
000M
0M00
0000
0M00
00M0
0000
00M0
M000
0000
0M00
0000
00M0
0000
,
000M
00M0
0000
00M0
0M00
0000
0M00
M000
0000
M000
000M
0000
0M00
00M0
M000
0M00
,
00M0
000M
0000
000M
M000
0000
M000
00M0
0M00
000M
00M0
0000
0M00
0000
M00M
0000
,
1001
0110
0000
0000
,
0010
0000
0000
0000
1000
0000
0000
0001
0000
0000
0100
0000
0001
0000
1000
0000
,
0100
0000
0000
0000
0010
0000
0000
0001
0000
0000
0010
0000
0100
0000
1000
0000
,
0001
0000
0010
0000
0100
0000
1000
0000
0001
0000
1000
0100
1000
0000
0000
0000
,
0001
0100
0000
0010
1000
0000
0001
0100
0000
0000
0010
0000
1000
0000
0100
0000
,
0010
0001
0000
1000
0100
0000
0010
0001
0000
0000
1000
0000
0100
0000
0010
0000
,
0001
1000
0000
0010
0100
0000
0001
0100
0000
0000
0010
0000
1000
0000
0100
0000
,
0010
0001
0000
1000
0100
0000
0010
0001
0000
0000
1000
0000
0010
0000
0100
0000
,
0010
1000
0000
0001
0100
0000
0010
1000
0000
0001
0100
0000
0010
0000
1000
0000
,
0100
0010
0000
0001
1000
0000
0100
0010
0000
0001
1000
0000
0100
0000
1000
0000
,
0001
0100
0000
0010
1000
0000
0001
0100
0000
0010
1000
0000
0001
0000
0010
0000
,
0100
1000
0000
0001
0010
0000
0100
0000
1000
0000
0001
0000
0101
0000
0000
0000
;
#NOTES:
     dance-single:
     Renard:
     Easy:
     7:
     0.395,0.428,0.174,0.143,0.000:
0000
0000
0000
0000
,
0000
0000
0000
0000
,
0000
0000
0000
0000
,
0000
0000
0000
0000
,
1001
1001
0000
0000
,
0000
0000
0000
0000
,
0000
0000
0000
0000
,
0000
0000
0000
0000
1000
0001
1001
0000
,
1000
0000
0100
0000
1000
0100
1000
0000
,
0001
0000
0100
0000
0001
0100
0001
0000
,
1000
0000
0010
0000
1000
0010
1000
0000
,
0001
0000
0010
0000
0001
0010
0001
0000
,
1000
0000
0001
0000
0100
0000
0001
1000
,
0100
0000
1000
0000
0001
0000
0010
0001
,
1000
0000
0010
1000
0001
0000
0010
0001
,
1000
0000
0001
0000
0100
0010
0100
0000
,
0020
0000
0000
2030
3200
0000
0320
0000
,
0032
0000
0000
1000
2003
0000
0000
0000
,
3020
0000
0000
0230
0302
0000
0023
0000
,
0230
0000
0000
2300
3020
0000
0000
0000
,
0130
0001
0100
0001
,
1000
0000
0100
0000
1000
0100
0010
0001
,
1000
0100
1000
0100
,
0010
0000
0001
0000
1000
0010
0100
0001
,
1000
1100
0001
0101
,
1000
0000
1100
0000
1000
0100
0010
0000
,
0001
0011
1000
1010
,
0001
0000
0011
0000
0001
0010
0100
0000
,
1000
0000
0100
0000
0000
1000
0100
0000
,
1000
0000
0001
0000
0100
0001
0010
0000
,
0001
0000
0100
0000
0000
0001
0010
0000
,
0001
0000
1000
0000
0100
1000
0010
0000
,
0100
0000
0010
0000
0000
1000
0010
0000
,
0100
0000
0001
0000
0010
0001
0100
0000
,
0001
0100
0001
0100
0001
0100
0001
0100
,
0010
1000
0001
0100
0020
0000
0000
0000
,
1030
1000
0010
1000
,
0010
1000
0100
0010
0001
1000
0001
0100
,
0010
0010
1000
1000
,
0010
1000
0100
1000
0001
0010
0100
0000
,
1001
1001
0000
0000
,
0001
1000
0001
1000
,
0001
1000
0001
1000
,
0001
1000
0001
1000
,
0110
1001
1000
0001
,
0100
0010
0100
0010
,
1000
1000
0001
0001
,
1000
0000
0100
0000
0010
0001
1000
0000
,
0001
0000
0101
0000
0001
0100
0001
0000
,
1000
0000
1100
0000
1000
0100
1000
0000
,
0001
0000
0101
0000
0001
0100
0001
0000
,
1000
0000
1100
0000
1000
0100
1000
0000
,
0100
1000
0100
1000
0100
1000
0100
0000
,
1000
0001
1000
0001
1000
0001
1000
0000
,
0001
0100
0001
0100
0001
0100
0001
0000
,
0100
0001
0010
0000
0100
1000
0010
0000
;
#NOTES:
     dance-single:
     Renard:
     Beginner:
     3:
     0.282,0.456,0.266,0.143,0.000:
0000
0000
0000
0000
,
0000
0000
0000
0000
,
0000
0000
0000
0000
,
0000
0000
0000
0000
,
1001
1001
0000
0000
,
0000
0000
0000
0000
,
0000
0000
0000
0000
,
0000
0000
0000
0110
,
0010
0100
0001
0100
,
0010
0100
0001
0000
,
0100
0010
1000
0100
,
1000
0010
0100
0000
,
0010
1000
0100
0010
,
0001
1000
0100
0000
,
1000
0001
0010
0100
,
1000
0001
1000
0000
,
0002
0000
0203
0320
,
2030
0000
3200
0000
,
2300
0000
3002
0203
,
0302
0000
0023
0000
,
0130
1000
0100
1000
,
0001
0100
0001
0100
,
0001
0010
0001
0010
,
0100
0100
1000
1000
,
0001
0100
0000
0100
,
0010
1000
0000
1000
,
0010
1001
0000
1001
,
0100
1001
0010
1001
,
1000
0001
1000
0010
,
1000
0100
1000
0010
,
1000
0001
0100
0001
,
0010
0001
0100
0001
,
1000
1000
0100
0100
,
0010
0001
0010
0100
,
2000
0000
0200
0000
,
0010
0001
0011
3300
,
0100
0100
1000
1000
,
0010
0100
0001
0101
,
0010
0010
0101
0101
,
0010
0010
1000
0001
,
M1MM
M1MM
MMMM
MMMM
,
MMMM
MMMM
MMMM
MMMM
,
MMMM
MMMM
MMMM
MMMM
,
MMMM
MMMM
MMMM
MMMM
,
M11M
M11M
MMMM
MMMM
,
MMMM
MMMM
MMMM
MMMM
,
MMMM
MMMM
MMMM
MMMM
,
2MM2
0MM0
0MM0
3M13
,
1000
0001
1000
0001
,
0100
0001
0100
0001
,
1000
0100
1000
0100
,
1000
0001
1000
0001
,
0100
0101
0001
1001
,
1000
1100
0001
0011
,
1001
1001
1010
1010
,
1001
0101
1010
0101
;
