#TITLE:Tonight, Tonight;
#SUBTITLE:;
#ARTIST:Wayfinder;
#TITLETRANSLIT:;
#SUBTITLETRANSLIT:;
#ARTISTTRANSLIT:;
#CRChallenge:;
#BANNER:tonight.png;
#BACKGROUND:tonight-bg.png;
#LYRICSPATH:;
#CDTITLE:!cdtitle.png;
#MUSIC:tonight.ogg;
#OFFSET:0.000;
#SAMPLESTART:58.823;
#SAMPLELENGTH:12.000;
#SELECTABLE:YES;
#BPMS:0.000=130.340;
#STOPS:;
#BGCHANGES:;
#NOTES:
     dance-single:
     Renard:
     Medium:
     7:
     0.449,0.441,0.114,0.154,0.13:
0000
0000
0000
0000
,
0000
0000
0000
0000
,
0000
0000
0000
0000
,
0000
0000
0000
0000
,
0000
0000
0000
0000
,
0000
0000
0000
0000
,
0000
0000
0000
0000
,
0000
0000
0000
0000
,
1001
0000
0000
0000
0000
0000
0000
0010
0000
0000
1000
0000
0000
0000
0100
0000
,
0010
0000
0000
0000
0000
0000
0000
0001
0000
0000
1000
0000
0000
0000
0010
0000
,
0100
0000
0000
0000
0000
0000
0000
0001
0000
0000
1000
0000
0000
0000
0001
0000
,
0000
0000
0100
0000
0001
0000
1000
0100
0000
0000
1000
0000
0001
0000
0100
0000
,
0010
0000
0000
0000
0000
0000
0000
1000
0000
0000
0001
0000
0000
0000
0001
0000
,
0100
0000
0000
0000
0000
0000
0000
0001
0000
0000
1000
0000
0000
0000
0100
0000
,
0010
0000
0000
0000
0000
0000
0000
0001
0000
0000
1000
0000
0000
0000
0010
0000
,
0000
0000
0100
0000
0001
0000
0100
0010
0000
1000
0010
0000
0100
0000
0001
0000
,
1000
0000
0200
0001
0000
0300
0200
1000
,
0000
2300
0000
3020
0000
0032
0000
0023
,
0000
0000
0130
0000
0001
0000
0000
1000
0000
0000
0001
0000
0000
0000
0100
0000
,
0010
1000
0100
0010
0001
0000
1000
1000
,
0001
0000
0020
1000
0000
0030
0020
0001
,
0000
0032
0000
0203
0000
2300
0000
3200
,
0000
0000
0310
0000
1000
0000
0000
0001
0000
0000
1000
0000
0000
0000
0010
0000
,
0100
0001
0010
0100
1000
0000
0001
0001
,
1000
0000
0000
0000
0001
0000
0200
0001
0000
0000
0301
0000
1000
0000
0020
0000
,
0100
0000
0030
0000
0100
0000
0001
1000
0000
0000
0001
0000
1000
0000
0200
0000
,
1000
0000
0000
0000
0310
0000
0000
0001
0010
0000
0100
0000
1000
0000
0010
0000
,
0100
0000
0001
0000
0001
0000
1000
0001
0000
0000
1000
0000
0100
0000
0010
0000
,
0001
0000
0000
0000
1000
0000
0020
1000
0000
0000
1030
0000
0001
0000
0200
0000
,
0010
0000
0300
0000
0010
0000
1000
0001
0000
0000
1000
0000
0001
0000
0020
0000
,
0001
0000
0000
0000
0130
0000
0000
1000
0100
0000
0010
0000
0001
0000
0100
0000
,
0010
0000
1000
0000
1000
0000
0001
1000
0000
0000
0001
0000
0010
0000
0100
0000
,
1000
0100
0001
0100
1000
0010
0001
0000
,
0001
0010
1000
0100
0001
0100
1000
0000
,
0001
0010
1000
0010
0001
0100
1000
0000
,
1000
0100
0001
0000
0001
0010
1000
0000
,
1000
0010
0001
0010
0100
1000
0100
0000
,
1000
0100
0001
0100
1000
0100
0010
0000
,
0010
0001
0100
0000
0100
0010
1000
0000
,
0100
0000
1000
0000
0001
0000
1000
0001
1000
0000
0100
0000
1000
0000
0001
0000
,
1000
0000
0000
0000
0101
0000
0000
0010
1000
0000
0100
0000
0010
0000
0000
0000
,
1000
0000
0000
0000
0011
0000
0000
0100
1000
0000
0010
0000
0100
0000
0000
0000
,
0001
0000
0000
0000
1010
0000
0000
1000
0100
0000
0010
0000
0001
0000
0000
0000
,
1000
0001
0100
0001
1000
0010
1000
0000
,
0100
0000
0000
0000
1001
0000
0000
0100
0010
0000
1000
0000
0100
0000
0000
0000
,
0010
0000
0000
0000
1001
0000
0000
0010
0001
0000
0100
0000
0010
0000
0000
0000
,
0100
0000
0000
0000
1001
0000
0000
0100
0010
0000
1000
0000
0100
0000
0010
0000
,
0001
0010
0100
0010
1000
0010
0100
0010
,
0001
0000
0000
0000
1001
0000
0000
0001
0100
0000
0010
0000
0100
0000
0001
0000
,
1000
0000
0000
0000
1001
0000
0000
1000
0100
0000
0010
0000
0100
0000
1000
0000
,
0001
0000
0000
0000
1001
0000
0000
1000
0010
0000
0100
0000
0010
0000
1000
0000
,
0001
0000
0000
0000
1001
0000
0000
0001
0010
0000
0100
0000
0010
0000
0001
0000
,
1000
0000
0000
0000
1001
0000
0000
0001
0100
0000
0010
0000
1000
0000
0100
0000
,
0010
0000
0000
0000
1001
0000
0000
0001
0010
0000
0100
0000
1000
0000
0010
0000
,
0200
0001
1000
0010
,
0310
1000
0100
0001
0100
0010
0001
1000
,
0001
0010
1000
0000
1000
0010
0001
0000
,
0001
0100
1000
0100
0001
0010
1000
0000
,
1000
0010
0100
0000
0100
1000
0100
0000
,
0100
0001
0100
1000
0010
0100
0001
0000
,
0001
0100
1000
0000
1000
0100
0001
0000
,
0001
0100
0010
1000
0010
0001
0010
0000
,
0010
1000
0100
0000
0100
0010
0001
0000
,
0001
0010
1000
0010
0100
1000
0001
0100
,
0101
0000
0000
0000
;
#NOTES:
     dance-single:
     Renard:
     Hard:
     9:
     0.570,0.597,0.568,0.000,0.288:
0000
0000
0000
0000
,
0000
0000
0000
0000
,
0000
0000
0000
0000
,
0000
0000
0000
0000
,
0000
0000
0000
0000
,
0000
0000
0000
0000
,
0000
0000
0000
0000
,
0000
0000
0000
0000
,
1100
0000
0000
0000
0000
0000
0000
0011
0000
0000
1001
0000
0000
0000
0001
0000
,
0100
0000
0000
0000
0000
0000
0000
0110
0000
0000
1010
0000
0000
0000
1000
0000
,
0010
0000
0000
0000
0000
0000
0000
0110
0000
0000
0101
0000
0000
0000
0110
0000
,
0000
0000
0010
0000
1000
0000
0100
0010
0000
0010
0100
0000
1000
0000
0010
0000
,
0110
0000
0000
0000
0000
0000
0000
0101
0000
0000
0110
0000
0000
0000
0010
0000
,
1000
0000
0000
0000
0000
0000
0000
1010
0000
0000
1001
0000
0000
0000
1000
0000
,
0100
0000
0000
0000
0000
0000
0000
1100
0000
0000
0011
0000
0000
0000
0110
0000
,
0000
0000
1100
0000
0011
0000
0010
0100
0000
0100
1000
0000
0010
0000
0100
0000
,
0001
0000
0000
0000
0110
0000
0000
0010
1000
0000
0100
0000
0010
0000
0001
0000
,
0010
0000
0000
0000
0110
0000
0000
0100
1000
0000
0010
0000
0100
0000
0001
0000
,
0010
0000
0000
0000
0011
0000
0000
0010
0100
0000
1000
0000
0001
0000
0100
0000
,
0010
1000
1000
0100
0100
0010
0010
0001
,
0010
0000
0000
0000
0011
0000
0000
0010
0100
0000
1000
0000
0001
0000
0100
0000
,
0010
0000
0000
0000
0110
0000
0000
1000
0010
0000
0100
0000
0001
0000
0010
0000
,
0100
0000
0000
0000
0110
0000
0000
0100
1000
0000
0010
0000
0100
0000
0001
0000
,
0010
0001
1000
0100
0010
0000
0001
0001
,
0100
0000
0000
0000
0110
0000
0000
1010
0000
0000
0110
0000
0000
0000
0101
0000
,
0110
0000
0000
0000
1000
0000
0000
0110
0000
0000
0101
0000
0000
0000
0100
0000
,
0010
0000
0000
0000
1010
0000
0000
0101
0000
0000
0110
0000
0000
0000
1010
0000
,
0000
0000
1010
0000
0101
0000
0100
0010
0000
0010
1000
0000
0100
0000
0010
0000
,
0011
0000
0000
0000
0110
0000
0000
1100
0000
0000
0011
0000
0000
0000
0110
0000
,
1100
0000
0000
0000
0110
0000
0000
0011
0000
0000
0110
0000
0000
0000
1100
0000
,
0110
0000
0000
0000
1100
0000
0000
1001
0000
0000
1010
0000
0000
0000
1001
0000
,
0000
0000
0101
0000
0110
0000
0010
1000
0000
1000
0010
0000
0100
0000
0001
0000
,
0100
0000
0010
1000
0100
0000
0010
0000
0001
0000
0000
0000
0011
0000
0000
0000
,
0010
0000
0100
1000
0001
0000
0100
0000
0010
0000
1000
0100
0010
0000
0001
0000
,
0010
0000
0100
1000
0001
0000
0100
0000
0010
0000
1000
0010
0000
0010
1000
0000
,
0001
0000
0100
0010
1000
0000
0100
0000
0010
0000
0010
0001
0000
0001
0010
0000
,
0100
0000
1000
0001
0100
0000
0010
0000
1000
0000
0100
0000
0010
0000
0001
0000
,
1000
0000
0010
0100
0001
0000
0100
0000
0010
0000
1000
0010
0000
0010
1000
0000
,
0100
0000
0010
0001
0010
0000
0100
0000
1000
0000
1000
0001
0000
0001
0100
0000
,
0010
1000
0010
0100
0001
1010
0101
1010
,
1000
0100
0010
0001
0010
0100
1000
0001
,
0100
0010
1000
0100
0010
0001
0010
0100
,
1000
0010
0001
0010
1000
0100
0001
0100
,
1000
0010
0100
0001
0010
1000
0010
0100
,
0001
0100
1000
0010
0100
1000
0100
0001
,
0010
0100
0001
0100
1000
0010
0100
1000
,
0100
0001
0010
0100
1000
0010
0100
1000
,
0100
0001
0010
0100
0001
0100
1000
0010
,
0100
0000
0000
0000
0110
0000
0000
0010
1000
0000
0100
0000
0010
0000
0001
0000
,
0010
0000
0000
0000
0110
0000
0000
0010
0001
0000
0100
0000
0010
0000
0100
0000
,
1000
0000
0000
0000
1100
0000
0000
0100
0010
0000
1000
0000
0100
0000
0001
0000
,
0100
0000
0000
0000
0110
0000
0000
0010
0100
0000
0001
0000
0100
0000
0010
0000
,
0100
0000
0000
0000
1100
0000
0000
1000
0010
0000
0100
0000
1000
0000
0100
0000
,
0010
0000
0000
0000
1010
0000
0000
0010
1000
0000
0100
0000
0001
0000
0100
0000
,
0010
0000
0000
0000
0110
0000
0000
0010
0001
0000
0000
0000
0011
0000
0000
0010
,
0100
0000
1000
0000
0010
0000
0100
0000
0001
0000
0100
0010
0100
0000
0010
0000
,
1000
0000
0100
0010
0001
0000
0010
0000
0100
0000
1000
0001
0100
0000
0010
0000
,
1000
0000
0100
0010
0001
0000
0010
0100
1000
0000
0001
0010
0100
0000
1000
0000
,
0001
0000
0100
0010
1000
0000
0010
0000
0100
0000
0001
0010
0100
0000
1000
0000
,
0001
0000
0100
0010
1000
0000
0100
0010
0001
0000
0010
0100
1000
0000
0001
0100
,
0010
0000
1000
0100
0010
0000
0001
0000
0010
0000
0100
1000
0001
0000
0010
0000
,
0100
0000
1000
0001
0100
0000
0010
1000
0100
0000
0010
0001
0010
0000
0100
1000
,
0001
0000
0010
0000
0100
0000
1000
0001
0100
0000
0010
0000
1000
0000
0100
0000
,
0010
0000
0011
0000
0110
0000
0100
1000
0000
1000
0010
0000
0100
0000
1001
0000
,
0110
0000
0000
0000
;
#NOTES:
     dance-single:
     Renard:
     Easy:
     5:
     0.276,0.363,0.016,0.000,0.000:
0000
0000
0000
0000
,
0000
0000
0000
0000
,
0000
0000
0000
0000
,
0000
0000
0000
0000
,
0000
0000
0000
0000
,
0000
0000
0000
0000
,
0000
0000
0000
0000
,
0000
0000
0000
0000
,
0001
0000
0000
0000
,
1000
0000
0000
0000
,
0010
0000
0000
0000
,
0100
0000
0001
0000
,
1000
0010
0100
0001
,
1000
0100
0010
0001
,
1000
0100
1000
0000
0001
1000
0001
0000
,
0100
0001
1000
0100
0010
0001
1000
0000
,
0001
0000
0001
0100
,
0010
0000
0010
1000
,
0100
0000
0100
0000
,
1000
0001
0100
0001
0100
0000
0001
1000
,
0100
0000
0100
0000
,
1000
0000
1000
0000
,
0001
0010
0100
0000
,
0100
1000
0001
0100
0010
0000
1000
0010
,
1000
0001
0100
0000
,
0100
0000
0001
1000
0100
0000
1000
0001
,
0100
0000
0100
0000
,
0001
0010
0001
0010
0001
0000
1000
0100
,
1000
0000
0000
0000
0001
0100
0001
0100
,
0001
0000
0000
0000
1000
0010
1000
0010
,
1000
0001
0100
0010
,
0000
0000
1000
0001
1000
0001
1000
0000
,
0100
1000
0100
1000
0001
0000
0001
0000
,
1000
1000
0010
0010
,
0100
0001
0100
0000
0001
0000
1000
0000
,
0100
0100
1000
1000
,
0001
0010
0001
0010
0001
0000
1000
0000
,
0001
0001
0100
0100
,
0010
1000
0010
1000
0010
0000
1000
0000
,
0100
0010
0001
1000
,
0101
0000
0001
1000
,
0100
0000
0100
1000
,
0001
0001
1000
1000
,
0000
0001
0010
0001
0010
0000
0001
0010
,
0001
0000
1000
0010
,
0100
0000
0100
0010
,
1000
0001
0100
0100
,
0000
0001
1000
0001
1000
0000
0100
1000
,
0100
1000
0001
0100
,
0010
0010
1000
1000
,
0001
0000
0001
1000
,
0100
0000
0100
0000
1000
0001
1000
0001
,
1000
1000
0001
0001
,
0100
0000
0100
0000
0010
0000
1000
0010
,
1000
0000
1000
0000
,
0000
0010
0100
0001
0100
0010
1000
0000
,
0001
0001
0100
0100
,
0001
0000
0001
0000
1000
0100
1000
0000
,
0001
0001
1000
1000
,
0100
0000
0010
0000
0001
1000
0001
1000
,
0010
0010
0100
0100
,
0001
0000
1000
0000
0100
0000
1000
0001
,
1000
0001
0100
0010
,
0000
1000
0001
0100
0001
1000
0001
0000
,
1001
0000
0000
0000
;
#NOTES:
     dance-single:
     Renard:
     Beginner:
     3:
     0.184,0.233,0.008,0.000,0.000:
0000
0000
0000
0000
,
0000
0000
0000
0000
,
0000
0000
0000
0000
,
0000
0000
0000
0000
,
0000
0000
0000
0000
,
0000
0000
0000
0000
,
0000
0000
0000
0000
,
0000
0000
0000
0000
,
0001
0000
0001
0001
,
1000
0000
1000
1000
,
0001
0000
0001
1000
,
0001
1000
0001
1000
,
0010
0000
0010
0010
,
0100
0000
0100
0100
,
0010
0000
0010
0010
,
0100
0010
0000
0100
,
0001
0000
0001
1000
,
0100
0000
0100
0010
,
0001
0000
0001
1000
,
0010
0000
0010
0100
,
0001
0000
0001
0010
,
0100
0000
0100
1000
,
0010
0000
0010
0100
,
0001
0000
0001
1000
,
0100
0000
0100
0000
,
0010
0000
0010
0000
,
0001
0000
0001
0000
,
1000
0001
1000
0001
,
0100
0000
0100
0000
,
0010
0000
0010
0000
,
1000
0000
1000
0000
,
0010
0100
0010
0100
,
0001
0001
1000
0000
,
1000
0000
1000
0000
,
0001
0001
0100
0000
,
0100
0100
0010
0000
,
1000
1000
0010
0000
,
0100
0000
0001
0000
,
0010
0010
0001
0000
,
1000
0100
0010
0001
,
1000
0000
1000
0000
,
0001
0000
0001
0000
,
0100
0000
0100
0000
,
0010
0100
0010
0100
,
0010
0000
0010
0000
,
1000
0000
1000
0000
,
0001
0000
0001
0000
,
0100
0001
1000
0100
,
0010
0000
0010
0000
,
0001
0000
0001
0000
,
1000
0000
1000
0000
,
0010
1000
0001
0100
,
0001
0000
0001
0000
,
1000
0000
1000
0000
,
0001
0000
0000
0000
,
1000
1000
0001
0001
,
0100
0000
0100
0000
,
0010
0010
0010
0010
,
1000
0000
1000
0000
,
0001
0100
0010
1000
,
0001
0000
0001
1000
,
0100
0010
0001
1000
,
0010
0000
0010
1000
,
0001
0100
0010
0100
,
1001
0000
0000
0000
;
