#TITLE:Today's The Day;
#SUBTITLE:;
#ARTIST:Sharkey;
#TITLETRANSLIT:;
#SUBTITLETRANSLIT:;
#ARTISTTRANSLIT:;
#CRChallenge:;
#BANNER:day.png;
#BACKGROUND:day-bg.png;
#LYRICSPATH:;
#CDTITLE:;
#MUSIC:day.ogg;
#OFFSET:0.000;
#SAMPLESTART:46.052;
#SAMPLELENGTH:14.000;
#SELECTABLE:YES;
#BPMS:0.000=180.000;
#STOPS:136.000=2.333
;
#BGCHANGES:;
#NOTES:
     dance-single:
     Renard:
     Hard:
     12:
     0.806,0.971,0.556,0.219,0.455:
0000
0000
0000
0000
,
0000
0000
0000
0000
,
0002
2003
3200
0320
0000
0000
0032
2003
,
0000
3200
0000
0000
0000
0000
0000
0000
,
0000
0000
0000
0000
0000
0000
0320
0032
,
2003
3200
0000
2300
0000
3020
0000
0230
,
0000
0000
0000
0000
,
0000
0000
0000
0000
0000
0000
0302
2003
,
0000
0000
0000
0000
,
0000
0000
0000
0000
0000
0000
0000
3200
,
1300
0000
1001
0000
0001
0100
0010
0000
,
0100
0000
0101
0000
0100
0001
0010
0000
,
0100
0000
1100
0000
1000
0010
0100
0000
,
0100
0000
0110
0000
0010
1000
0100
0010
,
0001
0000
0011
0000
0010
0100
1000
0000
,
0001
0000
1001
0000
1000
0001
0100
0010
,
0100
0000
0110
0000
0010
1000
0100
0010
,
0001
0010
0100
1000
0001
0100
0010
1000
,
0100
0100
0010
0010
,
0001
0000
0001
1000
0000
0000
0010
1000
,
0001
0000
0001
0000
0100
0000
0100
0010
,
0000
1000
0000
0000
0000
0000
0010
1000
,
0000
0001
0100
0000
,
0000
0000
0000
0000
0000
0000
0001
1000
,
0000
0000
0001
0100
0000
0000
0010
1000
,
0100
0010
0000
0011
0000
0000
0100
1000
,
2100
3001
0000
0101
,
0000
0000
1010
0000
0100
0001
0010
1100
,
0000
1001
0100
1001
0000
0000
0010
0000
,
1001
0000
0100
1010
0000
0101
0010
1001
,
2010
3001
0010
0100
1000
0010
0100
0100
,
0002
0013
0100
1000
0010
0100
0001
0010
,
0200
1300
0010
0100
0002
0103
0010
1000
,
1002
0103
2001
3100
1002
0103
2001
3100
,
1001
0000
0001
0100
0001
0001
1000
0001
,
0001
0010
0001
0001
0100
0001
0001
0010
,
0001
1000
0100
1000
0100
0100
0010
0100
,
0100
0001
0100
0100
1000
0100
0100
0010
,
0100
1000
0010
0100
0010
0010
1000
0010
,
0010
0100
0010
0010
0001
0010
0010
0100
,
0010
0001
0010
1000
0100
1000
1000
0010
,
1000
0000
1000
0000
0001
0000
1000
0000
1000
0000
0000
1100
0000
1100
0000
0100
,
1000
0000
0001
0000
1000
0000
0100
0000
0010
0001
0000
0001
0010
0000
0100
0000
,
1000
0100
0000
0100
1000
0000
0100
0000
0010
0001
0000
0001
0010
0000
0100
0000
,
1000
0100
0000
0100
1000
0000
0010
0000
0100
0001
0000
0001
0100
0000
0010
0000
,
1000
0010
0000
0010
1000
0000
0010
0000
0100
0001
0000
0001
0100
0000
0010
0000
,
1000
0010
0000
0100
0001
0000
0010
0000
0100
1000
0000
1000
0100
0000
0010
0000
,
0001
0010
0000
0010
0001
0000
0010
0000
0100
1000
0000
1000
0100
0000
0010
0000
,
0001
0010
0000
0010
0001
0000
0100
0000
0010
1000
0000
1000
0010
0000
0100
0000
,
0001
0100
0000
0100
0001
0000
0100
0000
0010
0000
0000
1010
0000
1010
0000
0100
,
0001
1000
0001
1010
0100
0001
0110
0010
,
0100
1100
1000
0010
0101
0100
0010
1100
,
0010
0001
0010
0100
1000
0001
1010
0100
,
0001
1010
0100
0001
1100
0000
0011
0100
,
1000
0101
0010
0101
0010
1000
0110
0100
,
0010
0011
0001
0100
1010
0010
0100
0011
,
0100
0000
1000
0000
0100
0000
0010
0000
0001
0000
1000
0000
0001
0000
0100
0001
,
0100
0000
0010
0000
1000
0000
0100
1000
0100
0000
0010
0001
0000
1000
0000
0100
,
0010
0001
1000
0100
0010
0000
0001
0000
1000
0010
0000
0010
1000
0000
0001
0000
,
0100
0000
1010
0000
0100
0000
0001
0000
1000
0100
0000
0100
1000
0000
0101
0000
,
0010
0000
1001
0000
0100
0000
1000
0000
0001
0100
0000
0100
0001
0000
1000
0000
,
0010
0000
0101
0000
0010
0000
1000
0000
0001
0010
0000
0010
0001
0000
1010
0000
,
0100
1001
0001
0001
0100
0100
0010
0010
,
1000
1000
0001
0001
1000
1000
0100
0100
,
0010
0001
1000
0100
0010
0000
0000
0001
0010
0100
1000
0000
0001
0010
0100
1000
,
0001
0000
1000
0000
0001
0100
0010
1000
0001
1000
0100
0010
0001
0000
0000
0010
,
0100
0000
1000
0000
0001
0000
1000
0001
0000
0100
0001
0000
0010
0000
0001
1000
,
0000
0001
0100
0000
0001
0000
1000
0100
0000
1000
0010
0000
1000
0000
0001
0100
,
0000
0010
1000
0000
0100
0000
1000
0010
0000
1000
0001
0000
1000
0000
0010
1000
,
0000
0001
1000
0000
0001
0000
0100
0001
0000
0010
0001
0000
0100
0000
0010
0100
,
0000
0010
1000
0000
0001
0000
1000
0001
0000
0100
0001
0000
0010
0000
0001
1000
,
0000
0001
0100
0000
0001
0000
1000
0100
0000
1000
0010
0000
1000
0000
0001
0100
,
0000
0010
1000
0000
0100
0000
1000
0010
0000
1000
0001
0000
1000
0000
0010
1000
,
0010
0000
1000
0000
0001
0000
0100
0001
0100
0000
0010
1000
0000
0001
0000
0100
,
0010
1000
0001
0000
1000
0000
0100
1000
0000
0000
1010
0000
0100
0000
0001
0010
,
0000
0000
0101
0000
0010
0000
1000
0100
0000
0000
1010
0000
0100
0000
0001
0010
,
0000
0000
0101
0000
0010
0000
1000
0010
0000
0000
1100
0000
0010
0000
0001
0010
,
0000
0000
0101
0000
0010
0000
1000
0010
0000
0000
1100
0000
0010
0000
0001
0010
,
0000
0000
0101
0000
0001
0000
0010
0001
0000
0000
0101
0000
0010
0000
1000
0100
,
0000
0000
1010
0000
0100
0000
0001
0010
0000
0000
0101
0000
0010
0000
1000
0100
,
0000
0000
1010
0000
0100
0000
0001
0100
0000
0000
0011
0000
0100
0000
1000
0100
,
0000
0000
1010
0000
0100
0000
0001
0100
0000
0000
0011
0000
0100
0000
1000
0100
,
0000
1010
0101
0000
0000
0000
0000
0000
;
#NOTES:
     dance-single:
     Renard:
     Medium:
     9:
     0.614,0.867,0.346,0.000,0.000:
0000
0000
0000
0000
,
0000
0000
0000
0000
,
0000
0000
0000
0000
,
0000
0000
0000
0000
,
0000
0000
0000
0000
,
0000
0000
0000
0000
,
0000
0000
0000
0000
,
0000
0000
0000
0000
,
0000
0000
0000
0000
,
0000
0000
0000
0000
,
0001
0000
1000
0000
0000
0100
1000
0000
,
0001
0000
0100
0000
0000
0001
1000
0100
,
0010
0000
0001
0000
0000
1000
0010
0000
,
1000
0000
0010
0000
0000
0100
0001
1000
,
0100
0000
1000
0000
0000
0001
0010
0000
,
0001
0000
1000
0000
0000
0010
0100
0001
,
1000
0000
0001
0000
0100
0010
1000
0010
,
0100
0000
0010
1000
0010
0100
0001
0100
,
0010
1000
0000
0010
0000
0100
0000
0001
,
0000
0010
0000
0100
0000
1000
0000
0100
,
0000
0010
0000
0001
0000
1000
0000
0010
,
0000
0100
0000
0001
0000
0010
0000
0100
,
0000
1000
0000
0100
0000
0001
0000
0100
,
0000
1000
0000
0100
0000
0001
0000
0100
,
0000
1000
0000
0010
0000
0001
0000
0010
,
0000
1000
0000
0010
0000
0001
0000
0010
,
1000
0010
1000
0010
1000
0010
1000
0010
,
1000
0010
1000
0010
1000
0010
1000
0010
,
0100
0001
0100
0001
0100
0001
0100
0001
,
0100
0001
0100
0001
0100
0001
0100
0001
,
0010
0001
0010
0001
0010
0001
0010
0001
,
1000
0100
1000
0100
1000
0100
1000
0100
,
1000
0010
1000
0010
0100
0001
0100
0001
,
1000
0100
0010
0001
0010
0100
1000
0001
,
1000
0000
0001
0100
1000
0000
1000
0100
,
0001
0000
0001
0010
1000
0000
1000
0010
,
0001
0000
1000
0100
0010
0001
0010
0100
,
1000
0001
0010
0100
1000
0100
0010
0001
,
0001
0000
1000
0100
0001
0000
0001
0100
,
1000
0000
1000
0010
0001
0000
0001
0010
,
1000
0000
1000
0010
0100
0001
0010
0100
,
1000
0100
0010
0001
0100
0010
1000
1000
,
1000
0000
0001
0100
0010
0100
1000
0100
,
0010
0100
0001
0010
0100
0010
1000
0010
,
0100
0010
0001
0100
0010
0100
1000
0100
,
0010
0100
0001
0001
1000
1000
0001
0001
,
1000
1000
1000
0100
0001
0100
1000
0100
,
0001
0100
1000
0010
0001
0010
1000
0010
,
0001
0010
1000
1000
0010
0010
0100
0100
,
0001
0001
0010
0010
0010
0100
0100
0100
,
1001
0000
1000
0010
0100
0001
0100
0000
,
0100
0010
0000
1000
0100
0000
0010
0001
,
0010
0100
1000
0001
0000
0100
0010
0000
,
1000
0010
0000
0100
0001
0100
0010
1000
,
0100
0010
0001
0010
0000
0010
0100
0000
,
0100
1000
0000
1000
0010
0000
0010
0100
,
0001
0100
0010
1000
0100
0010
0001
0010
,
0100
1000
0001
0000
1001
0000
0110
0000
,
1001
0000
0001
0100
1000
0000
0110
0000
,
1000
0100
0001
0000
0110
0000
0001
0100
,
1000
0000
0001
0100
1000
0000
0110
0000
,
1000
0100
0001
0000
0110
0000
0001
0100
,
1000
0000
0110
0000
0110
0000
1000
0010
,
0001
0010
1000
0000
0111
0000
0010
0100
,
1000
0100
0010
0000
1110
0000
0010
1000
,
0100
0010
0001
0000
1011
0000
0001
0100
,
0010
1000
0100
0000
1001
0000
1000
0010
,
0100
0001
0010
0100
1000
0010
0100
0001
,
0100
0010
1000
0000
1100
0000
1000
0010
,
0100
0001
0010
0000
0011
0000
0010
0100
,
0110
0000
1100
0000
1000
0010
0100
0001
,
1000
0000
1001
0000
1000
0010
0100
0001
,
0011
0000
0110
0000
0100
1000
1100
0000
,
1000
0010
0010
0100
0110
0100
0001
1000
,
1001
1000
0010
0100
0101
0100
0010
1000
,
1100
1000
0010
0100
0001
0100
0010
1000
,
0100
0010
0001
0010
0011
0010
0100
0010
,
0110
0100
1000
0010
0100
0001
0100
0010
,
1000
0100
1000
0001
1001
1000
0010
0100
,
0110
0100
0001
1000
1001
1000
0100
1000
,
1100
0000
1001
0001
0101
0100
0110
0010
,
1010
1000
1100
0100
0110
0010
0011
0001
,
0101
0100
0110
0000
0000
0000
0000
0000
;
#NOTES:
     dance-single:
     Renard:
     Easy:
     7:
     0.423,0.520,0.008,0.000,0.000:
0000
0000
0000
0000
,
0000
0000
0000
0000
,
0000
0000
0000
0000
,
0000
0000
0000
0000
,
0000
0000
0000
0000
,
0000
0000
0000
0000
,
0000
0000
0000
0000
,
0000
0000
0000
0000
,
0000
0000
0000
0000
,
0000
0000
0000
0000
,
0001
0000
1000
0000
0000
0010
0100
0000
,
0001
0000
1000
0000
0000
0010
0100
0000
,
0001
0000
1000
0000
0000
0010
0100
0000
,
0001
1000
0010
0100
,
0001
0000
1000
0000
0000
0100
0010
0000
,
0001
0000
0010
0000
0000
0100
1000
0000
,
0001
0000
0100
0000
0000
0010
1000
0000
,
0001
0100
0010
1000
,
0010
1000
0000
0001
0000
0100
0000
0010
,
0000
1000
0000
0010
0000
0100
0000
0001
,
0000
1000
0000
0100
0000
0010
0000
0001
,
0000
0010
0000
0100
0000
1000
0000
0001
,
0000
0100
0000
0100
0000
0010
0000
0010
,
0000
0100
0000
0100
0000
0010
0000
0010
,
0000
1000
0000
1000
0000
0001
0000
0001
,
0000
1000
0000
1000
0000
0001
0000
0001
,
1000
0100
0000
0100
0000
0100
0000
0100
,
0000
0100
0000
0100
0000
0100
0000
0100
,
0010
0001
0000
0001
0000
0001
0000
0001
,
0000
0001
0000
0001
0000
0001
0000
0001
,
0100
0010
0000
0010
0000
0010
0000
0010
,
1000
0100
0000
0100
0000
0100
0000
0100
,
0010
0001
0000
0001
1000
0010
0000
0010
,
0100
0001
0100
0010
0100
0001
0100
0010
,
0100
0000
0010
0100
0000
0001
0100
0000
,
0010
0100
0000
0001
0100
0000
0000
0010
,
0000
1000
0100
1000
0000
0010
1000
0000
,
0100
1000
0000
0000
0010
0000
1000
0000
,
0001
0000
0100
0010
0000
0100
0001
0000
,
0100
0010
0000
0000
0100
0000
0000
0001
,
0000
1000
0100
1000
0000
0001
1000
0000
,
0010
1000
0000
0000
0001
0000
0100
0000
,
0010
1000
1000
0001
,
0001
0000
0100
0010
0100
0010
0100
0010
,
0100
0001
0001
1000
,
1000
0000
0010
0100
0010
0000
1000
0001
,
1000
0010
0100
0001
,
1000
0000
0100
1000
0100
1000
0100
1000
,
0100
1000
0001
1000
0001
1000
0001
1000
,
0001
1000
0010
0000
0010
0000
0010
0000
,
0000
0100
0001
0100
,
0010
1000
0000
0000
0010
0000
0000
0100
,
0000
0001
1000
0100
0000
0000
0010
0000
,
0001
0010
0000
0000
0100
0000
1000
0000
,
0001
0100
0000
0010
1000
0000
0010
0000
,
1000
0001
0000
0100
0010
0000
1000
0000
,
0010
0000
0100
0001
0000
0000
1000
0000
,
0100
1000
0000
0001
0100
0000
0010
0000
,
1000
0000
0100
0000
1000
0000
0001
0100
,
0001
0000
1000
0000
0100
0000
0010
0001
,
0000
1000
0010
0000
1000
0000
0001
0000
,
0100
0010
0000
0000
1000
0000
0010
0000
,
0100
0001
0100
0000
0010
0000
1000
0010
,
1000
0001
0100
0001
,
0100
0000
0001
1000
0001
0000
1000
0010
,
1000
0000
0001
0100
0001
0000
1000
0000
,
0100
1000
0001
1000
,
0001
1000
0010
0000
1000
0000
0010
0000
,
1000
0010
0100
0000
0010
0000
0100
0000
,
0010
0100
0001
0000
0100
0000
0001
0000
,
0100
0001
1000
0000
0100
0000
1000
0000
,
0100
1000
0001
0000
1000
0000
0001
0000
,
1000
0001
0010
0000
0001
0000
0010
0000
,
0001
1000
0010
0000
0010
0000
0100
0010
,
0100
0010
0100
0000
0100
0000
0100
0001
,
0100
0001
1000
0000
1000
0000
1000
0001
,
1000
0001
0010
0000
0001
0000
1000
0000
,
0010
0000
0100
0001
0100
0000
0010
1000
,
0010
1000
0100
0010
,
0001
0000
0010
0100
1000
0000
0001
0010
,
0100
0000
1000
0100
0010
0000
0001
0010
,
0100
0000
1000
0100
0010
0001
0010
0100
,
1000
1001
0000
0000
;
#NOTES:
     dance-single:
     Renard:
     Beginner:
     4:
     0.304,0.347,0.017,0.017,0.000:
0000
0000
0000
0000
,
0000
0000
0000
0000
,
0000
0000
0000
0000
,
0000
0000
0000
0000
,
0000
0000
0000
0000
,
0000
0000
0000
0000
,
0000
0000
0000
0000
,
0000
0000
0000
0000
,
0000
0000
0000
0000
,
0000
0000
0000
0000
,
0001
0000
1000
0000
0000
1000
0010
0000
,
1000
0001
0100
0000
,
0001
0000
1000
0000
0000
1000
0010
0000
,
1000
0001
0100
0000
,
0010
0000
0100
0000
0000
1000
0001
0000
,
1000
0010
0100
0000
,
0010
0000
1000
0000
0000
0001
0100
0000
,
0001
1000
0010
1000
,
0010
0010
0100
0100
,
0001
0000
0000
1000
0000
0000
0010
0000
,
1000
0000
1000
0000
0001
0000
0000
0100
,
0000
0001
1000
0010
,
0100
0100
0010
0000
,
0000
0000
0000
0000
,
1000
1000
0010
0010
,
0100
0001
1000
0001
,
0010
0010
0000
0000
,
0000
0000
0000
0000
0001
0000
0000
1000
,
0000
0010
0000
0100
0000
0000
0000
0000
,
0001
0000
0000
0100
0000
0010
0000
0000
,
1000
0000
1000
0000
,
0010
0000
0010
0000
,
0100
0001
1000
0100
,
0010
0001
1000
0010
,
1001
0000
1000
0001
0000
0000
0100
0000
,
0000
0010
0000
0000
1000
0000
0000
0100
,
0000
0010
0000
0001
0000
0000
0010
0000
,
0000
0100
0000
0000
1000
0000
0010
0000
,
0100
0000
0001
0100
0000
0000
0010
0000
,
0000
1000
0000
0000
0100
0000
0000
0010
,
0000
0001
1000
0010
0000
0000
0100
0000
,
0000
0001
0000
0000
1000
0000
0100
0000
,
0010
0001
0001
1000
,
1000
0010
0010
0100
,
0000
0001
0001
1000
,
1000
0010
0010
0010
,
0000
0010
0100
0001
,
0001
1000
0100
0010
,
0010
0001
1000
0001
,
1000
0010
0010
0010
,
0100
0001
0000
1000
,
0000
0010
0100
0001
,
1000
0010
0000
1000
,
0000
0001
0100
0010
,
1000
0001
0000
0100
,
0000
0001
1000
0010
,
0100
0001
0000
0001
,
0000
1000
0001
1000
,
0001
0010
0000
0010
,
0000
0001
1000
0010
,
0100
0001
0000
0001
,
0000
1000
0010
1000
,
0001
0100
0100
0100
,
0100
0010
0010
0010
,
0010
1000
1000
0001
,
0001
0200
0000
0320
,
0000
0130
0100
0100
,
0100
0001
0001
1000
,
0001
1000
1000
1000
,
1000
0010
0010
0100
,
0010
1000
1000
1000
,
1000
0001
0001
0001
,
0001
1000
1000
0010
,
0010
0100
0010
1000
,
0010
0100
0100
0001
,
0001
1000
1000
0001
,
0001
0010
0010
0001
,
0001
1000
0010
0100
,
0001
1000
1000
0001
,
0001
0100
0100
0010
,
0010
1000
0010
1000
,
0001
1000
0010
0100
,
0001
1001
0000
0000
;
