#TITLE:Timebomb (CubeHard Remix);
#SUBTITLE:;
#ARTIST:CLSM;
#TITLETRANSLIT:;
#SUBTITLETRANSLIT:;
#ARTISTTRANSLIT:;
#CRChallenge:;
#BANNER:timebomb-banner.avi;
#BACKGROUND:timebomb-bg.png;
#LYRICSPATH:;
#CDTITLE:!cdtitle.png;
#MUSIC:timebomb.ogg;
#OFFSET:0.000;
#SAMPLESTART:22.629;
#SAMPLELENGTH:12.000;
#SELECTABLE:YES;
#BPMS:0.000=168.650;
#STOPS:;
#BGCHANGES:;
#NOTES:
     dance-single:
     Renard:
     Hard:
     10:
     0.659,0.742,0.497,0.394,0.497:
0000
0000
0000
0000
,
0000
0000
0000
0000
,
0000
0000
0000
0000
,
0000
0000
0000
0000
,
0000
0000
0000
0000
,
0000
0000
0000
0000
,
0000
0000
0000
0000
,
0000
0000
0000
0000
,
1002
0000
0023
0000
,
0230
0000
2300
0000
,
3020
0000
0230
0302
,
0000
0000
0013
0000
0100
1000
0010
0000
,
0200
0000
0320
0000
,
2030
0000
3200
0000
,
0320
0000
0031
1000
,
0101
0000
0000
0110
0000
0000
1010
0000
0000
1100
0000
0000
1001
0000
0000
0000
,
1000
0000
0100
1000
0000
0001
0010
0000
0000
0001
0010
0100
1000
0000
0001
0000
,
0100
0000
0010
1000
0000
0001
0100
0000
0000
0010
1000
0001
0100
0000
0010
0000
,
1000
0000
0100
0010
0000
0001
0010
0000
0000
0100
1000
0001
0010
0000
0100
0000
,
1000
0000
0001
0100
0000
0010
1000
0000
0000
0010
1000
0001
0100
0000
0010
0000
,
1000
0000
0100
0010
0000
0001
0010
0000
0000
0100
1000
0001
0010
0000
0100
0000
,
1000
0000
0001
0100
0000
0010
1000
0000
0000
0010
0100
0001
0100
0000
0010
0000
,
1000
0000
0100
0010
0000
0001
0010
0000
0000
0100
1000
0100
0010
0000
0001
0000
,
0011
0000
0000
0110
0000
0000
1100
0000
0000
0110
0000
0000
1001
0000
0000
0000
,
0101
0000
0000
0000
0010
0000
0000
1100
0000
0000
1001
0000
0010
0000
0000
0000
,
0100
0000
0000
0000
1010
0000
0000
0100
0000
0000
0001
0000
0110
0000
0000
0000
,
1001
0000
0000
0000
0010
0000
0000
1100
0000
0000
0000
0000
1011
0000
0000
0000
,
1000
0000
0000
0000
0011
0000
0000
0100
0000
0000
0010
0000
1001
0000
0000
0000
,
1100
0000
0000
0000
0010
0000
0000
0101
0000
0000
1010
0000
0100
0000
0000
0000
,
0010
0000
0000
0000
0101
0000
0000
0010
0000
0000
1000
0000
0011
0000
0000
0000
,
1100
0000
0000
0000
0010
0000
0000
0101
0000
0000
1010
0000
0100
0000
0000
0000
,
0011
0000
0000
0000
0100
0000
0000
1000
0000
1000
0001
0000
0100
0010
0000
0000
,
1001
0000
0000
0000
0100
0000
0000
0011
0000
0000
1100
0000
0010
0000
0000
0000
,
0001
0000
0000
0000
1100
0000
0000
0010
0000
0000
0100
0000
1001
0000
0000
0000
,
0011
0000
0000
0000
0100
0000
0000
1010
0000
0000
0101
0000
0010
0000
0000
0000
,
0100
0000
0000
0000
1010
0000
0000
0100
0000
0000
0001
0000
1100
0000
0000
0000
,
0011
0000
0000
0000
0100
0000
0000
1010
0000
0000
0101
0000
0010
0000
0000
0000
,
1100
0000
0000
0000
0010
0000
0000
0101
0000
0000
1010
0000
0100
0000
0000
0000
,
1010
0000
0000
0000
0100
0000
0000
0011
0000
0000
1100
0000
0001
0000
0000
0000
,
1000
0000
0001
0100
0000
0010
1000
0000
0001
0100
0010
0000
1000
0000
0000
0000
,
0002
1000
0203
0001
,
0320
1000
2030
0001
,
3200
1000
0320
0032
,
0100
0010
1000
0010
,
0203
0000
0001
0000
0310
1000
0100
0000
,
0020
0000
0100
0000
0031
1000
0010
0000
,
0200
0000
0310
0000
1000
0100
0010
0000
,
0002
1003
0010
1011
,
0001
0000
1000
0100
0000
1000
0001
0000
0000
0100
0010
0000
1000
0000
0100
0000
,
0010
0000
0001
0010
0000
0100
1000
0000
0000
0001
0100
0000
0010
0000
1000
0000
,
0100
0000
0010
0001
0000
0010
0100
0000
0000
1000
0001
0000
0100
0000
0010
0000
,
1000
0000
0100
0010
0000
0001
0010
0000
0000
0001
1000
0000
0010
0000
0100
0000
,
0001
0000
1000
0010
0000
0100
0001
0000
0000
0100
0010
0000
1000
0000
0100
0000
,
0010
0000
0001
0010
0000
0100
1000
0000
0000
0001
0100
0000
0010
0000
1000
0000
,
0010
0000
0100
0001
0000
0100
0010
0000
0000
1000
0100
0000
0010
0000
0001
0000
,
0010
0000
0100
1000
0000
0001
0010
0000
0000
0100
1000
0000
0001
0000
0100
0000
,
0010
0000
1000
0001
0000
0100
0010
0000
0000
1000
0100
0010
0001
0000
0010
0000
,
0100
0000
1000
0001
0000
0010
0100
0000
0000
1000
0100
0010
0001
0000
0010
0000
,
0100
0000
1000
0001
0000
0100
0010
0000
0000
1000
0010
0100
0001
0000
0100
0000
,
0010
0000
1000
0001
0000
0100
0010
0000
0000
1000
0100
0010
0001
0000
0010
0000
,
0100
0000
1000
0001
0000
0010
0100
0000
0000
1000
0100
0010
0001
0000
1000
0000
,
0001
0000
0100
0010
0000
1000
0001
0000
0000
0100
0010
1000
0100
0000
0010
0000
,
0001
0000
0010
0100
0000
1000
0001
0000
0000
0010
0100
1000
0001
0000
0100
0010
,
0000
0000
1000
0000
0110
0000
0000
0001
0000
0000
0100
0000
1001
0000
0010
0000
,
2001
0000
3100
0010
0001
2000
0000
3020
,
0000
0230
0000
0302
0000
0023
0000
0000
,
0000
0000
0130
1000
0001
0200
0000
0320
,
0000
2030
0000
3200
0000
0320
0000
0000
,
0000
0000
0031
0010
0100
2000
0000
3002
,
0000
0203
0000
0320
0000
2030
0000
3200
,
0000
0000
0000
0320
,
0032
0000
0000
0000
,
0003
0000
0000
0000
;
#NOTES:
     dance-single:
     Renard:
     Medium:
     9:
     0.582,0.573,0.497,0.394,0.244:
0000
0000
0000
0000
,
0000
0000
0000
0000
,
0000
0000
0000
0000
,
0000
0000
0000
0000
,
0000
0000
0000
0000
,
0000
0000
0000
0000
,
0000
0000
0000
0000
,
0000
0000
0000
0000
,
1002
0000
0023
0000
,
0230
0000
2300
0000
,
3020
0000
0230
0302
,
0000
0000
0013
0000
0100
1000
0010
0000
,
0200
0000
0320
0000
,
2030
0000
3200
0000
,
0320
0000
0031
1000
,
0101
0000
0000
0110
0000
0000
1010
0000
0000
1100
0000
0000
1001
0000
0000
0000
,
0001
0000
0000
0110
0000
0000
1010
0000
0000
0000
1000
0000
0100
0000
0010
0000
,
0001
0000
0000
0110
0000
0000
1100
0000
0000
0000
1000
0000
0001
0000
0100
0000
,
0010
0000
0000
1010
0000
0000
0101
0000
0000
0000
0001
0000
0100
0000
0010
0000
,
1000
0000
0000
1100
0000
0000
0011
0000
0000
0000
0001
0000
0010
0000
0100
0000
,
1000
0000
0000
0101
0000
0000
1010
0000
0000
0000
1000
0000
0010
0000
0100
0000
,
0001
0000
0000
0011
0000
0000
1100
0000
0000
0000
1000
0000
0100
0000
0010
0000
,
0001
0000
0000
1010
0000
0000
0101
0000
0000
0000
0001
0000
0100
0000
0010
0000
,
1000
0000
0000
1001
0000
0000
0100
0000
0000
0110
0000
0000
1001
0000
0000
0000
,
0100
0000
0000
0000
1010
0000
0000
0100
0000
0000
0001
0000
0010
0000
0000
0000
,
0100
0000
0000
0000
0011
0000
0000
0100
0000
0000
1000
0000
0010
0000
0000
0000
,
0100
0000
0000
0000
1001
0000
0000
0100
0000
0000
0000
0000
1011
0000
0000
0000
,
0100
0000
0000
0000
1010
0000
0000
0100
0000
0000
0001
0000
0010
0000
0000
0000
,
0100
0000
0000
0000
1001
0000
0000
0100
0000
0000
0010
0000
1000
0000
0000
0000
,
0100
0000
0000
0000
1001
0000
0000
0100
0000
0000
0010
0000
1000
0000
0000
0000
,
0100
0000
0000
0000
0011
0000
0000
0100
0000
0000
1000
0000
0010
0000
0000
0000
,
0100
0000
0000
0000
1001
0000
0000
0100
0000
0000
0010
0000
1000
0000
0001
0000
,
0100
0000
0000
0000
0110
0000
0000
1000
0000
0000
0100
0000
0010
0000
0001
0000
,
1000
0000
0000
0000
0011
0000
0000
0100
0000
0000
1000
0000
0001
0000
0100
0000
,
0010
0000
0000
0000
1010
0000
0000
0100
0000
0000
0001
0000
0010
0000
0100
0000
,
1000
0000
0000
0000
0011
0000
0000
0100
0000
0000
1000
0000
0001
0000
0100
0000
,
0010
0000
0000
0000
1001
0000
0000
0100
0000
0000
0010
0000
1000
0000
0100
0000
,
0010
0000
0000
0000
1001
0000
0000
0100
0000
0000
0010
0000
1000
0000
0001
0000
,
0010
0000
0000
0000
0110
0000
0000
1000
0000
0000
0001
0000
0100
0000
0010
0000
,
1000
0000
0000
1001
0000
0000
0100
0000
0010
1000
0001
0000
1001
0000
0000
0000
,
0002
1000
0203
0001
,
0320
1000
2030
0001
,
3200
1000
0320
0032
,
0100
0010
1000
0010
,
0203
0000
0001
0000
0310
1000
0100
0000
,
0020
0000
0100
0000
0031
1000
0010
0000
,
0200
0000
0310
0000
1000
0100
0010
0000
,
0002
1003
0010
1001
,
0001
0000
1000
0100
0000
0000
1100
0000
0000
0000
1000
0000
0001
0000
0100
0000
,
0010
0000
1000
0010
0000
0000
0101
0000
0000
0000
0100
0000
0010
0000
1000
0000
,
0100
0000
0010
0001
0000
0000
1100
0000
0000
0000
1000
0000
0001
0000
0100
0000
,
0010
0000
1000
0010
0000
0000
0101
0000
0000
0000
0100
0000
0010
0000
1000
0000
,
0100
0000
0010
0001
0000
0000
1100
0000
0000
0000
1000
0000
0001
0000
0100
0000
,
0010
0000
1000
0010
0000
0000
0101
0000
0000
0000
0100
0000
0010
0000
1000
0000
,
0100
0000
0010
0001
0000
0000
1100
0000
0000
0000
1000
0000
0001
0000
0100
0000
,
0010
0000
1000
0010
0000
0000
0101
0000
0000
0000
0100
0000
0010
0000
1000
0000
,
0100
0000
1000
0100
0000
1000
0100
0000
0000
0000
0010
0000
0001
0000
1000
0000
,
0010
0000
0100
0001
0000
0100
0001
0000
0000
0000
0100
0000
0010
0000
1000
0000
,
0100
0000
0010
0001
0000
0010
0001
0000
0000
0000
0010
0000
0100
0000
1000
0000
,
0010
0000
1000
0010
0000
1000
0010
0000
0000
0000
0100
0000
0001
0000
0010
0000
,
0100
0000
1000
0001
0000
1000
0001
0000
0000
0000
1000
0000
0001
0000
0100
0000
,
0010
0000
1000
0100
0000
1000
0100
0000
0000
0000
1000
0000
0100
0000
0010
0000
,
0001
0000
1000
0010
0000
1000
0010
0000
0000
0000
1000
0000
0001
0000
0000
1001
,
0000
0000
0010
0000
1000
0000
0000
1001
0000
0000
0010
0000
0001
0000
0000
0000
,
2001
0000
3100
0010
0001
2000
0000
3020
,
0000
0230
0000
0302
0000
0023
0000
0000
,
0000
0000
0130
1000
0001
0200
0000
0320
,
0000
2030
0000
3200
0000
0320
0000
0000
,
0000
0000
0031
0010
0100
2000
0000
3002
,
0000
0203
0000
0320
0000
2030
0000
3200
,
0000
0000
0000
0320
,
0032
0000
0000
0000
,
0003
0000
0000
0000
;
#NOTES:
     dance-single:
     Renard:
     Easy:
     6:
     0.355,0.405,0.009,0.319,0.108:
0000
0000
0000
0000
,
0000
0000
0000
0000
,
0000
0000
0000
0000
,
0000
0000
0000
0000
,
0000
0000
0000
0000
,
0000
0000
0000
0000
,
0000
0000
0000
0000
,
0000
0000
0000
0000
,
2000
0000
3002
0000
,
0203
0000
0320
0000
,
2030
0000
3200
0320
,
0000
0000
0000
0000
,
0032
0000
2003
0000
,
3020
0000
2030
0000
,
3002
0000
0203
0301
,
0001
0000
0000
1000
0000
0000
0001
0000
0000
1000
0000
0000
0001
0000
0000
0000
,
1000
0000
0100
0000
0000
1000
0001
0000
,
0100
0000
0001
0000
0000
1000
0001
0000
,
0010
0000
0001
0000
0000
1000
0100
0000
,
1000
0000
0001
0000
0000
0100
0001
0000
,
1000
0000
0010
0000
0000
0100
0001
0000
,
0010
0000
0100
0000
0000
1000
0001
0000
,
0100
0000
0010
0000
0000
1000
0010
0000
,
0100
0000
0000
0001
0000
0000
0100
0000
0000
0001
0000
0000
0100
0000
0000
0000
,
0001
0000
0000
0000
1000
0000
0000
0100
0000
0000
1000
0000
0001
0000
0000
0000
,
0100
0000
0000
0000
0001
0000
0000
1000
0000
0000
0100
0000
1000
0000
0000
0000
,
0001
0000
0000
0000
0100
0000
0000
0001
0000
0000
1000
0000
0200
0000
0000
0000
,
1300
0000
0001
0000
0000
0100
0010
0000
,
1000
0000
0100
0000
0000
0010
0001
0000
,
1000
0000
0010
0000
0000
0100
0001
0000
,
1000
0000
0100
0000
0000
0010
0001
0000
,
1000
0000
0010
0000
0000
0100
0010
0000
,
1000
0000
0010
0000
0000
0100
0001
0000
,
0010
0000
0001
0000
0000
1000
0100
0000
,
1000
0000
0001
0000
0000
0100
0001
0000
,
0010
0000
0001
0000
0000
1000
0010
0000
,
0100
0000
0010
0000
0000
1000
0001
0000
,
0010
0000
0100
0000
0000
1000
0001
0000
,
0100
0000
0001
0000
0000
1000
0010
0000
,
1000
0000
0000
0001
0000
0000
1000
0000
0100
0000
1000
0000
0001
0000
0000
0000
,
2000
0000
3200
0000
,
0320
0000
0032
0000
,
2003
0000
3020
0230
,
0000
0000
0000
0000
,
0302
0000
0023
0000
,
0230
0000
2300
0000
,
3001
0000
0100
0000
0001
1000
0001
0000
,
1000
1000
0100
1001
,
0001
0000
0000
1000
0000
0000
0001
0000
0000
0000
0000
0000
0100
0000
0000
0000
,
0010
0000
0000
1000
0000
0000
0010
0000
0000
0000
0000
0000
0100
0000
0000
0000
,
0001
0000
0000
1000
0000
0000
0001
0000
0000
0000
0000
0000
1000
0000
0000
0000
,
0100
0000
0000
1000
0000
0000
0100
0000
0000
0000
0000
0000
0010
0000
0000
0000
,
0001
0000
0000
1000
0000
0000
0001
0000
0000
0000
0000
0000
0100
0000
0000
0000
,
0010
0000
0000
1000
0000
0000
0010
0000
0000
0000
0000
0000
0100
0000
0000
0000
,
0001
0000
0000
0010
0000
0000
0001
0000
0000
0000
0000
0000
1000
0000
0000
0000
,
0100
0000
0000
1000
0000
0000
0001
0000
0000
0000
0000
0000
0100
0000
0000
0000
,
0001
0000
0000
0010
0000
0000
0001
0000
0000
0000
0000
0000
1000
0000
0000
0000
,
0010
0000
0000
1000
0000
0000
0010
0000
0000
0000
0000
0000
0100
0000
0000
0000
,
0010
0000
0000
1000
0000
0000
0001
0000
0000
0000
0000
0000
0100
0000
0000
0000
,
0001
0000
0000
1000
0000
0000
0100
0000
0000
0000
0000
0000
0010
0000
0000
0000
,
0001
0000
0000
1000
0000
0000
0001
0000
0000
0000
0000
0000
0100
0000
0000
0000
,
0010
0000
0000
1000
0000
0000
0001
0000
0000
0000
0000
0000
0010
0000
0000
0000
,
0100
0000
0000
1000
0000
0000
0001
0000
0000
0000
0000
0000
0100
0000
0000
0000
,
0010
0000
1000
0000
0001
0100
0001
0000
,
1000
0000
0001
0000
0100
0010
0000
1000
,
0000
0100
0000
0010
0000
0002
0000
0000
,
0000
0000
1003
0000
0100
0000
0000
0010
,
0000
0001
0000
1000
0000
0020
0000
0000
,
0000
0030
0100
0001
0100
0000
0000
0002
,
0000
2003
0000
3200
0000
0320
0000
0032
,
0000
0000
0000
2003
,
3020
0000
0000
0000
,
0030
0000
0000
0000
;
#NOTES:
     dance-single:
     Renard:
     Beginner:
     4:
     0.344,0.439,0.534,0.328,0.000:
0000
0000
0000
0000
,
0000
0000
0000
0000
,
0000
0000
0000
0000
,
0000
0000
0000
0000
,
0000
0000
0000
0000
,
0000
0000
0000
0000
,
0000
0000
0000
0000
,
0000
0000
0000
0000
,
2000
0000
3200
0000
,
2300
0000
3200
0000
,
2300
3000
1000
2000
,
0000
0000
0000
0000
,
3002
0000
0023
0000
,
0032
0000
0023
0000
,
0032
0003
0001
0002
,
1000
1000
1000
1003
,
1000
0001
0000
0100
,
0010
1000
0000
0001
,
0010
0100
0000
1000
,
0010
0100
0000
0001
,
0100
0010
0000
1000
,
0001
0010
0000
0100
,
1000
0001
0000
0100
,
0010
0000
0000
1001
,
0100
1010
0100
0011
,
0100
1010
0100
0011
,
0100
1010
0100
1001
,
1000
1100
0000
1001
,
0100
0101
0000
1001
,
0100
1100
0000
1001
,
0100
0110
0000
1001
,
0100
1001
0000
0110
,
1000
1010
0000
0100
,
0001
0101
0000
0100
,
0001
0011
0000
0100
,
1000
0101
0000
0010
,
1000
1100
0000
0010
,
1000
0101
0000
0010
,
1000
0101
0000
1000
,
0100
0000
0000
1001
,
0200
0000
0320
0000
,
0230
0000
0320
0000
,
2030
0000
3002
2003
,
0000
0000
0000
0000
,
3020
0000
0230
0000
,
0320
0000
0230
0000
,
0302
0000
2003
3002
,
0000
0000
0103
1001
,
1000
1100
0000
0101
,
1000
1100
0000
0101
,
0001
0101
0000
1100
,
0001
0101
0000
1100
,
1000
1010
0000
0011
,
1000
1010
0000
0011
,
0001
0011
0000
1010
,
0001
0011
0000
1010
,
0100
1001
0000
1001
,
0100
1001
0000
1001
,
0010
1001
0000
1001
,
0100
1001
0000
1001
,
0010
0011
0000
0011
,
0100
1100
0000
1100
,
1000
0101
0000
0101
,
0010
1000
0100
1001
,
0200
0000
0000
0000
,
0320
0000
0000
0000
,
2030
0000
0000
0000
,
3002
0000
0000
0000
,
0203
0000
0000
0000
,
0320
0000
0000
0000
,
0230
0000
0000
0302
,
2000
0000
0000
0000
,
3003
0000
0000
0000
;
