#TITLE:Thrillseekers;
#SUBTITLE:;
#ARTIST:Noisia + Phace;
#TITLETRANSLIT:;
#SUBTITLETRANSLIT:;
#ARTISTTRANSLIT:;
#CRChallenge:;
#BANNER:thrill.png;
#BACKGROUND:thrill-bg.png;
#LYRICSPATH:;
#CDTITLE:!cdtitle.png;
#MUSIC:thrill.ogg;
#OFFSET:0.000;
#SAMPLESTART:44.050;
#SAMPLELENGTH:12.000;
#SELECTABLE:YES;
#BPMS:0.000=173.715;
#STOPS:122.000=1.727
;
#BGCHANGES:;
#NOTES:
     dance-single:
     Renard:
     Medium:
     9:
     0.610,0.729,0.372,0.114,0.405:
0000
0000
0000
0000
,
0000
0000
0000
0000
,
0000
0000
0000
0000
,
0000
0000
0000
0000
,
0000
0000
0000
0000
,
0000
0000
0000
0000
,
0000
0000
0000
0000
,
0000
0000
0000
0000
,
1000
0100
0000
0000
0000
0000
0100
1000
,
0001
0010
0000
0000
0000
0000
0010
0001
,
1000
0100
0000
0000
0000
0000
0100
1000
,
0001
0010
0000
0000
0000
0000
0000
0000
,
0001
0100
0000
0000
0000
0000
0010
1000
,
0001
0100
0000
0000
0000
0000
0100
0001
,
1000
0010
0000
0000
0000
0000
0010
1000
,
0001
0100
0001
0100
0001
0100
0001
0100
0001
0100
0001
0100
0001
0100
0001
0100
,
0001
0100
0001
0000
0000
0000
0001
0100
,
0001
1000
0010
0000
0000
0000
0010
1000
,
0001
0100
0001
0000
0000
0000
0100
0001
,
0100
0010
1000
0000
0000
0000
1000
0000
,
0010
0100
0010
0000
0000
0000
0010
0100
,
0001
1000
0001
0000
0000
0000
1000
0001
,
0100
0010
0100
0000
0000
0000
0010
1000
,
0001
0000
0000
0000
1000
0000
0000
1000
0100
0000
0010
0000
0001
0000
0000
0001
,
1000
0100
0000
0100
1000
0000
1000
0100
,
0010
0001
0010
0001
0100
0001
0100
0001
,
1000
0010
0000
0010
1000
0000
1000
0010
,
0100
0001
0100
0001
1000
0100
1000
0100
,
0010
0001
0010
0100
1000
0001
0010
0100
,
1000
0000
0100
0000
0010
0000
0001
0000
1000
0100
1000
0100
1000
0100
1000
0000
,
1100
0000
0000
0000
0110
0000
0000
0000
0011
0000
0000
0000
1001
0000
0000
0000
0000
0000
0001
0000
0000
0010
0000
0000
,
0100
0000
1000
0001
0000
0000
0100
0000
0010
0000
1000
0000
0100
0000
0010
0000
,
0001
0000
1000
0010
0000
0000
1000
0000
0010
0000
0100
0000
0001
0000
0010
0000
,
0100
0000
1000
0001
0000
0000
0100
0000
0010
0000
1000
0000
0001
0000
0010
0000
,
0100
0000
1000
0001
0000
0000
0100
0000
0010
0000
1000
0000
0100
0000
0010
0000
,
0001
0000
0010
0100
0000
0000
1000
0000
0001
0000
0100
0000
0010
0000
1000
0000
,
0001
0000
0010
0100
0000
0000
0010
0000
0001
0000
1000
0000
0010
0000
0100
0000
,
0001
0000
0010
0100
0000
0000
1000
0000
0010
0000
0100
0000
0010
0000
1000
0000
,
0100
0000
0000
0000
0000
0000
0000
0000
0010
0000
0000
0000
0001
0000
0000
0000
0000
0000
0000
0000
0000
0000
0000
0000
1000
0000
0000
0000
0000
0000
0000
0000
0001
0000
0000
0000
0000
0000
0000
0000
0100
0000
0000
0000
0000
0000
0000
0000
0000
M1M1
0000
0000
0000
0000
0000
0000
0000
1M1M
0000
0000
0000
0000
0000
0000
,
0000
0000
0000
0000
0000
0000
0000
0000
0000
0000
0000
0000
0000
0000
0000
0000
0000
0000
MM11
0000
0000
0000
0000
0000
0000
0000
0000
0000
0000
11MM
0000
0000
0000
0000
0000
0000
0000
0000
0000
0000
0000
0000
MMMM
0000
0000
0000
0000
0000
0000
0000
1111
0000
0000
0000
0000
0000
0000
0000
0000
0000
0000
0000
0000
0000
,
0000
0000
0000
0000
0000
0000
0000
0000
1000
0000
0000
1000
0001
0000
0010
0000
,
0100
1000
0000
1001
0000
0000
0000
0000
1000
0000
0100
0000
0010
0000
0001
0000
,
0100
0010
0000
0110
0000
0000
0000
0000
0010
0000
1000
0000
0100
0000
0010
0000
,
0001
0010
0000
0011
0000
0000
0000
0000
0010
0000
0001
0000
0010
0000
0100
0000
,
1000
0001
0000
1001
0000
0000
0000
0000
1000
0000
0010
0000
0100
0000
0001
0000
,
0010
0100
0000
0110
0000
0000
0000
0000
0100
0000
1000
0000
0010
0000
0100
0000
,
0001
1000
0000
1001
0000
0000
0000
0000
0202
0000
0000
0000
0010
0000
0303
0000
,
0101
0000
0000
0010
0000
0010
0000
0000
1100
0000
0000
0000
0010
0000
0000
0000
,
0101
0000
0000
0010
0000
0010
0000
0000
1100
0000
0000
0000
0010
0000
0000
0000
,
1100
0000
0000
0010
0000
0010
0000
0000
0101
0000
0000
0000
0010
0000
0000
0000
,
1100
0000
0000
0010
0000
0010
0000
0000
0101
0000
0000
0000
0100
0000
0000
0000
,
0110
0000
0000
0010
0000
1000
0000
0000
1100
0000
0000
0000
0010
0000
0000
0000
,
0011
0000
0000
0001
0000
0100
0000
0000
1010
0000
0000
0000
2000
0000
0000
0000
,
0000
0000
0000
0000
0000
0000
0000
0000
3001
0000
0000
0001
1000
0000
0000
0000
,
1100
0000
0000
0010
0000
0001
0000
0000
1000
0100
0010
0001
1000
0000
0000
0000
,
1100
0000
0100
1000
0000
0000
0000
0000
0010
0000
0100
0000
0001
0000
0000
0000
,
0011
0000
0001
0010
0000
0000
0000
0000
0001
0000
0010
0000
0100
0000
0000
0000
,
0110
0000
0100
1000
0000
0000
0000
0000
0010
0000
0100
0000
0001
0000
0000
0000
,
0011
0000
0001
0010
0000
0000
0000
0000
0100
0000
1000
0000
0010
0000
0000
0000
,
0110
0000
0010
1000
0000
0000
0000
0000
0010
0000
0100
0000
0001
0000
0000
0000
,
0011
0000
0001
0010
0000
0000
0000
0000
0100
0000
1000
0000
0001
0000
0000
0000
,
0101
0000
0001
0100
0000
0000
0000
0000
0010
0000
1000
0000
0100
0000
0010
0000
,
0001
0000
0001
0000
0001
0000
0001
0000
0000
0001
0000
0001
1000
0000
0100
0000
,
0010
0000
0002
0100
0000
0100
0000
0000
0013
0000
0000
0000
0001
0000
0010
0000
,
0100
0000
2000
0100
0000
0100
0000
0000
3001
0000
0000
0000
0001
0000
0010
0000
,
0100
0000
2000
0010
0000
0010
0000
0000
3100
0000
0000
0000
1000
0000
0100
0000
,
0010
0000
0002
0100
0000
0100
0000
0000
1003
0000
0000
0000
0010
0000
1000
0000
,
0001
0000
0200
1000
0000
1000
0000
0000
0301
0000
0000
0000
0100
0000
0001
0000
,
1000
0000
0020
0001
0000
0001
0000
0000
0130
0000
0000
0000
0100
0000
0001
0000
,
1000
0000
0020
0001
0000
0001
0000
0000
1030
0000
0000
0000
0010
0000
1000
0000
,
0100
0000
0000
0011
0000
0011
0000
0000
1100
0000
0002
0020
0000
0000
0000
0000
,
0000
0000
0000
0000
,
0000
0000
0000
0000
0000
0000
0100
0033
;
#NOTES:
     dance-single:
     Renard:
     Easy:
     6:
     0.351,0.589,0.010,0.000,0.000:
0000
0000
0000
0000
,
0000
0000
0000
0000
,
0000
0000
0000
0000
,
0000
0000
0000
0000
,
0000
0000
0000
0000
,
0000
0000
0000
0000
,
0000
0000
0000
0000
,
0000
0000
0000
0000
,
0001
1000
0000
0000
0000
0000
0001
1000
,
0001
1000
0000
0000
0000
0000
0001
1000
,
0001
1000
0000
0000
0000
0000
0001
1000
,
0001
1000
0000
0000
0000
0000
0000
0000
,
0010
0100
0000
0000
0000
0000
0010
0100
,
0010
0100
0000
0000
0000
0000
0010
0100
,
0010
0100
0000
0000
0000
0000
0010
0100
,
0010
0100
0000
0000
0000
0000
0000
0000
,
0010
0000
1000
0000
0010
0000
1000
0010
,
1000
0010
0000
0000
0000
0000
0100
0001
,
0100
0001
0000
0000
0000
0000
1000
0100
,
1000
0100
0000
0000
0000
0000
0000
0000
,
1000
0000
0000
0000
0000
0000
0001
0100
,
0001
0100
0000
0000
0000
0000
0001
1000
,
0001
1000
0100
0010
,
0001
0000
1000
0000
,
0001
0000
0000
0100
0000
0000
0010
0000
,
1000
0010
0100
0001
,
1000
0000
0000
0010
0000
0000
0100
0000
,
0001
0100
0010
1000
,
0001
1000
0001
1000
0001
1000
0001
1000
,
0010
0100
0010
0100
0010
0100
0010
0100
,
0001
0000
1001
1000
,
1000
0001
0001
0100
,
0100
0000
0010
0100
0010
0000
1000
0000
,
1000
0001
0001
0010
,
0010
0000
0100
1000
0100
0000
1000
0000
,
1000
0010
0010
0100
,
0100
0000
0001
1000
0001
0000
0010
0000
,
0010
0100
0100
1000
,
1000
0000
0001
0100
0001
0000
1000
0000
,
MMMM
MMMM
MMMM
MMMM
,
MMMM
MMMM
MMMM
0001
,
1000
0010
1000
0001
,
0100
0000
0001
1000
0100
0000
1000
0000
,
0001
0100
0001
1000
,
0100
0000
1000
0001
0100
0000
0001
0000
,
1000
0010
1000
0001
,
0010
0000
0001
1000
0010
0000
1000
0000
,
0001
0010
0001
1000
,
0010
0000
1000
0001
0010
0000
0001
0000
,
0001
1000
1000
0010
,
0010
0100
0100
0001
,
0001
1000
1000
0010
,
1000
0001
0100
0010
,
0000
0000
0000
1000
,
0100
0000
1000
0001
1000
0000
0001
0000
,
0100
0000
0100
0100
0100
0000
0010
0000
,
1000
0000
0100
0100
0100
0000
1000
0000
,
0010
0000
0100
0100
0100
0000
0010
0000
,
1000
0000
0100
0100
0100
0000
1000
0000
,
0010
0000
0100
0100
0100
0000
0001
0000
,
0010
0000
0100
0100
0100
0000
0010
0000
,
0001
0000
0100
0100
0100
0000
0001
0000
,
0010
0000
0000
0010
,
0100
1000
0001
0100
,
0010
0000
1000
0000
0010
1000
0010
0000
,
0100
0001
1000
0100
,
0010
0000
0001
1000
0001
0000
0100
0000
,
0010
1000
0100
0010
,
0001
1000
0010
0100
,
0001
0100
0010
1000
,
0001
0000
1000
0100
1000
0000
0001
0000
,
MMMM
MMMM
MMMM
MMMM
,
MMMM
MMMM
MMMM
M1MM
;
#NOTES:
     dance-single:
     Renard:
     Beginner:
     3:
     0.226,0.277,0.010,0.000,0.000:
0000
0000
0000
0000
,
0000
0000
0000
0000
,
0000
0000
0000
0000
,
0000
0000
0000
0000
,
0000
0000
0000
0000
,
0000
0000
0000
0000
,
0000
0000
0000
0000
,
0000
0000
0000
0000
,
1000
0000
0000
0001
,
0001
0000
0000
0100
,
0100
0000
0000
0010
,
0010
0000
0000
0000
,
1000
0000
0000
0010
,
0010
0000
0000
0100
,
0100
0000
0000
0001
,
0001
0000
0000
0000
,
0010
0001
0000
0010
,
0010
0001
0000
1000
,
1000
0100
0000
1000
,
1000
0010
0000
0100
,
0100
0001
0000
0010
,
0010
0001
0000
1000
,
1000
0100
0010
0001
,
1000
0001
1000
0000
,
0001
0000
0001
0100
,
0010
0010
0010
0010
,
0100
0000
0100
0010
,
1000
1000
1000
1000
,
0001
0000
0001
0100
,
0010
1000
0001
0100
,
0010
0000
1001
0001
,
0001
0001
0000
1000
,
0000
1000
0000
0010
,
0010
0010
0000
0100
,
0000
0100
0000
0001
,
0001
0001
0000
1000
,
0000
1000
0000
0010
,
0010
0010
0000
0100
,
0000
0001
0000
1000
,
0000
0000
0000
0000
,
0000
0000
0000
0001
,
0000
0001
0000
1000
,
0100
1000
0000
0001
,
0000
0001
0000
1000
,
0010
1000
0000
0100
,
0000
0100
0000
0010
,
0001
0010
0000
0001
,
0000
0100
0000
0001
,
1000
0100
0000
1000
,
0000
1000
0000
1000
,
0010
0100
0001
0010
,
0000
0010
0000
0010
,
0001
0100
0010
1000
,
0000
0000
0000
0001
,
1000
0000
0100
1000
,
0001
0000
0100
0010
,
1000
0000
0010
1000
,
0001
0000
0100
0001
,
1000
0000
0001
0010
,
0001
0000
1000
0010
,
0100
0000
0010
1000
,
0001
0000
0010
0001
,
1000
0010
1000
0001
,
0000
0001
0000
0001
,
0000
0001
0100
0010
,
0000
0010
0000
0010
,
0000
0010
1000
0100
,
0000
0100
0000
0100
,
0000
0100
0010
0001
,
0000
0001
0000
0001
,
0000
0100
MM1M
MMMM
,
MMMM
MMMM
MMMM
MMMM
,
MMMM
MMMM
MMMM
M1MM
;
