#TITLE:The View From Above;
#SUBTITLE:;
#ARTIST:Bloomin' Nutters;
#TITLETRANSLIT:;
#SUBTITLETRANSLIT:;
#ARTISTTRANSLIT:;
#CRChallenge:;
#BANNER:view.jpg;
#BACKGROUND:view-bg.jpg;
#LYRICSPATH:;
#CDTITLE:;
#MUSIC:view.ogg;
#OFFSET:0.000;
#SAMPLESTART:56.451;
#SAMPLELENGTH:12.000;
#SELECTABLE:YES;
#BPMS:0.000=170.000;
#STOPS:;
#BGCHANGES:;
#NOTES:
     dance-single:
     Renard:
     Medium:
     9:
     0.584,0.622,0.449,0.009,0.143:
0000
0000
0000
0000
,
0000
0000
0000
0000
,
0000
0000
0000
0000
,
0000
0000
0000
0000
,
0000
0000
0000
0000
,
0000
0000
0000
0000
,
1001
0000
1001
0000
0000
1000
0001
1000
,
0000
0001
1000
0001
0000
1000
0001
0000
,
1001
0000
1001
0000
0000
0001
1000
0001
,
0000
1000
0001
1000
0000
0001
0100
0000
,
0010
0000
0010
1000
0100
0000
0010
0000
,
0001
0010
0000
0010
0100
1000
0010
0100
,
0001
0000
0001
0010
0100
0000
0100
0000
,
0001
0100
0000
0100
1000
0010
0001
0010
,
0100
0000
0100
0010
1000
0000
0100
0000
,
0010
0001
0000
0010
0100
1000
0000
1000
,
0100
0000
0001
0100
0010
0001
0010
0100
,
1000
0010
0000
0010
0100
0001
0100
1000
,
0100
0000
0110
0000
0010
1000
0100
0000
,
0010
0000
0011
0000
0010
0100
1000
0000
,
0001
0000
0101
0000
0100
0010
1000
0000
,
0100
0000
1100
0000
1000
0100
0010
0001
,
1000
0000
0101
0000
0001
0100
0010
0000
,
1000
0000
1010
0000
1000
0100
0010
0000
,
0001
0000
0001
0010
0000
0011
0000
0110
,
0000
0000
0100
1000
0010
0100
0001
0010
,
0100
0000
0110
0000
0100
1000
0010
0000
,
0100
0000
0110
0000
0100
0001
0010
0000
,
0100
0000
0110
0000
0100
1000
0010
0000
,
0100
0000
0110
0000
0100
0001
0010
0100
,
1000
0000
1001
0000
1000
0100
0010
0000
,
0001
0000
0011
0000
0001
0010
0100
1000
,
0001
0000
0100
0010
0000
0110
0000
1010
,
0000
0000
1000
0100
0010
0001
0010
0100
,
1000
0000
0000
0100
0000
0000
0010
0000
0001
0000
0000
0010
0000
0000
0100
0000
,
1000
0000
0000
0010
0000
0000
0100
0000
0001
0000
0000
0100
0000
0000
0010
0000
,
1000
0000
0000
0100
0000
0000
0010
0000
0001
0000
0000
0010
0000
0000
0100
0000
,
1000
0000
0000
0010
0000
0000
0100
0000
0001
0000
0000
0010
0000
0000
0001
0000
,
1001
0000
0000
0000
,
0000
0000
0000
0000
,
0010
0000
0010
1000
0000
0000
0010
0000
0100
0000
0100
0001
0000
0000
0010
0000
,
0100
0000
0100
1000
0000
0000
0001
0000
0010
0000
0010
0001
0000
0000
1000
0000
,
0010
0000
0010
0100
0000
0000
0001
0000
0010
0000
0010
0100
0000
0000
1000
0000
,
0010
0000
0100
0001
0000
0000
0100
0000
0010
0000
1000
0010
0000
0000
1000
0000
,
0100
0000
0100
1000
0000
0000
0001
0000
0010
0000
0010
0001
0000
0000
1000
0000
,
0010
0000
0010
0100
0000
0000
0001
0000
0010
0000
0010
0100
0000
0000
1000
0000
,
0001
0000
0001
0100
0000
0000
0010
0000
1000
0000
1000
0100
0000
0000
0010
0000
,
0001
0000
0001
0010
0000
0000
0100
0000
1000
0000
0001
0010
0000
0100
1000
0000
,
0001
0100
1000
0100
0010
1000
0100
0010
,
0001
0010
1000
0010
0001
0010
0100
0001
,
0100
1000
0010
0100
1000
0100
0001
0010
,
0100
0001
0100
1000
0010
0100
1000
0100
,
0010
0001
0010
1000
0100
0010
0001
0010
,
0100
0001
0100
1000
0001
0010
1000
0001
,
0100
1000
0010
0001
1000
0100
0010
0100
,
0010
1000
0100
0010
0001
0010
0100
1000
,
0002
0000
0000
0000
,
0000
0000
0000
0000
,
1003
0100
0010
0000
0010
0001
1000
0010
,
0100
0000
0100
0001
0100
0000
0100
0010
,
1000
0100
0010
0000
0001
0010
0100
1000
,
0001
0000
0001
0010
0001
1000
0010
0000
,
0100
0010
0100
0010
1000
0010
1000
0001
,
0100
0000
0001
0010
0100
1000
0001
0010
,
0001
0000
0001
1000
0010
0100
0001
0010
,
0000
0000
0001
0000
1001
0000
1000
0000
0001
0000
0000
0001
0000
0000
0001
0000
,
1010
0000
0000
1010
0000
0000
1010
0000
0000
0000
0000
0000
0000
0000
0100
0000
,
0000
0000
0001
0000
0010
0000
0000
0000
0011
0000
0000
0110
0000
0000
0110
0000
,
0110
0000
0000
0110
0000
0000
0110
0000
0000
0000
0000
0000
0000
0000
1100
0000
,
0000
1000
0010
0000
0110
0000
0101
0000
,
0011
0000
0000
0011
0000
0000
0110
0000
0000
0000
0000
0000
0000
0000
0100
0000
,
0000
0000
1000
0000
0010
0000
0000
0000
0110
0000
0000
0101
0000
0000
0110
0000
,
1010
0000
0000
1010
0000
0000
1001
0000
0000
0000
0000
0000
0000
0000
1000
0000
,
0000
0000
0100
0000
0010
0000
0000
0000
0011
0000
0000
0110
0000
0000
1100
0000
,
1001
0000
0000
0000
,
0000
0000
0000
0000
,
1001
0000
1001
0000
0000
0010
0100
0010
,
0000
0100
0010
0100
0000
0010
0100
0000
,
1001
0000
1001
0000
0000
0100
0010
0100
,
0000
0010
0100
0010
0000
0100
0010
0000
,
1001
0000
0000
0000
;
#NOTES:
     dance-single:
     Renard:
     Easy:
     6:
     0.416,0.553,0.320,0.086,0.000:
0000
0000
0000
0000
,
0000
0000
0000
0000
,
0000
0000
0000
0000
,
0000
0000
0000
0000
,
0000
0000
0000
0000
,
0000
0000
0000
0000
,
1001
0000
1001
0000
0000
0001
1000
0001
,
0000
1000
0001
1000
0000
0001
1000
0000
,
1001
0000
1001
0000
0000
0001
1000
0001
,
0000
1000
0001
1000
0000
0001
1000
0000
,
0001
0000
0100
0010
0100
0000
0010
0000
,
1000
0010
0000
0000
1000
0000
0010
0000
,
0100
0000
0001
0010
0001
0000
0010
0000
,
0000
0001
0000
1000
0100
0000
1000
0000
,
0001
0000
1000
0001
1000
0000
0001
0000
,
0000
0100
0000
0000
0010
1000
0000
0010
,
1000
0000
0001
0000
0100
0001
1000
0001
,
1000
0100
0000
1000
0001
0000
0010
0000
,
0011
0011
0000
0000
,
0000
0000
0000
0000
0010
0100
1000
0010
,
0100
0000
0000
0010
0000
0000
0100
0000
,
0001
0100
0010
1000
,
1010
1010
0000
1000
,
0100
0010
0001
0010
,
0100
0000
0100
1000
0000
1100
0000
1100
,
0000
0000
1000
0100
0010
0000
0011
0000
,
0110
0110
0000
0100
,
1000
0000
0010
0000
0100
0001
0100
0010
,
1000
0000
0000
0001
0000
0000
0000
0000
,
0100
0010
1000
0010
,
1010
1010
0000
1000
,
0010
0100
0001
1000
,
0100
0000
1000
0100
0000
1100
0000
1100
,
0000
0000
1000
0100
0010
0001
1000
0000
,
0002
0000
0023
0000
,
0230
0000
2300
0000
,
3020
0000
0230
0000
,
0302
0000
2003
0000
,
3100
0000
0000
0000
,
0000
0000
0000
0000
,
1000
0000
0100
0000
1000
0100
1000
0000
,
0001
0000
0010
0000
0001
0010
0001
0000
,
1000
0000
0010
0000
1000
0010
1000
0000
,
0001
0100
0001
0100
,
0001
0000
1000
0000
0001
1000
0001
0000
,
0100
0000
0010
0000
0100
0010
0100
0000
,
0010
0000
1000
0000
0010
1000
0010
0000
,
0100
0000
0001
0000
0100
0001
0100
0000
,
0001
1000
0100
0010
,
0001
0000
0010
0000
0100
0000
1000
0001
,
1000
0001
0010
0100
,
1000
0000
0100
0000
0010
0000
0001
1000
,
0001
1000
0010
0100
,
0001
0000
0100
0000
0010
0000
1000
0001
,
1000
0001
1000
0010
,
0100
0001
0010
0100
,
2000
0000
0000
0000
,
0000
0000
0000
0000
,
3100
0100
1000
1000
,
0010
0000
0010
0100
0010
0000
0100
0000
,
0001
0001
0010
0010
,
0001
0000
1000
0100
1000
0000
0001
0000
,
0010
0000
0010
0000
0001
0000
1000
0010
,
1000
0000
0001
0000
0100
0000
0001
0100
,
0000
0000
0001
0000
1000
0100
1000
0001
,
1000
1000
0002
0000
,
0103
0000
0000
0110
0000
0000
0000
0010
,
0000
1000
0010
0000
1010
0000
0000
0000
,
1001
0000
0000
0101
0000
0000
0000
0110
,
0000
0010
1000
0000
1001
0000
1100
0000
,
1100
0000
0000
0011
0000
0000
0000
0110
,
0000
0100
1000
0000
1100
0000
1001
0000
,
0101
0000
0000
0110
0000
0000
0000
1010
,
0000
1001
1001
0000
1100
0000
0011
0000
,
1001
0000
0000
0000
,
0000
0000
0000
0000
,
0010
0000
0010
0000
0000
1000
0001
1000
,
0000
0001
1000
0001
0000
0001
1000
0001
,
0010
0000
0010
0000
0000
0001
1000
0001
,
0000
1000
0001
1000
0000
0001
1000
0001
,
0100
0000
0000
0000
;
#NOTES:
     dance-single:
     Renard:
     Beginner:
     3:
     0.242,0.277,0.009,0.060,0.000:
0000
0000
0000
0000
,
0000
0000
0000
0000
,
1000
1000
0000
0000
,
0000
0000
0000
0000
,
0001
0001
0000
0000
,
0000
0000
0000
0000
,
0100
0100
0000
0000
,
0000
0000
0000
0000
,
0010
0010
0000
0000
,
0000
0000
0000
0000
,
1000
0000
0010
1000
,
0000
0001
0100
0001
,
0010
0000
0100
1000
,
0000
0000
0100
1000
,
0001
0000
0010
0001
,
0000
0000
1000
0010
,
1000
0000
0001
0100
,
0010
1000
0010
0010
,
0010
0100
0000
0001
,
0000
1000
0100
1000
,
0001
0010
0000
0010
,
0000
0001
0000
1000
,
0010
1000
0000
0001
,
0000
1000
0000
0001
,
0100
0000
0010
0000
,
1000
0010
1000
0010
,
1000
0001
0000
0100
,
0000
0010
1000
0010
,
0100
0001
0000
0001
,
0000
1000
0000
1000
,
0100
0010
0000
0010
,
0000
0001
0000
1000
,
0010
1000
0000
0001
,
0000
0100
0001
1000
,
0200
0000
0000
0000
,
0320
0000
0032
0000
,
2003
0000
0000
0000
,
3020
0000
0230
0000
,
0302
0000
0000
0000
,
0000
0000
0000
0000
,
1003
1000
0001
0001
,
0100
0010
0100
0000
,
0001
0001
1000
1000
,
0100
0010
0100
0000
,
1000
1000
0001
0001
,
0100
0010
0100
0000
,
0001
0001
1000
1000
,
0100
0010
0100
0000
,
1000
0000
1000
0000
,
0001
0100
0001
0100
,
0010
0000
1000
0000
,
0010
0100
0001
0100
,
0010
0000
0010
0000
,
1000
0010
0100
0001
,
0100
0000
0100
0000
,
0001
1000
0001
0000
,
1000
0000
0000
0000
,
0000
0000
0000
0000
,
0001
0000
0001
0000
,
0100
0000
0010
0010
,
1000
0000
1000
0000
,
0100
0000
0010
0010
,
0001
0000
0001
0000
,
0010
0000
0010
0100
,
1000
0000
0001
0100
,
0010
0000
0000
0000
,
0010
0000
0010
0000
,
1000
0010
1000
0000
,
0010
0000
0010
0000
,
0100
0001
0100
0010
,
1000
0000
1000
0000
,
0010
1000
0001
0100
,
0010
0000
0010
0000
,
1000
0010
0100
0001
,
0100
0000
0000
0000
,
0000
0000
0000
0000
,
0100
0100
0000
0010
,
0000
0010
0000
0010
,
1000
0001
0000
1000
,
0000
1000
0000
0001
,
0110
0000
0000
0000
;
