#TITLE:The Vice;
#SUBTITLE:;
#ARTIST:Sonata Arctica;
#TITLETRANSLIT:;
#SUBTITLETRANSLIT:;
#ARTISTTRANSLIT:;
#CRChallenge:;
#BANNER:vice.png;
#BACKGROUND:vice-bg.png;
#LYRICSPATH:;
#CDTITLE:!cdtitle.png;
#MUSIC:vice.ogg;
#OFFSET:0.000;
#SAMPLESTART:11.960;
#SAMPLELENGTH:12.000;
#SELECTABLE:YES;
#BPMS:0.000=180.000,315.000=90.000,332.000=180.000;
#STOPS:;
#BGCHANGES:;
#NOTES:
     dance-single:
     Renard:
     Medium:
     9:
     0.680,1.000,0.294,0.114,0.237:
0000
0000
0000
0000
,
0010
0001
0001
0001
0010
0100
1000
0010
,
0100
0000
0001
0100
0010
1000
0100
0010
,
0001
0010
0001
0001
0001
0010
0100
1000
,
0001
0000
0100
0010
1000
0000
0100
0000
,
0010
0001
0001
0010
0100
1000
0001
0100
,
0010
0000
1000
0100
0010
0000
0001
0000
,
0010
0100
0100
0100
1000
0000
0010
0000
,
0100
0000
0000
0000
0001
0000
0000
0000
1000
0000
0000
1000
0000
0000
1000
0000
,
0001
0100
0001
0000
1000
0000
0100
0010
,
0001
1000
0010
0100
0001
0010
0100
0000
,
1000
0001
0110
1000
,
0010
0100
0001
0000
0010
0000
0001
1000
,
0100
0000
0010
0000
0100
1000
0010
0100
,
0001
0000
0010
0000
0001
0010
0100
0000
,
1100
0000
0011
0000
0100
1000
0010
0000
,
0100
0100
0001
0001
1000
0100
0010
0001
,
1000
1000
0010
0100
0001
0010
0100
0000
,
1000
0000
0001
0100
0010
1000
0100
0010
,
0001
0000
0011
0000
0010
0100
1000
0000
,
0001
0000
0100
0010
1000
0100
0010
0001
,
1000
0101
1010
0101
,
0001
1000
0100
0010
0001
1000
0010
0000
,
0100
0001
0100
0000
0010
1000
0010
0000
,
1000
0100
0010
0100
1000
0000
0001
0010
,
0100
0000
0010
0001
0100
0000
0110
0000
,
0101
0000
0001
0100
0010
1000
0100
0000
,
1100
0000
1000
0100
0010
0001
1000
0000
,
1001
0000
0001
0100
0010
1000
0100
1000
,
0001
0010
0001
1000
0010
0100
0001
0100
,
0001
0000
0101
0000
0000
1001
0000
0000
,
1100
0000
0000
0100
0010
0001
1000
0000
,
0100
0000
0100
1000
0001
0000
0010
0001
,
1000
0000
0100
1000
0001
0000
0100
0001
,
1000
0000
0100
1000
0001
0000
0010
0001
,
1000
0000
0010
1000
0001
0010
0100
1000
,
0001
0100
0001
1000
0100
0000
1000
0001
,
0100
0000
0001
0010
0001
0000
1000
0010
,
1000
0000
0001
0010
0100
0000
1000
0010
,
0100
0000
0000
0000
0000
0000
0001
0000
0000
1000
0000
0000
0100
0000
0000
0010
0000
0000
0001
0000
0000
0000
1001
0000
,
0000
1000
0000
0001
0000
0000
0101
0000
0000
0100
0000
0000
,
0010
1000
0100
0000
0010
0001
0010
0000
,
0100
1000
1100
0000
0110
0000
1001
0000
,
0110
0000
1001
0000
0110
0000
0010
1000
,
0100
0000
0010
0001
0010
0000
0100
0100
,
1000
1000
0001
0001
0100
0000
0010
1000
,
0100
0000
0010
0001
0010
0000
0100
1000
,
0001
0000
0100
0010
1000
0000
0010
0000
,
1001
0000
0100
0000
1001
0000
0001
0010
,
0100
1000
0001
0100
0010
0000
1000
0000
,
0101
0000
0010
0000
0101
0000
0010
1000
,
0100
0010
0001
0000
1000
0000
0100
0000
,
1001
0000
0010
0000
1001
0000
0001
0100
,
0010
1000
0100
0010
0001
1000
0010
1000
,
0010
1000
0001
0100
0001
0100
0001
0000
,
0010
0000
0000
0100
1000
0001
0010
0100
1000
0002
0000
0000
,
0000
0023
0000
2030
,
0000
3002
0000
0203
,
0000
0000
0000
2300
0000
0000
0000
0000
0000
3010
1000
0001
,
0100
0010
1000
0100
0000
0000
1100
0000
0000
0012
0000
0000
,
0000
0203
0000
2300
,
0000
3002
0000
0023
,
0000
0000
0000
2030
0000
0000
0000
0000
0000
3100
0010
0001
,
1000
0100
0010
0001
0000
0000
1001
0000
0000
0001
0010
0100
,
1000
0000
0000
0001
1000
0010
0100
0000
0000
0001
0100
0010
,
1000
0000
0000
0100
0010
0001
0010
0000
0000
0100
1000
0001
,
0100
0000
0000
0010
1000
0001
0100
0000
0000
0010
0000
0000
,
1001
0000
0100
0000
1001
0000
0001
0100
,
0010
1000
0100
1000
0010
0100
0001
0010
,
0100
1000
0010
1000
0100
0010
0001
0100
,
0010
1000
0100
1000
0010
0100
0001
0010
,
0011
0000
0000
0110
0000
0000
0110
0000
0000
0100
1000
0001
,
0010
0000
0100
0000
1000
0000
0010
0000
0000
0010
0000
0000
0010
0000
0000
0000
0000
0000
0100
0000
0000
0001
0000
0000
,
0100
0001
0100
1000
0100
1000
0001
0010
,
0001
0010
1000
0010
1000
0010
1000
0100
,
1000
0100
0001
0100
0001
0100
0010
1000
,
0010
1000
0010
0001
0010
0100
1000
0010
,
1000
0010
0001
0010
0001
0010
1000
0100
,
1000
0000
0100
0000
0001
0000
0100
0000
0001
0000
0100
0000
0010
1000
0100
0010
,
0001
1000
0001
0000
1000
0100
0010
0001
0100
0010
1000
0100
0010
0001
0010
0100
,
1000
0001
0100
0000
0010
1000
0010
0100
0001
0100
0010
1000
0100
0010
0001
0010
,
0100
1000
0001
0000
1000
0010
0100
0001
0100
0010
1000
0100
0010
0001
0010
0100
,
1000
0001
0100
0000
0001
0100
0010
1000
0100
0010
0002
0000
2000
0000
0000
0000
,
3003
0000
0000
0000
;
#NOTES:
     dance-single:
     Renard:
     Easy:
     6:
     0.353,0.508,0.188,0.106,0.000:
0000
0000
0000
0000
,
0000
0000
0000
0000
,
0000
0000
0000
0000
,
0000
0000
0000
0000
,
0000
0000
0000
0000
,
0000
0000
0000
0000
,
0000
0000
0000
0000
,
0000
0000
0000
0000
,
0000
0000
0000
0000
,
0001
0001
0001
0001
,
1000
0100
1000
0100
1000
0100
1000
0000
,
0010
0010
0100
0100
,
0001
1000
0001
0000
0000
0000
0100
0000
,
0010
0000
1000
0000
0001
0000
0100
0001
,
0100
0000
0001
1000
,
0100
0000
0010
0000
0001
1000
0001
0000
,
1000
0000
0010
0000
0100
0010
0100
0010
,
0100
0000
0001
0000
1000
0001
1000
0000
,
1100
1000
0001
0100
,
0001
0000
0000
0000
1000
0001
1000
0000
,
0001
0100
0010
1000
,
0001
0101
1010
0101
,
0001
1000
0001
1000
0001
1000
0001
0000
,
0000
1000
0100
0010
,
0001
0000
1000
0010
1000
0000
0001
0000
,
0100
0010
1000
0001
,
1000
0000
0100
1000
0100
0000
1000
0001
,
1000
0000
0001
0100
0001
0000
1000
0000
,
0020
0000
0000
0000
,
0230
0000
0000
0000
,
0301
0001
0001
0000
,
1000
1000
1000
0000
,
0010
0100
0010
0000
,
0010
0100
0001
0000
,
0001
1000
0100
0000
,
0100
0010
0001
0000
,
0001
1000
0010
1000
,
0010
0100
0001
0100
,
0001
1000
1000
0100
,
0100
0010
0010
0001
,
0000
1100
1000
0001
,
0100
0001
1000
0100
,
1000
1001
1001
1001
,
1001
1001
1001
1000
,
1000
0000
0001
0000
0001
0000
0100
0010
,
0100
0010
0100
0010
0100
0000
0010
0000
,
0000
0100
0000
0001
,
0000
1000
0000
0100
,
0100
0010
0010
0001
,
0000
1000
0000
0001
,
0001
0100
0100
0010
,
0000
0010
0000
1000
,
1000
0001
0001
1000
,
1000
0100
0100
0010
,
0000
0010
0000
0001
,
0000
0001
1000
0010
,
0000
0010
0000
0100
,
0000
0100
0000
0010
,
0000
0010
0000
0100
,
0100
0101
0110
1010
,
0000
0010
0000
0010
,
0000
1000
0000
1000
,
0000
0001
0000
0100
,
0001
1001
1100
1001
,
0000
0101
0000
0010
,
0000
0110
0000
0010
,
0000
1010
0000
1000
,
0100
0010
0001
1000
,
0000
1100
0000
0100
,
0000
0110
0000
0010
,
0000
0011
0001
1000
,
0010
0100
0001
1000
,
1000
0100
0100
0010
,
0010
0001
0001
1000
,
0001
0000
0100
0001
0100
0001
0100
0000
,
0010
1000
0010
1000
,
0001
0000
1000
0100
1000
0100
1000
0000
,
1000
0001
0000
0100
,
0100
0010
0000
2000
,
0000
0001
3002
0000
0100
0000
2003
0000
,
0000
0010
3020
0000
0100
0000
2030
0000
,
0000
0001
3002
0000
0203
0000
0302
0000
,
0000
0010
0023
0000
0230
0000
2300
0000
,
3000
0000
0000
0000
;
#NOTES:
     dance-single:
     Renard:
     Beginner:
     3:
     0.312,0.338,0.228,0.147,0.000:
0000
0000
0000
0000
,
1000
0000
1000
0000
,
0001
0100
0001
0000
,
1000
0000
1000
0000
,
0001
0010
0001
0000
,
1000
0000
1000
0000
,
0100
0010
0100
0000
,
0010
0000
0010
0000
,
0001
0000
0001
0000
,
1000
1000
0100
0100
,
0010
0010
0001
0001
,
1000
0100
0010
0001
,
1000
0000
0001
0000
,
0100
0100
0010
0000
,
1000
1000
0010
0010
,
0100
0100
0001
1000
,
0001
0000
0100
0000
,
0010
0000
1000
1000
,
0100
0000
0010
0000
,
0001
1000
0001
1000
,
0010
0010
0100
0100
,
0010
0100
0010
0100
,
0001
0001
0001
0001
,
0000
1000
0000
1000
,
0000
0100
0010
0001
,
0000
1000
0010
0000
,
1000
1000
0010
0100
,
0001
0001
0100
0010
,
2000
0000
0000
0000
,
3001
0000
0001
0000
,
1000
0000
0000
0000
,
0110
0000
0000
0000
,
0011
0000
0001
1000
,
0001
0000
0100
0010
,
0100
0000
0001
1000
,
0001
0000
0100
0000
,
0100
0000
0010
1000
,
0010
0000
0100
0001
,
0100
0000
0001
0010
,
0001
0000
1000
0000
,
1000
0100
0100
0100
,
0000
0010
0010
0010
,
0000
1001
0000
0110
,
0000
1001
0000
0001
,
0001
1000
1000
0010
,
0100
0010
0100
0001
,
0000
0001
0000
1000
,
0000
1000
0000
0100
,
0000
0010
0000
1001
,
1001
1001
0000
0010
,
0000
0100
0000
1001
,
1001
1001
0000
0100
,
0000
0010
0000
1001
,
1001
1001
0000
0110
,
0000
0010
0000
0100
,
0001
1000
0100
0020
,
0000
0000
0000
0032
,
0000
0000
0000
2003
,
0000
0000
0000
0100
,
3100
1100
1100
1200
,
0000
0000
0000
0320
,
0000
0000
0000
0032
,
0000
0000
0000
1000
,
1003
1001
1001
0110
,
0000
0101
0000
0001
,
1000
0100
0000
1100
,
0000
0110
0000
0010
,
0001
0100
0010
1000
,
0000
1010
0000
0001
,
0000
0101
0000
0001
,
0000
1001
0000
1000
,
0100
0010
0001
0010
,
0100
1000
0001
1000
,
1000
0010
0010
1000
,
0010
1000
0000
0001
,
0001
0100
0100
0001
,
0100
0001
0000
1000
,
1000
0001
0000
0100
,
0100
0010
0000
1002
,
0000
0203
0320
2030
,
0000
3200
0320
0032
,
0000
0000
0000
0203
,
0000
0320
2030
3200
,
0300
0000
0000
0000
;
