#TITLE:The Terror of Death;
#SUBTITLE:;
#ARTIST:DJ Sharpnel;
#TITLETRANSLIT:;
#SUBTITLETRANSLIT:;
#ARTISTTRANSLIT:;
#CRChallenge:;
#BANNER:death.png;
#BACKGROUND:death-bg.png;
#LYRICSPATH:;
#CDTITLE:;
#MUSIC:death.ogg;
#OFFSET:0.000;
#SAMPLESTART:40.341;
#SAMPLELENGTH:12.000;
#SELECTABLE:YES;
#DISPLAYBPM:190.000;
#BPMS:0.000=190.000,188.000=11.875,189.313=190.000;
#STOPS:204.313=0.020
,204.375=0.095
,220.000=0.932
;
#BGCHANGES:;
#NOTES:
     dance-single:
     Renard:
     Hard:
     11:
     0.791,1.000,0.819,0.036,1.000:
0000
0000
0000
0000
,
0000
0000
0000
0000
,
0000
0000
0000
0000
,
0000
0000
0000
0000
,
0011
1100
1010
0101
,
0011
0000
0000
1100
0000
0001
1000
0000
0000
0110
0000
0000
,
1001
1001
1100
1100
,
0001
0010
0100
1000
0000
1000
0001
0000
0000
0110
0000
0000
,
0010
1010
0100
0101
,
0011
0000
0000
0110
0000
0100
1000
0000
0000
0101
0000
0000
,
1010
1000
0101
0100
,
1001
0000
0110
0000
1001
0000
0010
1000
0001
1000
0000
0000
,
0001
0001
0100
0100
,
1000
0000
0000
0001
0000
0010
1000
0000
0000
0100
0000
0000
,
0001
0001
0100
0100
,
1000
0100
0010
0001
0000
0001
1000
0000
0000
1001
0000
0000
,
0101
1100
0101
1100
,
0001
0000
0000
1000
0000
0100
0010
0000
0000
1001
0000
0000
,
0001
0100
0010
1000
0100
0010
0001
0000
0001
0010
0000
0010
,
0100
0000
0100
0000
0100
0000
0100
0000
0000
2001
0000
0000
,
0000
0000
0000
0000
,
0010
0010
0010
0010
,
0100
0100
0100
0100
,
0001
0001
0001
0001
,
3001
1000
0001
0001
,
1000
0001
1000
1000
,
0001
1000
0001
0001
,
1000
0001
1000
0000
,
0001
1000
0001
0000
,
2000
0000
0000
0000
,
0000
0000
0000
0000
,
3001
0000
0000
0010
0000
0100
1000
0000
0001
0100
0000
0000
,
0010
0000
0000
1000
0000
0001
0100
0000
0000
1010
0000
0000
,
1000
0000
0000
0100
0000
0010
0001
0000
0010
0100
0000
0000
,
1000
0000
0000
0001
0000
0100
0010
0000
0000
1001
0000
0000
,
1100
0000
0000
0011
0000
0100
1000
0000
0000
0101
0000
0000
,
0010
0000
0000
1000
0000
0100
0010
0000
0000
1001
0000
0000
,
0101
0000
0000
1010
0000
0010
1000
0000
0001
0100
0000
0000
,
1001
0000
0110
0000
1001
0000
0010
1000
0001
0100
0000
0000
,
0101
0000
0000
0110
0000
0010
1000
0000
0000
1100
0000
0000
,
0011
0000
0000
1100
0000
0001
1000
0000
0010
0100
0000
0000
,
1010
0000
0000
0101
0000
0010
1000
0000
0001
0100
0000
0000
,
0110
0000
0000
1001
0000
1000
0100
0000
0010
0001
0000
0000
,
1100
0000
0000
0011
0000
0001
0010
0000
0000
1100
0000
0000
,
0101
0000
0000
0010
0000
1000
0001
0000
0100
0010
0000
0000
,
1100
0000
0000
0011
0000
0001
1000
0000
1000
0010
0000
0000
,
0110
0000
1010
0000
0101
0000
0001
0100
0010
1000
0000
0000
,
1001
0000
0000
0000
0000
0000
0000
0000
0000
0000
0000
0000
0000
0000
0000
0000
0000
0000
0000
0000
0000
0000
0000
0000
0000
0000
0000
0000
0000
0000
0000
0000
0000
0000
0000
0000
0000
0000
0000
0000
0000
0000
0000
0000
0000
0000
0000
0000
0000
0000
0000
0000
0000
0000
0000
0000
0000
0000
0000
0000
0000
0000
0000
0001
0000
0000
0000
0000
0000
0000
0000
1000
0000
0000
0000
0000
0000
0000
0000
0001
0000
0000
0000
0000
0000
0000
0000
1000
0000
0000
0000
0000
0000
0000
0000
0001
0000
0000
0000
0000
0000
0000
0000
1000
0000
0000
0000
0000
0000
0000
0000
0001
0000
0000
0000
0000
0000
0000
0000
1000
0000
0000
0000
0000
0000
0000
0000
0001
0000
0000
0000
0000
0000
0000
0000
1000
0000
0000
0000
0000
0000
0000
0000
0001
0000
0000
0000
0000
0000
0000
0000
1000
0000
0000
0000
0000
0000
0000
0000
0001
0000
0000
0000
0000
0000
0000
0000
1000
0000
0000
0000
0000
0000
0000
0000
0001
0000
0000
0000
0000
0000
0000
0000
1000
0000
0000
0000
0000
0000
0000
0000
0001
,
0000
0000
0000
0000
0000
0000
0000
1000
0000
0000
0000
0000
0000
0000
0000
0001
0000
0000
0000
0000
0000
0000
0000
1000
0000
0000
0000
0000
0000
0000
0000
0001
0000
0000
0000
0000
0000
0000
0000
1000
0000
0000
0000
0000
0000
0000
0000
0001
0000
0000
0000
0000
0000
0000
0000
1000
0000
0000
0000
0000
0000
0000
0000
0001
0000
0000
0000
0000
0000
0000
0000
1000
0000
0000
0000
0000
0000
0000
0000
0001
0000
0000
0000
0000
0000
0000
0000
1000
0000
0000
0000
0000
0000
0000
0000
0001
0000
0000
0000
0000
0000
0000
0000
1000
0000
0000
0000
0000
0000
0000
0000
0001
0000
0000
0000
0000
0000
0000
0000
1000
0000
0000
0000
0000
0000
0000
0000
0001
0000
0000
0000
0000
0000
0000
0000
1000
0000
0000
0000
0000
0000
0000
0000
0001
0000
0000
0000
0000
0000
0000
0000
1000
0000
0000
0000
0000
0000
0000
0000
0001
0000
0000
0000
0000
0000
0000
0000
1000
0000
0000
0000
0000
0000
0000
0000
0001
0000
0000
0000
0000
0000
0000
0000
1000
0000
0000
0000
0000
0000
0000
0000
0001
,
0000
0000
0000
0000
0000
0000
0000
1000
0000
0000
0000
0000
0000
0000
0000
0001
0000
0000
0000
0000
0000
0000
0000
1000
0000
0000
0000
0000
0000
0000
0000
0001
0000
0000
0000
0000
0000
0000
0000
1000
0000
0000
0000
0000
0000
0000
0000
0001
0000
0000
0000
0000
0000
0000
0000
1000
0000
0000
0000
0000
0000
0000
0000
0001
0000
0000
0000
0000
0000
0000
0000
1000
0000
0000
0000
0000
0000
0000
0000
0001
0000
0000
0000
0000
0000
0000
0000
1000
0000
0000
0000
0000
0000
0000
0000
0001
0000
0000
0000
0000
0000
0000
0000
1000
0000
0000
0000
0000
0000
0000
0000
0001
0000
0000
0000
0000
0000
0000
0000
1000
0000
0000
0000
0000
0000
0000
0000
0001
0000
0000
0000
0000
0000
0000
0000
1000
0000
0000
0000
0000
0000
0000
0000
0001
0000
0000
0000
0000
0000
0000
0000
1000
0000
0000
0000
0000
0000
0000
0000
0001
0000
0000
0000
0000
0000
0000
0000
1000
0000
0000
0000
0000
0000
0000
0000
0001
0000
0000
0000
0000
0000
0000
0000
1000
0000
0000
0000
0000
0000
0000
0000
0001
,
0000
0000
0000
0000
0000
0000
0000
1000
0000
0000
0000
0000
0000
0000
0000
0001
0000
0000
0000
0000
0000
0000
0000
1000
0000
0000
0000
0000
0000
0000
0000
0001
0000
0000
0000
0000
0000
0000
0000
1000
0000
0000
0000
0000
0000
0000
0000
0001
0000
0000
0000
0000
0000
0000
0000
1000
0000
0000
0000
0000
0000
0000
0000
0001
0000
0000
0000
0000
0000
0000
0000
1000
0000
0000
0000
0000
0000
0000
0000
0001
0000
0000
0000
0000
0000
0000
0000
1000
0000
0000
0000
0000
0000
0000
0000
0001
0000
0000
0000
0000
0000
0000
0000
1000
0000
0000
0000
0000
0000
0000
0000
0001
0000
0000
0000
0000
0000
0000
0000
1000
0000
0000
0000
0000
0000
0000
0000
0001
0000
0000
0000
0000
0000
0000
0000
1000
0000
0000
0000
0000
0000
0000
0000
0001
0000
0000
0000
0000
0000
0000
0000
1000
0000
0000
0000
0000
0000
0000
0000
0001
0000
0000
0000
0000
0000
0000
0000
1000
0000
0000
0000
0000
0000
0000
0000
0001
0000
0000
0000
0000
0000
0000
0000
1000
0000
0000
0000
0000
0000
0000
0000
0001
,
0000
0000
0000
0000
0000
0000
0000
1000
0000
0000
0000
0000
0000
0000
0000
0001
0000
0000
0000
0000
0000
0000
0000
0000
0000
0000
0000
0000
0000
0000
0000
0000
0000
0000
0000
0000
0000
0000
0000
0000
0000
0000
0000
0000
0000
0000
0000
0000
0000
0000
0000
0000
0000
0000
0000
0000
0000
0000
0000
0000
0000
0000
0000
0000
0000
0000
0000
0000
0000
0000
0000
0000
0000
0000
0000
0000
0000
0000
0000
0000
0000
0000
0000
0000
0000
0000
0000
0000
0000
0000
0000
0000
0000
0000
0000
0000
0000
0000
0000
0000
0000
0000
0000
0000
0000
0000
0000
0000
0000
0000
0000
0000
0000
0000
0000
0000
0000
0000
0000
0000
0000
0000
0000
0000
0000
0000
0000
0000
0000
0000
0000
0000
0000
0000
0000
0000
0000
0000
0000
0000
0000
0000
0000
0000
0000
0000
0000
0000
0000
0000
0000
0000
0000
0000
0000
0000
0000
0000
0000
0000
0000
0000
0000
0000
0000
0000
0000
0000
0000
0000
0000
0000
0000
0000
0000
0000
0000
0000
0000
0000
0000
0000
0000
0000
0000
0000
0000
0000
0000
0000
0000
0000
,
0000
0000
0000
0000
0000
0000
1000
0001
0100
0010
1000
0100
,
1000
0100
0010
0001
0010
0100
1000
0010
0100
0001
0010
1000
,
0010
0100
1000
0100
0001
0100
1000
0010
0001
0010
1000
0010
,
0100
0000
0000
0001
1000
0100
0010
0001
0010
0100
1000
0001
,
0010
0000
0010
0001
1000
0010
0100
0001
0010
0100
1000
0001
,
0100
0000
0100
0010
1000
0010
0100
0001
0010
0100
1000
0001
,
0100
0000
0100
0001
1000
0100
0010
0001
1000
0010
0000
0000
,
1001
0000
0000
1000
0001
0010
0100
1000
0100
0010
0001
1000
,
0100
0000
0100
1000
0001
0100
0010
1000
0100
0010
0001
1000
,
0010
0000
0010
0100
0001
0100
0010
1000
0100
0010
0001
1000
,
0010
0000
0000
1010
0000
0101
0000
0011
0000
1000
0100
0010
,
0001
0000
0000
1000
0001
0010
0100
1000
0100
0010
0001
1000
,
0100
0000
0100
1000
0001
0100
0010
1000
0100
0010
0001
1000
,
0010
0000
0010
0100
0001
0100
0010
1000
0100
0010
0001
1000
,
0010
0000
0010
1000
0001
0010
0100
1000
0001
0100
0000
0000
,
1001
0000
0000
0001
1000
0100
0010
0001
0010
0100
1000
0001
,
0010
0000
0010
0001
1000
0010
0100
0001
0010
0100
1000
0001
,
0100
0000
0100
0010
1000
0010
0100
0001
0010
0100
1000
0001
,
1000
0100
0020
0002
0000
0000
0000
0000
0000
0000
0000
0000
,
0000
0000
0033
0011
0000
0000
0110
0000
0000
1010
0000
0000
,
0110
0000
0000
0011
0000
0000
1001
0000
0010
1000
0000
0000
,
0101
1001
1100
1001
,
1010
0000
0000
0101
0000
0000
0001
0010
0100
1000
0000
0000
,
0101
1001
1010
0101
,
0011
0000
0000
1001
0000
0000
0110
0000
0010
1000
0000
0000
,
0101
1010
0101
1010
,
1100
0000
0000
0011
0000
1100
0000
0011
0000
0001
0010
0100
,
1000
1001
0000
0000
;
#NOTES:
     dance-single:
     Renard:
     Medium:
     9:
     0.630,0.740,0.917,0.053,0.565:
0000
0000
0000
0000
,
0000
0000
0000
0000
,
0000
0000
0000
0000
,
0000
0000
0000
0000
,
1100
0011
0101
1010
,
1100
0000
0000
0011
0000
1000
0001
0000
0000
0110
0000
0000
,
1001
1001
0011
0011
,
1000
0100
0010
0001
0000
0001
1000
0000
0000
0110
0000
0000
,
0100
0101
0010
1010
,
1100
0000
0000
0110
0000
0010
0001
0000
0000
1010
0000
0000
,
0101
0001
1010
0010
,
1001
0000
0110
0000
1001
0000
0100
0001
1000
0001
0000
0000
,
1000
1000
0010
0010
,
0001
0000
0000
1000
0000
0100
0001
0000
0000
0010
0000
0000
,
1000
1000
0010
0010
,
0001
0010
0100
1000
0000
1000
0001
0000
0000
1001
0000
0000
,
1010
0011
1010
0011
,
1000
0000
0000
0001
0000
0010
0100
0000
0000
1001
0000
0000
,
1000
0010
0100
0001
0010
0100
1000
0000
1000
0100
0000
0100
,
0010
0000
0010
0000
0010
0000
0010
0000
0000
1002
0000
0000
,
0000
0000
0000
0000
,
0100
0100
0100
0100
,
0010
0010
0010
0010
,
1000
1000
1000
1000
,
1003
0001
1000
1000
,
0001
1000
0001
0001
,
1000
0001
1000
1000
,
0001
1000
0001
0000
,
1000
0001
1000
0000
,
0002
0000
0000
0000
,
0000
0000
0000
0000
,
1003
0000
0000
0100
0000
0010
0001
0000
1000
0010
0000
0000
,
0100
0000
0000
0001
0000
1000
0010
0000
0000
0101
0000
0000
,
0001
0000
0000
0010
0000
0100
1000
0000
0100
0010
0000
0000
,
0001
0000
0000
1000
0000
0010
0100
0000
0000
1001
0000
0000
,
0011
0000
0000
1100
0000
0010
0001
0000
0000
1010
0000
0000
,
0100
0000
0000
0001
0000
0010
0100
0000
0000
1001
0000
0000
,
1010
0000
0000
0101
0000
0100
0001
0000
1000
0010
0000
0000
,
1001
0000
0110
0000
1001
0000
0100
0001
1000
0010
0000
0000
,
1010
0000
0000
0110
0000
0100
0001
0000
0000
0011
0000
0000
,
1100
0000
0000
0011
0000
1000
0001
0000
0100
0010
0000
0000
,
0101
0000
0000
1010
0000
0100
0001
0000
1000
0010
0000
0000
,
0110
0000
0000
1001
0000
0001
0010
0000
0100
1000
0000
0000
,
0011
0000
0000
1100
0000
1000
0100
0000
0000
0011
0000
0000
,
1010
0000
0000
0100
0000
0001
1000
0000
0010
0100
0000
0000
,
0011
0000
0000
1100
0000
1000
0001
0000
0001
0100
0000
0000
,
0110
0000
0101
0000
1010
0000
1000
0010
0100
0001
0000
0000
,
1001
0000
0000
0000
0000
0000
0000
0000
0000
0000
0000
0000
0000
0000
0000
0000
0000
0000
0000
0000
0000
2002
0000
0000
0000
0000
0000
0000
0000
0000
0000
0000
0000
0000
0000
0000
0000
0000
0000
0000
0000
0000
0000
0000
0000
0000
0000
0000
0000
0000
0000
0000
0000
0000
0000
0000
0000
0000
0000
0000
0000
0000
0000
0000
,
0000
0000
0000
0000
,
0000
0000
0000
0000
,
0000
0000
0000
0000
,
0000
0000
0000
3003
0000
0000
0000
0000
0000
0000
0000
0000
0000
0000
0000
0000
0000
0000
0000
0000
0000
0000
0000
0000
0000
0000
0000
0000
0000
0000
0000
0000
0000
0000
0000
0000
0000
0000
0000
0000
0000
0000
0000
0000
0000
0000
0000
0000
0000
0000
0000
0000
0000
0000
0000
0000
0000
0000
0000
0000
0000
0000
0000
0000
,
0000
0000
0000
0000
0000
0000
0001
1000
0010
0100
0001
0010
,
0001
0010
0100
1000
0100
0010
0001
0100
0010
1000
0100
0010
,
0001
0010
0100
1000
0010
0100
0001
1000
0100
0010
0001
0100
,
0010
0000
0000
1000
0010
1000
0010
0000
0000
0100
0010
0100
,
0010
0000
0000
0100
0001
0100
0001
0000
0000
0010
0000
0000
,
1001
0000
0000
0001
0010
0001
0010
0000
0000
0001
1000
0001
,
1000
0000
0000
0010
1000
0010
1000
0000
0000
1001
0000
0000
,
0101
0000
0000
1000
0100
1000
0100
0000
0000
0010
0001
0010
,
0001
0000
0000
1000
0010
1000
0010
0000
0000
0110
0000
0000
,
0101
0000
0000
1000
0001
1000
0001
0000
0000
0010
0001
0010
,
0001
0000
0000
1000
0100
1000
0100
0000
0000
0011
0000
0000
,
1100
0000
0000
1000
0001
1000
0001
0000
0000
0100
0001
0100
,
0001
0000
0000
1000
0010
1000
0010
0000
0000
0110
0000
0000
,
1001
0000
0000
0010
0001
0010
0001
0000
0000
1000
0100
1000
,
0100
0101
1010
1100
,
0011
0000
0000
1000
0010
1000
0010
0000
0000
0100
0001
0100
,
0001
0000
0000
0010
0001
0010
0001
0000
0000
1100
0000
0000
,
0011
0000
0000
1000
0010
1000
0010
0000
0000
0100
0001
0100
,
0001
0010
0200
2000
0000
0000
0000
0000
0000
0000
0000
0000
,
0000
0000
3300
1100
0000
0000
0110
0000
0000
0101
0000
0000
,
0110
0000
0000
1100
0000
0000
1001
0000
0100
0001
0000
0000
,
1010
1001
0011
1001
,
0101
0000
0000
1010
0000
0000
1000
0100
0010
0001
0000
0000
,
1010
1001
0101
1010
,
1100
0000
0000
1001
0000
0000
0110
0000
0100
0001
0000
0000
,
1010
0101
1010
0101
,
0011
0000
0000
1100
0000
0011
0000
1100
0000
1000
0100
0010
,
0001
1001
0000
0000
;
#NOTES:
     dance-single:
     Renard:
     Easy:
     7:
     0.397,0.670,0.036,0.018,0.196:
0000
0000
0000
0000
,
0000
0000
0000
0000
,
0000
0000
0000
0000
,
0000
0000
0000
0000
,
0001
0001
1000
1000
,
0010
0000
0000
0010
0000
0010
0100
0000
0000
0010
0000
0000
,
1000
1000
0001
0001
,
1000
0000
0000
1000
0000
0100
0010
0000
0000
0001
0000
0000
,
0010
0010
0001
0001
,
1000
0000
0000
1000
0000
1000
0010
0000
0000
0100
0000
0000
,
0001
0001
1000
1000
,
0001
0100
0010
1000
,
0010
0010
0010
0010
,
0100
0000
0000
0100
0000
0100
0001
0000
0000
1000
0000
0000
,
0010
0010
1000
1000
,
0001
0010
0100
1000
,
0001
0001
0001
0001
,
0100
0000
0000
0100
0000
0100
0010
0000
0000
0100
0000
0000
,
0010
1000
0010
0100
,
0001
1000
0100
1001
,
0000
0000
0000
0000
,
0001
0001
0001
0001
,
0001
0001
0001
0001
,
0001
0001
0001
0001
,
1000
0100
0010
0000
,
0010
0100
1000
0000
,
1000
0100
0010
0000
,
0010
0001
0100
0000
,
0100
0010
1000
0000
,
1000
0000
0000
0000
,
0000
0000
0000
0000
,
0001
1000
0001
0100
,
0010
0000
0000
1000
0000
0010
0100
0000
0000
0001
0000
0000
,
0100
0010
1000
0001
,
1000
0000
0000
0100
0000
1000
0001
0000
0000
1000
0000
0000
,
0010
0100
0001
0010
,
0001
0000
0000
1000
0000
0010
1000
0000
0000
0001
0000
0000
,
1000
0010
0100
0001
,
1000
0000
0000
0100
0000
0000
1000
0000
0001
1000
0000
0000
,
0010
0100
0001
0100
,
0010
0000
0000
1000
0000
0001
1000
0000
0000
0001
0000
0000
,
0010
0100
1000
0010
,
0100
0000
0000
0001
0000
1000
0100
0000
0000
1000
0000
0000
,
0001
0100
0010
1000
,
0001
0000
0000
0010
0000
0100
0010
0000
0000
0100
0000
0000
,
0010
0001
1000
0010
,
0100
0000
0000
0010
0000
1000
0001
0000
0000
0010
0000
0000
,
2002
0000
0000
0000
,
0000
0000
0000
0000
,
0000
0000
0000
0000
,
0000
0000
0000
0000
,
0000
3003
0000
0000
0000
0000
0000
0000
0000
0000
0000
0000
,
0000
0000
0000
0000
0000
0000
0001
1000
0001
1000
0001
1000
,
0001
1000
0001
1000
0001
1000
0001
1000
0001
1000
0001
1000
,
0001
1000
0001
1000
0001
1000
0001
1000
0001
1000
0001
1000
,
0001
1000
0010
0100
,
0001
0000
0000
0100
0000
0000
0010
0000
0010
0100
0000
0000
,
0010
1000
0100
0010
,
0001
0000
0000
0010
0000
0000
0100
0000
0100
1000
0000
0000
,
0001
0100
0010
1000
,
0010
0000
0000
0100
0000
0000
0001
0000
0001
1000
0000
0000
,
0100
0010
0001
0010
,
0100
0000
0000
1000
0000
0000
0001
0000
0001
0100
0000
0000
,
0010
1000
0010
0100
,
0001
0000
0000
1000
0000
0000
0100
0000
0100
0010
0000
0000
,
0001
0010
0100
1000
,
0010
0000
0000
0100
0000
0000
0001
0000
0001
1000
0000
0000
,
0100
0010
0001
0010
,
0100
0000
0000
1000
0000
0000
0010
0000
0010
0100
0000
0000
,
0001
1000
0100
0010
,
0001
1001
0000
0000
,
0000
0000
0000
1000
0000
0000
0001
0000
0000
0100
0000
0010
,
0100
0010
1000
0100
,
0010
0000
0000
0001
0000
0000
0010
0000
0000
0100
0000
1000
,
0001
1000
0010
0100
,
0001
0000
0000
0010
0000
0000
0001
0000
0000
1000
0000
0100
,
1000
0001
0100
0010
,
1000
0000
0000
0100
0000
0000
0010
0000
0000
0001
0000
0010
,
0100
1000
0001
0100
,
0010
1001
0000
0000
;
#NOTES:
     dance-single:
     Renard:
     Beginner:
     4:
     0.337,0.317,0.044,0.062,0.000:
0000
0000
0000
0000
,
0000
0000
0000
0000
,
0000
0000
0000
0000
,
0000
0000
0000
0000
,
1000
1000
0001
0001
,
0100
0100
0010
0000
,
0100
0100
0001
0001
,
1000
1000
0010
0000
,
1000
1000
0010
0010
,
0100
0100
0001
0000
,
0001
0001
0100
0100
,
0010
0010
1000
0000
,
0010
0010
1000
1000
,
0001
0001
0100
0000
,
0001
0001
1000
1000
,
0010
0010
0100
0000
,
0100
0100
0010
0010
,
1000
1000
0001
0000
,
1000
0001
1000
0001
,
0100
0010
0100
0000
,
0020
0000
0000
0000
,
1000
1000
1000
1000
,
1000
1000
1000
1000
,
1000
1000
1000
1000
,
1030
0010
1000
0000
,
0001
0100
0001
0000
,
1000
0100
1000
0000
,
0001
0010
0001
0000
,
1000
0010
1000
0000
,
2002
0000
0000
0000
,
0000
0000
0000
3003
,
1000
0001
1000
1000
,
0001
1000
0001
0001
,
0100
0010
0100
0100
,
0010
0100
0010
0010
,
1000
0010
1000
1000
,
0010
1000
0010
0010
,
0100
0001
0100
0100
,
0001
0100
0001
0001
,
1000
0100
1000
1000
,
0001
0010
0001
0001
,
1000
0010
1000
1000
,
0001
0100
0001
0001
,
1000
0100
1000
1000
,
0001
0010
0001
0001
,
1000
0001
1000
1000
,
0010
0100
0010
0000
,
2002
0000
0000
0000
,
0000
0000
0000
0000
,
0000
0000
0000
0000
,
0000
0000
0000
0000
,
3003
0000
0000
0000
,
0000
0000
0001
0001
,
1000
1000
0001
0001
,
1000
1000
0001
1001
,
0000
0001
0100
1000
,
0100
0001
0100
1000
,
0100
0001
0010
1000
,
0010
0001
0010
1000
,
0010
0001
1000
0010
,
0001
0010
1000
0010
,
0001
0010
1000
0100
,
0001
0100
1000
0100
,
0001
0100
0010
0100
,
0010
0001
0010
0001
,
0010
0001
1000
0001
,
1000
0010
1000
0010
,
1000
0100
1000
0100
,
1000
0001
1000
0001
,
1000
0001
0100
0010
,
1000
2002
0000
0000
,
3003
1000
1000
1000
,
1000
0001
0100
0010
,
0010
1000
1000
1000
,
1000
0001
0100
0010
,
0010
1000
1000
1000
,
1000
0001
0100
0010
,
0010
1000
0010
0100
,
0001
1000
1000
0001
,
1000
0110
0000
0000
;
