#TITLE:The Seven Gates;
#SUBTITLE:;
#ARTIST:Nonstop;
#TITLETRANSLIT:;
#SUBTITLETRANSLIT:;
#ARTISTTRANSLIT:;
#CRChallenge:;
#BANNER:Seven Gates.png;
#BACKGROUND:Seven Gates-bg.png;
#LYRICSPATH:;
#CDTITLE:;
#MUSIC:gates.ogg;
#OFFSET:0.000;
#SAMPLESTART:159.018;
#SAMPLELENGTH:12.000;
#SELECTABLE:YES;
#BPMS:0.000=190.000;
#STOPS:;
#BGCHANGES:;
#NOTES:
     dance-single:
     Nonstop:
     Challenge:
     10:
     0.625,0.785,0.410,0.000,0.098:
0000
0000
0000
0000
,
0000
0000
0000
0000
,
0000
0000
0000
0000
,
0000
0000
0000
0000
,
0000
0000
0000
0000
,
0000
0000
0000
0000
,
0000
0000
0000
0000
,
0000
0000
0000
0000
,
1001
0000
0100
0000
0000
0100
0000
0000
,
0010
0000
1000
0000
0000
0100
0000
0000
,
0011
0000
0100
1000
0000
0000
0000
0000
,
0000
0000
0000
0000
,
0001
0000
1000
0000
0000
0010
0000
0000
,
0100
0001
1000
0000
0000
0100
0000
0000
,
0010
0000
0001
0000
1000
0010
1000
0000
,
0001
0100
0001
0000
1000
0100
1000
0000
,
0001
0000
0010
0000
0000
0110
0000
0000
,
0100
1000
0010
0100
0000
0001
0100
0000
,
0010
0000
1010
0000
0000
0101
0000
0000
,
0100
0000
0010
1000
0100
0010
0001
0000
,
0010
0000
0110
0000
0000
1100
0000
0000
,
0100
1000
0001
0010
0000
0001
0010
0000
,
0100
0000
1100
0000
1000
0010
0100
0000
,
0001
0000
0100
0000
0010
1000
0001
0010
,
0100
0000
0110
0000
0000
0011
0000
0000
,
0010
0100
1000
0001
0000
0100
0010
0000
,
1000
1010
0000
0000
,
0000
0000
0000
0000
,
1000
0001
0110
0010
,
1000
0001
0101
0100
,
1100
0101
0110
1100
,
0110
0101
0011
0000
,
1010
0110
0011
0000
,
0011
0110
1010
0000
,
0010
0100
1000
0010
,
0100
1000
0100
0010
,
1000
0000
0100
0010
0000
0001
0010
0000
,
0100
0000
1000
0100
0000
0010
0001
0000
,
0010
0000
0100
1000
0000
0100
0010
0000
,
0001
0000
0010
0100
0000
1000
0100
0000
,
0010
0000
0001
0000
0000
0010
0000
0000
,
0100
1000
0001
0100
0000
0010
1000
0000
,
0010
0000
0100
0001
0100
0010
1000
0100
,
0010
0001
0010
0100
,
1000
0000
0001
0100
0000
0010
1000
0000
,
0100
0010
0001
0010
0100
1000
0001
0000
,
0010
0000
0001
1000
0010
0100
0001
0000
,
0100
0000
0010
1000
0100
0010
0001
0000
,
0010
0000
0100
1000
0000
0001
0100
0000
,
0010
1000
0100
0010
0000
0001
0010
0000
,
0100
0000
1000
0000
0001
0100
0010
1000
,
0100
0010
0001
0000
0010
0000
0100
0000
,
1000
0000
0001
0100
0000
0010
1000
0000
,
0100
0010
0001
0010
0100
1000
0001
0010
,
0001
1000
0000
0000
,
0000
0000
0000
0000
,
1001
0000
0000
0000
,
0000
0000
0000
0000
,
0100
0000
0010
0000
,
1000
0000
0000
0000
,
0100
0000
0000
0000
,
0000
0000
0000
0000
,
0010
0000
0000
0000
,
0001
0000
0000
0000
,
0100
0000
0000
0000
,
0000
0000
0000
0000
,
0010
0000
0000
0000
,
1000
0000
0000
0000
,
0001
0000
0000
0000
,
0000
0000
0000
0000
,
0000
0000
0000
0000
,
0000
0000
0000
0000
,
0010
0000
0000
0000
,
0000
0000
0000
0000
,
0001
0100
0001
0010
0001
1000
0100
1000
,
0000
0000
0001
1000
0010
1000
0100
0000
,
0000
0000
1000
0001
0100
0000
0001
0010
,
0000
0000
0001
1000
0010
1000
0100
0000
,
0000
0000
1000
0001
0100
0000
0010
1000
,
0000
0000
0010
1000
0100
0000
0010
0000
,
0000
0000
0001
0010
0100
1000
0001
0100
,
0010
0000
1000
0000
0100
0100
0010
0000
,
0001
0000
0000
0010
0100
1000
0001
0010
,
0001
0000
0000
1000
0100
0010
0001
0010
,
0100
1000
0000
0000
0001
0000
0010
0100
,
1000
0000
0000
0000
0001
0100
0010
1000
,
0100
1000
0100
1000
0001
1000
0001
1000
,
0010
1000
0010
1000
0001
1000
0001
1000
,
0001
0100
0001
0100
0001
0010
0001
0010
,
0001
0000
1000
0000
0100
0010
0001
0000
,
0010
0000
0100
1000
0001
0010
0100
1000
,
0001
0000
0100
0010
1000
0100
0010
0000
,
0001
0000
0010
0100
1000
0000
0001
0100
,
0010
0000
1000
0010
0100
0001
0010
0000
,
0100
0000
0010
0001
0100
0000
0010
1000
,
0100
0000
0010
0100
1000
0000
0010
0000
,
0100
0000
0001
0100
0010
1000
0100
0010
,
0001
0000
0010
0100
1000
0000
0001
0000
,
0100
0000
0001
0100
0001
0000
0100
0000
,
0010
0000
0100
0010
0100
0000
0010
0000
,
0100
0000
0001
0100
0001
0000
0100
0000
,
0010
0000
0100
0010
0100
0000
0010
0000
,
1000
0000
0010
1000
0010
0000
1000
0000
,
0010
0000
0100
0010
0100
0000
0010
0000
,
1000
0000
0010
1000
0010
0000
1000
0000
,
0010
0000
0100
0010
0100
0000
0010
0000
,
0100
0000
0001
0100
0001
0000
0100
0000
,
0010
0000
0100
0010
0100
0000
0010
0000
,
0100
0000
0001
0100
0001
0000
0100
0000
,
0010
0000
0100
0010
0100
0000
0010
0000
,
1000
0000
0010
1000
0010
1000
0010
1000
,
0001
0000
0100
0001
0100
0001
0100
0001
,
1000
0000
0001
1000
0001
1000
0001
1000
,
0100
0000
1000
0100
1000
0100
1000
0100
,
0010
0000
0100
0010
0100
0010
0100
0000
,
0010
0000
0001
0010
0001
0010
0001
0010
,
0001
0000
1000
0000
,
0010
0000
0000
0000
,
1001
0000
0001
0100
0010
0000
1010
0000
,
0110
0000
0010
1000
0100
0000
1100
0000
,
0110
0000
0010
0001
0100
0000
0101
0000
,
0110
0000
0010
1000
0100
0000
1100
0000
,
1001
0000
1000
0001
0100
0000
0101
0000
,
1001
0000
0001
1000
0010
0000
1010
0000
,
1100
0000
0010
0000
,
0001
0000
0001
0000
,
1000
0000
0100
1000
0010
0000
1010
0000
,
0101
0000
0100
0001
0010
0000
0110
0000
,
0011
0000
0010
0100
1000
0000
1100
0000
,
1001
0000
1000
0010
0100
0001
0010
0100
,
1000
0000
1100
0000
0001
1000
0010
1000
,
0100
0000
0011
0000
0010
0001
0100
0010
,
1000
0000
1010
0000
1000
0100
0010
0001
,
0010
0000
0001
0010
0100
0000
1100
0000
,
1000
0000
0100
0100
0010
0000
0001
0000
,
0100
0000
0010
0010
1000
0000
0010
0000
,
0100
0000
0001
0001
0010
0000
0100
0000
,
1000
0000
0010
0010
0100
0000
0001
0000
,
0010
0000
0001
0001
1000
0000
0100
0000
,
0010
0000
0001
0001
1000
0000
0010
0000
,
0100
0000
0001
0100
0010
1000
0100
0000
,
0010
0000
0001
0010
0100
0000
1000
0000
,
0101
0000
0010
1000
0100
0000
0010
0000
,
0001
0010
0100
0000
1100
0000
0000
0000
,
1010
0000
0100
0001
0010
0000
0100
0000
,
0010
0001
0100
0000
0110
0000
0000
0000
,
1010
0000
0100
0001
0010
0000
0110
0000
,
0010
0001
0100
0000
0010
0000
1000
0100
,
0010
0000
0001
0000
,
1000
0000
0000
0000
,
1011
0000
0000
0000
,
1011
0000
0000
0000
,
1011
0000
0000
0000
,
1011
0000
0000
0000
,
1011
0000
0000
0000
,
1011
0000
0000
0000
,
1011
0000
0000
0000
,
0001
0000
1000
0000
,
1001
0000
0000
0000
,
0110
0000
0000
0000
,
0010
1000
0100
0010
0001
0010
0100
1000
,
0010
0000
0100
0010
0000
0100
0010
0000
,
0100
0001
0010
0100
1000
0010
0100
0001
,
0010
0000
0100
0010
0000
0100
0010
0000
,
0100
1000
0010
0100
0001
0010
0100
1000
,
0001
0000
0100
0000
0010
0010
0010
0010
,
1000
0000
0010
0000
0100
0001
0010
0100
,
1000
0000
0100
0000
1000
0100
1000
0100
,
1000
0000
0010
0000
0100
0001
0010
0100
,
1000
0000
0001
0000
0010
0001
0010
0001
,
0010
0000
0100
0000
1000
0001
0100
0010
,
1000
0000
0100
1000
0000
0001
1000
0000
,
0010
0000
1000
0000
0100
0010
0001
0000
,
0010
0000
0001
0000
,
0011
0000
0110
0000
0100
1000
0010
0000
,
0110
0000
0101
0000
0100
0010
1000
0000
,
1100
0000
0110
0000
0010
0001
0100
0000
,
0101
0000
0110
0000
0010
1000
0100
0000
,
0110
0000
0011
0000
0010
0100
1000
0001
,
0100
0000
0110
0000
0010
1000
0100
0010
,
0001
0000
0011
0000
0010
0100
1000
0001
,
0100
0000
0101
0000
0100
0010
1000
0100
,
1000
1100
0010
0011
,
0001
0101
0100
0110
,
0010
1000
0100
0010
0001
0010
0100
1000
,
0001
0010
0100
1000
0100
0010
0001
0000
,
1000
1010
0100
0101
,
0001
0011
0010
0110
,
0100
0000
1000
0000
0001
0100
0010
0000
,
1000
0000
0001
0000
,
1000
0000
0000
0000
,
0000
0000
0000
0000
,
0001
0000
0000
0000
,
0000
0000
0000
0000
,
0101
1010
1100
0011
,
0110
0000
0000
0100
0000
0100
1000
0000
0000
0001
0000
0000
,
0101
0110
1010
1100
,
0110
0000
0000
0011
0000
0001
0010
0000
0000
0110
0000
0000
,
1100
1010
0101
0110
,
1100
0000
0000
0100
0000
0100
0010
0000
0000
0011
0000
0000
,
0110
1100
1001
0101
,
0010
0000
0010
0000
0010
0000
1000
0100
0010
0001
0000
0000
,
0010
0011
0010
0110
,
0100
0000
0000
1000
0000
0010
0100
0000
0000
0101
0000
0000
,
0100
0010
1000
0100
,
1100
0000
0000
0001
0000
0010
0100
0000
0000
1000
0000
0000
,
1001
0110
1010
0101
,
0001
0000
0000
0100
0000
0100
0010
0000
0000
1000
0000
0000
,
1000
0100
0010
0001
0010
0100
1000
0000
1000
0100
0000
0000
,
0011
0000
0011
0000
0011
0000
1100
0000
0000
0000
0000
0000
,
0001
0000
0001
0000
,
0001
0000
0001
0000
,
1000
0000
1000
0000
,
1000
0000
1000
0000
,
0001
0000
1000
0001
,
1000
0000
1000
0000
,
0001
0000
1000
0001
,
1000
0000
1000
0000
,
0001
0000
1000
0001
,
1000
0000
0000
0000
,
0000
0000
0000
0000
,
0101
0101
0110
0110
,
1010
1010
0101
0101
,
0011
0011
0110
0110
,
1100
1100
1010
1010
,
0110
0110
0101
0101
,
0011
0011
0110
0110
,
1100
0110
0011
0110
,
1100
0110
0011
0110
,
0010
0000
0000
0001
0000
0001
1000
0000
0000
0010
0000
0000
,
0100
0000
0000
0100
0000
0010
1000
0000
0000
0100
0000
0000
,
0010
0000
0000
0001
0000
0001
1000
0000
0000
0010
0000
0000
,
0100
0000
0000
0010
0000
1000
0100
0000
0000
0010
0000
0000
,
0001
0000
0000
0001
0000
0010
0100
0000
0000
1000
0000
0000
,
0010
0000
0000
0100
0000
0001
0100
0000
0000
0010
0000
0000
,
1000
1000
0100
0010
,
0001
0000
0000
0010
0000
0000
0100
1000
0100
0010
0000
0000
,
0000
0000
0000
0000
,
0000
0000
0000
0000
,
0000
0000
0000
0000
,
0000
0000
0000
0000
,
0001
0010
0100
1000
0100
0010
0001
0010
0100
1000
0100
0010
,
0001
0010
0100
1000
0100
0010
0001
0010
0100
1000
0100
0010
,
0001
0000
0000
0000
0000
0000
1000
0001
1000
0001
1000
0001
,
1000
0000
1000
0010
0000
0010
0100
0000
0100
0001
0000
0001
,
1000
0000
1000
0100
0000
0100
0010
0000
0010
0001
0000
0001
,
1000
0000
1000
0010
0000
0010
0100
0000
0100
0001
0000
0001
,
0010
0000
0010
0100
0000
0100
1000
0000
0000
1100
0000
0000
,
1000
0000
1000
0100
0000
0100
0010
0000
0010
0001
0000
0001
,
0100
0000
0100
0010
0000
0010
1000
0000
1000
0100
0000
0100
,
0010
0000
0010
0001
0000
0001
1000
0000
1000
0010
0000
0010
,
0100
0000
0100
0001
0000
0001
1000
0000
0000
1100
0000
0000
,
1000
0000
1000
0100
0000
0100
0010
0000
0010
0001
0000
0001
,
0100
0000
0100
0010
0000
0010
1000
0000
1000
0001
0000
0001
,
0010
0000
0010
0100
0000
0100
1000
0000
1000
0010
0000
0010
,
0100
0000
0100
0001
0000
0001
1000
0000
0000
1100
0000
0000
,
1000
0000
1000
0001
0000
0001
0010
0000
0010
0100
0000
0100
,
1000
0000
1000
0010
0000
0010
0100
0000
0100
0001
0000
0001
,
0100
0000
0100
0010
0000
0010
1000
0000
1000
0100
0000
0100
,
0010
0000
0000
0000
,
0010
0000
0000
0001
0000
0000
0010
0000
0100
1000
0000
0000
,
0001
0000
0000
0010
0000
0100
1000
0000
0000
1001
0000
0000
,
1000
0000
0000
0010
0000
0100
0001
0000
0100
0010
0000
0000
,
1000
0000
0000
0100
0000
0010
0001
0000
0000
0011
0000
0000
,
0010
0000
0000
0100
0000
1000
0001
0000
0100
0010
0000
0000
,
1000
0000
0000
0100
0000
0010
0001
0000
0000
0011
0000
0000
,
0010
0000
0000
0100
0000
1000
0001
0000
0100
0010
0000
0000
,
1000
0000
0000
0100
0000
0000
0010
0001
0010
0100
0000
0000
,
1000
0000
0000
0000
,
0000
0000
0000
0000
,
0000
0000
0000
0000
,
0000
0000
0000
0000
,
1001
0000
0101
0000
0000
0110
0000
0000
,
0010
1000
0100
0000
0000
0011
0000
0000
,
0010
0000
0100
0000
1000
0001
0100
0010
,
1000
0000
0010
0100
0001
0010
0100
1000
,
0001
0000
0101
0000
0000
0110
0000
0010
,
1000
0000
1100
0000
0000
0011
0000
0100
,
1000
0001
0100
0010
1000
0100
0000
0000
,
0011
0000
0000
1100
0000
0000
1001
0000
,
0001
0000
0110
0000
0000
1001
0000
0000
,
1000
0000
0110
0000
0000
1001
0000
0000
,
1000
0000
0010
0100
0001
0010
0000
0100
,
1000
0001
0100
0010
,
1000
0000
0110
0000
0000
1001
0000
0000
,
1000
0000
0100
0000
0000
0010
0000
0000
,
0001
0010
0100
1000
,
0001
0100
0010
1000
0100
0000
1100
0000
,
1000
0000
0100
0000
0010
0001
0010
0100
,
1000
0000
0001
0010
0000
0100
1000
0001
,
0100
0000
0010
0000
1000
0010
0100
0001
,
0100
0000
0000
0000
0010
0000
0000
0010
0000
0000
0010
0000
0000
0010
0000
0000
,
0100
0000
0101
0000
0000
1010
0000
0000
,
1000
0100
0010
0001
0000
0010
0000
0000
,
0100
0000
1000
0000
0001
0100
0010
1000
,
0100
0000
1100
0000
0000
1001
0000
0000
,
1000
0000
1010
0000
0100
0001
0000
1000
,
0100
0000
0010
0001
0010
0000
0000
0000
,
0100
0000
1000
0001
0100
0010
0000
1000
,
0010
0000
0100
0001
0100
0000
0010
0000
,
1000
0000
0100
0010
0001
0010
0000
0100
,
1000
0000
0001
0100
0010
0000
1000
0000
,
0010
0000
0000
0000
,
0000
0000
1001
0010
,
1001
0000
0110
0000
0010
1000
0100
0010
,
0001
0010
0100
1000
0001
0100
0010
1000
,
0001
0000
1001
0000
1000
0100
0010
0001
,
0010
0100
1000
0001
0100
0010
1000
0100
,
0010
0000
0110
0000
0011
0000
0010
0100
,
1000
0100
0010
0001
0100
0010
1000
0100
,
0010
0000
0001
0000
0010
0000
0100
0000
1000
0000
0100
0000
,
0010
0000
0001
0000
0010
0000
0100
0000
0100
0000
0100
0000
,
1000
0100
1100
1000
,
0100
0010
0001
0010
0100
1000
0001
0100
,
0010
0000
0110
0000
0100
0001
0010
0100
,
1000
1100
1000
0000
,
0100
0000
1100
0000
0010
0001
0100
0010
,
1000
0000
1010
0000
1000
0010
0100
0001
,
0010
0000
0011
0000
0010
0100
1000
0001
,
0100
0000
0000
0001
,
0100
0000
0010
0000
1000
0100
0010
0001
,
0010
0000
0100
1000
0000
0001
0010
0000
,
0100
1000
0001
0100
0010
1000
0000
0000
,
0100
0010
0001
0010
0100
0000
0000
0000
,
1000
0000
0100
0010
0001
0010
0100
1000
,
0001
0000
0100
0010
0000
1000
0010
0000
,
0100
0000
0001
0100
0010
1000
0100
0010
,
0001
0010
0100
1000
,
1001
0000
0000
0000
0000
0110
0000
0000
,
0010
1000
0100
0010
0000
0010
0001
0000
,
0010
0000
0110
0000
0000
0011
0000
0000
,
0010
0000
0110
0000
0000
0011
0000
0000
,
1001
0000
0000
0000
0000
0010
0000
0000
,
1000
0010
0100
0001
0000
0010
0100
0000
,
1100
0000
0011
0000
0000
1001
0000
0000
,
1001
0000
0110
0000
0000
1001
0000
0000
,
1000
0000
0100
1000
0000
0001
1000
0000
,
0010
0000
1000
0001
0000
0100
0001
0000
,
1000
0000
0001
0010
0000
0001
1000
0000
,
0001
0000
0100
0010
0000
1000
0001
0000
,
1000
0000
0100
1000
0000
0001
1000
0000
,
0010
0000
1000
0001
0000
1000
0100
0000
,
1000
0000
0001
0100
0000
0001
0010
0000
,
0001
0000
1000
0000
0001
0100
0010
0000
,
1000
0100
0010
0001
0010
0100
1000
0001
,
0010
0000
0010
0001
1000
0100
0010
0000
,
0100
1000
0001
0100
0010
1000
0100
0010
,
0100
0000
1000
0010
0100
0001
0100
0010
,
1000
0000
0010
0100
0001
0010
0100
1000
,
0001
0000
1000
0100
0010
0100
1000
0001
,
0100
0000
0010
1000
0001
0100
0010
1000
,
0100
0000
0100
1000
0001
0010
0001
1000
,
0010
0000
0010
0100
0001
0000
0001
0010
,
0100
0000
0100
1000
0010
0100
0001
0010
,
0100
0000
0100
1000
0010
0000
0010
0100
,
0001
0000
0001
0010
0100
1000
0001
0100
,
0010
0000
0010
0100
0001
0000
0001
0010
,
0100
0000
0100
1000
0010
0100
0010
1000
,
0100
0000
0100
0010
0001
0000
0001
0100
,
0010
0000
0000
0000
1000
0010
1000
0000
,
0010
0100
0001
0010
0100
1000
0001
0100
,
0101
0000
0000
0000
0100
0010
1000
0100
,
0010
0001
0010
0100
1000
0001
0100
0010
,
0110
0000
0000
0000
0100
0010
1000
0100
,
0010
0001
0010
0100
1000
0001
0100
0010
,
0110
0000
0000
0000
0010
1000
0100
0010
,
0001
0010
0100
1000
0001
0100
0010
1000
,
1010
0000
0000
0000
,
1000
0000
0010
1000
0001
1000
0100
0010
,
0011
0000
0000
0000
0010
0100
1000
0001
,
0100
0000
0010
1000
0100
0010
0001
0010
,
0011
0000
0000
0000
0001
0010
0100
1000
,
0001
0100
0010
1000
0100
0000
0010
0100
,
0110
0000
0000
0000
0100
1000
0010
0100
,
0001
0010
0100
1000
0001
0000
0100
0000
,
1001
0000
0000
0000
,
1000
0000
0001
0100
0000
0001
0010
0000
,
0001
1000
0000
0100
0010
0000
0001
0010
,
0100
0000
1000
0100
0000
1000
0010
0000
,
1000
0001
0000
0100
0010
0000
1000
0100
,
0010
0000
0001
1000
0000
0001
0100
0000
,
0010
1000
0000
0100
0010
0000
0001
0010
,
0100
0000
1000
0001
0000
1000
0010
0000
,
1000
0100
0000
0010
0001
0000
0000
0000
,
0010
0000
0100
1000
0000
0001
0100
0000
,
0010
1000
0000
0100
0010
0000
0001
0010
,
0100
0000
1000
0001
0000
0100
0010
0000
,
1000
0100
0000
1000
0001
0000
0100
0010
,
1000
0000
0100
0010
0000
0001
0010
0000
,
0100
1000
0000
0001
0100
0000
0010
0100
,
0001
0000
1000
0100
0000
0010
0100
0000
,
1000
0000
0000
0000
0000
0000
1001
0000
0000
0000
0000
0000
1000
0001
1000
0000
,
0001
0100
0001
0100
0010
0100
0010
0100
,
1000
0100
1000
0100
0010
0100
0001
0100
,
0001
0010
0001
0010
0100
0010
0100
0010
,
1000
0010
1000
0010
0100
0010
0001
0010
,
0001
1000
0001
1000
0010
1000
0010
1000
,
0100
1000
0100
1000
0001
1000
0001
1000
,
0001
0100
0001
0010
0001
1000
0100
0000
,
0110
0000
0000
0000
,
0010
0001
0100
1000
0100
0001
0010
0100
,
1000
0010
0100
1000
0100
0010
0100
0001
,
0010
0100
0001
0100
1000
0010
0100
0000
,
0010
0010
1000
1000
,
0010
1000
0100
0010
0100
1000
0010
0100
,
0001
0010
1000
0010
0001
0100
0010
1000
,
0100
0001
0100
1000
0010
0100
0001
0010
,
0001
0000
1000
0000
,
0001
0100
0010
1000
,
0100
0010
0001
0010
,
0100
1000
0001
0100
,
0110
1001
0110
1001
,
0010
1000
0100
0000
0010
0001
0100
0000
,
0010
1000
0100
0000
0010
0001
0100
0000
,
0010
1000
0100
0010
0001
0010
0100
1000
,
0001
0000
0000
0110
0000
0000
1001
0000
,
0001
0100
0001
0100
0010
0100
0010
0100
,
0010
1000
0100
0010
,
0001
0000
0010
0100
1000
0000
0001
0000
,
0110
0110
1001
1001
,
1000
0100
1000
0100
0010
0100
0010
0100
,
0010
0001
0010
0100
,
1000
0001
0100
0010
,
1001
1001
0110
1001
,
0001
1000
0100
0010
0001
0010
0100
1000
,
0001
0100
0010
1000
0100
0001
0100
1000
,
0010
0100
1000
0100
0001
0010
0100
0001
,
0100
1000
0010
0100
1000
0100
0010
0100
,
0001
0010
0100
0001
0100
1000
0010
0100
,
1000
0100
0010
1000
0100
0001
0100
1000
,
0010
0100
1000
0100
0001
0010
0100
0001
,
0100
0010
0100
1000
0010
0100
1000
0100
,
0010
1000
0100
0001
0100
0010
0001
0010
,
1000
0010
0100
0001
0100
1000
0010
0100
,
1000
0100
0010
1000
0100
0001
0100
0010
,
0001
0010
0100
0001
0100
1000
0010
0100
,
1000
0100
0010
1000
0100
0010
0001
0010
,
1000
0010
0100
0001
0100
1000
0010
0100
,
1000
0100
0010
0100
0001
0010
0100
0001
,
0100
1000
0010
0100
1000
0100
0010
1000
,
0100
0100
0010
0001
0010
0100
1000
0010
,
0100
0100
0010
1000
0100
0010
0001
0100
,
0010
0010
1000
0100
1000
0010
0100
0001
,
0010
0010
0001
0100
0010
1000
0100
0010
,
0001
0001
0010
0100
1000
0001
0100
0010
,
1000
1000
0010
0100
0001
0010
0100
1000
,
0001
0001
1000
0010
0100
0001
0010
0100
,
1000
1000
0001
0100
0010
1000
0100
0000
,
0010
0001
0010
1000
0010
0001
0100
1000
,
0100
0001
0010
0100
1000
0010
0100
1000
,
0100
0001
0010
0100
0001
0100
1000
0010
,
0100
1000
0100
0010
0100
0001
0010
0100
,
0001
0100
1000
0010
0100
1000
0100
0001
,
0010
0100
1000
0001
0100
1000
0100
0001
,
0010
0100
0001
0100
1000
0010
0100
1000
,
0100
0010
1000
0100
0010
0001
0010
0000
,
0100
0100
1000
1000
0001
0001
0100
0100
,
0010
1000
0100
0010
0001
0100
0010
1000
,
0100
0100
0010
0010
0001
0001
1000
1000
,
0010
0100
0001
0010
0100
1000
0001
0100
,
0010
0010
1000
1000
0100
0100
0010
0010
,
0001
0010
0100
1000
0001
0100
0010
1000
,
0100
0100
0010
0010
0001
0001
0010
0010
,
0100
1000
0010
0100
0001
0100
0010
0000
,
1000
0100
0001
0100
1000
0010
0001
0010
,
1000
0100
0001
0100
1000
0010
0001
0010
,
1000
0100
0001
0100
1000
0010
0001
0010
,
1000
0100
0001
0100
1000
0010
0001
0010
,
1000
1000
0100
0100
0001
0001
0100
0100
,
1000
1000
0010
0010
0001
0001
0010
0010
,
1000
0100
0010
0011
0000
0110
0000
1100
,
0000
1001
0000
0110
0000
1001
0000
0110
,
1001
0000
0001
0100
1000
0100
0001
0010
,
0100
0000
0100
0010
0100
1000
0010
0100
,
1000
0000
1000
0100
0010
1000
0100
0001
,
0100
0000
0100
0010
0001
0010
0100
1000
,
0010
0000
0010
0100
0001
0010
0100
0001
,
0100
0000
0100
1000
0010
0100
0001
0010
,
0100
0000
0100
1000
0010
0100
0001
0010
,
0100
0010
0100
0010
0100
1000
0100
1000
,
0001
0000
0100
1000
0100
0001
0010
0100
,
0001
0000
0100
1000
0010
0100
1000
0100
,
0010
0000
0100
0001
0010
0100
0001
0100
,
1000
0000
0010
0100
0001
0010
0100
1000
,
0010
0000
0110
0000
0100
0001
0010
0100
,
1000
0000
1001
0000
1000
0010
0100
0001
,
0010
0100
1000
0101
0000
1010
0000
1100
,
0000
0011
0000
0110
0000
1100
0000
1001
,
0000
0110
0000
1100
0000
0011
0000
1100
,
0000
0011
0000
0101
0000
1010
0000
1001
,
0110
0000
0000
0000
;
