#TITLE:The Question is What is the Question;
#SUBTITLE:;
#ARTIST:Scooter;
#TITLETRANSLIT:;
#SUBTITLETRANSLIT:;
#ARTISTTRANSLIT:;
#CRChallenge:;
#BANNER:question.png;
#BACKGROUND:question-bg.png;
#LYRICSPATH:;
#CDTITLE:;
#MUSIC:question.ogg;
#OFFSET:0.000;
#SAMPLESTART:37.123;
#SAMPLELENGTH:12.000;
#SELECTABLE:YES;
#BPMS:0.000=142.000,52.000=71.000,54.000=142.000,118.000=71.000,120.000=142.000;
#STOPS:;
#BGCHANGES:;
#NOTES:
     dance-single:
     Renard:
     Medium:
     9:
     0.564,0.608,0.365,0.217,0.276:
0000
0000
0000
0000
,
0000
0000
0000
0000
,
0000
0000
0000
0000
,
0000
0000
0000
0000
,
0000
0000
0000
0000
,
1001
0000
0000
0000
0100
0000
0001
1000
0100
0000
1000
0000
0001
0000
0100
0000
,
1001
0000
0000
0000
0001
0000
0100
0001
1000
0000
0100
0000
1000
0000
0001
0000
,
1001
0000
0000
0000
0001
0000
0100
0001
1000
0000
0100
0000
1000
0000
0001
0000
,
1001
0000
0000
0000
0100
0000
0001
1000
0100
0000
1000
0001
0100
0000
0001
1000
,
0010
0000
0000
0000
1000
0000
0001
0010
0001
0000
1000
0000
0010
0000
1000
0000
,
1001
0000
0000
0000
1000
0000
0001
0010
0001
0000
1000
0000
0010
0000
1000
0000
,
1001
0000
0000
0000
1000
0000
0010
1000
0001
0000
0010
0000
0001
0000
1000
0000
,
1001
0000
0000
0000
1000
0000
0010
1000
0001
0000
0010
0000
0001
0000
1000
0000
,
2002
0000
0000
0000
0000
0000
0000
3003
1002
0000
0000
0000
0000
0000
0100
0000
,
0100
0000
0000
0000
0000
0000
1000
0000
1003
0000
0000
1000
0001
0000
0000
0001
,
0100
0000
0000
0100
0010
0000
0010
0000
2000
0000
0000
0000
0000
0000
0100
0000
,
3200
0000
0000
0000
0000
0000
1000
0000
1300
0000
0000
1000
0001
0000
0000
0001
,
0100
0000
0000
0100
0010
0000
0010
0000
2000
0000
0000
0000
0000
0000
0001
0000
,
3002
0000
0000
0000
0000
0000
0010
0000
0013
0000
0000
0010
0001
0000
0000
0001
,
1000
0000
0000
1000
0010
0000
0010
0000
0200
0000
0000
0000
0000
0000
0301
0000
,
0002
0000
0000
1000
2003
0000
0010
0000
,
0001
0000
0000
0000
3100
0000
0000
0000
1100
0000
0000
0100
1000
0000
0010
0000
,
0100
0000
0010
0000
1000
0000
0100
0000
0010
0000
0000
0010
0100
0000
1000
0000
,
0010
0000
0100
0000
0010
0000
1000
0000
0100
0000
0000
0100
0010
0000
0100
0000
,
1000
0000
0010
0000
0100
0000
0010
0000
1000
0000
0000
1000
0100
0000
0010
0000
,
0100
0000
1000
0000
0010
0000
0100
0000
0001
0000
0000
0001
0010
0000
0100
0000
,
0010
0000
0001
0000
0100
0000
0010
0000
0100
0000
0000
0100
0001
0000
0010
0000
,
0100
0000
0010
0000
0001
0000
0100
0000
0010
0000
0000
0010
0100
0000
0001
0000
,
0010
0000
0100
0000
0010
0000
0001
0000
0100
0000
0000
0100
0010
0000
0100
0000
,
0001
0000
0010
0000
0100
0000
1000
0000
2002
0000
0000
0000
0000
0000
0000
3003
,
1001
0000
0000
0000
0110
0000
0000
0010
1000
0000
0101
0000
0010
0000
1001
0000
,
1010
0000
0000
0000
0101
0000
0000
0010
1000
0000
0100
0000
0010
0000
0001
0000
,
1001
0000
0000
0000
0110
0000
0000
0100
0001
0000
1010
0000
0100
0000
1001
0000
,
0101
0000
0000
0000
1010
0000
0000
0100
0001
0000
0010
0000
0100
0000
1000
0000
,
1001
0000
0000
0000
0110
0000
0000
0010
1000
0000
0101
0000
0010
0000
1001
0000
,
1010
0000
0000
0000
0101
0000
0000
0010
1000
0000
0100
0000
0010
0000
0001
0000
,
1001
0000
0000
0000
0110
0000
0000
0100
0001
0000
1010
0000
0100
0000
1001
0000
,
0101
0000
0000
0000
1010
0000
0000
0100
0001
0000
0010
0000
0100
0000
1000
0000
,
2001
0000
0000
0010
0010
0000
0000
0001
,
3001
0000
0000
0001
1000
0000
0000
1000
0010
0000
0000
0010
0100
0000
0100
0000
,
0002
0000
0000
0010
0023
0000
0000
0001
,
0031
0000
0000
0001
1000
0000
0000
1000
0010
0000
0000
0010
0100
0000
0100
0000
,
0002
0000
0000
1000
2003
0000
0000
0100
,
3100
0000
0000
0100
1000
0000
0000
1000
0001
0000
0000
0001
0100
0000
0100
0000
,
0020
0000
0000
1030
2000
0000
0000
0001
,
3002
0100
1000
0013
,
0001
0000
0000
0001
0100
0000
1000
0000
0100
0000
0000
0100
0001
0000
1000
0000
,
0100
0000
0000
0100
0001
0000
0100
0000
1000
0000
0000
1000
0001
0000
0100
0000
,
1000
0000
0000
1000
0100
0000
0001
0000
1000
0000
0000
1000
0100
0000
0001
0000
,
0100
1000
0001
0100
1000
0100
0001
0010
,
1000
0000
0000
1000
0010
0000
0001
0000
1000
0000
0000
1000
0010
0000
0001
0000
,
0010
0000
0000
0010
1000
0000
0001
0000
0010
0000
0000
0010
1000
0000
0010
0000
,
0001
0000
0000
0001
1000
0000
0010
0000
0001
0000
0000
0001
0010
0000
1000
0000
,
0001
0010
1000
0010
0001
0010
0100
1000
,
2200
0000
0000
0000
,
0000
0000
0000
0000
,
3300
0000
0000
0000
;
#NOTES:
     dance-single:
     Renard:
     Hard:
     9:
     0.610,0.636,0.414,0.020,0.355:
0000
0000
0000
0000
,
0000
0000
0000
0000
,
0000
0000
0000
0000
,
0000
0000
0000
0000
,
0000
0000
0000
0000
,
1000
0000
0001
0100
0001
0000
1000
0001
1000
0000
0100
0000
0010
0000
0001
0000
,
1000
0000
0010
1000
0010
0000
0100
0010
0100
0000
0010
0000
1000
0000
0100
0000
,
0010
0000
0001
1000
0001
0000
0100
0001
0100
0000
0001
0000
1000
0000
0100
0000
,
0010
0000
0001
1000
0001
0000
0100
0001
0100
0000
0010
0000
1000
0000
0100
0000
,
0010
0000
0100
0010
0100
0000
1000
0100
1000
0000
0001
0000
0100
0000
0010
0000
,
1000
0000
0010
0100
0010
0000
0100
0001
0100
0000
0001
0000
0010
0000
0100
0000
,
1000
0000
0001
1000
0001
0000
0100
0001
0100
0000
0001
0000
1000
0000
0100
0000
,
0010
0000
0001
1000
0001
0000
1000
0100
1000
0000
0001
0000
0010
0000
0100
0000
,
1001
0000
0000
0000
1000
0000
1000
0001
,
0100
0000
0000
0000
0100
0000
0010
0000
1000
0000
0000
1000
0010
0000
0000
0010
,
0001
0000
0000
0001
0010
0000
1000
0000
0100
0000
0000
0000
0100
0000
0001
0000
,
0100
0000
0000
0000
0100
0000
0010
0000
0001
0000
0000
0001
0010
0000
0000
0010
,
1000
0000
0000
1000
0010
0000
0001
0000
0010
0000
0000
0000
0010
0000
0100
0000
,
1000
0000
0000
0000
1000
0000
0001
0000
0100
0000
0000
0100
0010
0000
0000
0010
,
1000
0000
0000
1000
0010
0000
0001
0000
0010
0000
0000
0000
0010
0000
0100
0000
,
0001
0000
0001
1000
0100
0000
1100
0000
,
1010
0000
0000
0000
1100
0000
0000
0000
1001
0000
0000
0001
0100
0000
0010
0000
,
1000
0000
0100
0000
0010
0000
0001
0010
0001
0000
0010
0100
0010
0000
0100
1000
,
0100
0000
1000
0001
1000
0000
0001
0000
0100
0000
0000
0000
0100
0000
0010
0000
,
1000
0000
0000
0000
1000
0000
0010
0000
0100
0000
0100
0001
0100
0000
0100
0010
,
0100
0000
0100
1000
0100
0000
0110
0000
0110
0000
0000
0000
0100
0000
0010
0000
,
1010
0000
0000
0000
1000
0000
0100
0000
1100
0000
0100
1000
0100
0000
1000
0001
,
1000
0000
1000
0010
1000
0000
0100
0000
1000
0000
0001
0010
0001
0000
1000
0000
,
0001
0100
0010
1000
0001
0000
0101
0000
,
1001
0111
1011
0000
,
1000
0000
0001
0100
0001
0000
1000
0100
1000
0000
0001
0000
0100
0000
0010
0000
,
1000
0000
0100
1000
0100
0000
1000
0001
1000
0000
0001
0000
0100
0000
0001
0000
,
0010
0000
0100
0010
0100
0000
1000
0100
1000
0000
0001
0000
0100
0000
0010
0000
,
1000
0000
0001
1000
0001
0000
0010
0001
0010
0000
0001
0000
1000
0000
0010
0000
,
0100
0000
0001
0000
1000
0000
0100
0000
1000
0001
1000
0000
0001
0100
0001
0000
,
1000
0100
1000
0000
0001
0100
0001
0000
1000
0000
0100
0000
1000
0000
0001
0000
,
0010
0000
0100
0010
0100
0000
1000
0100
1000
0000
0001
0000
0100
0000
0010
0000
,
1000
0000
0001
0010
0001
0000
0010
0100
0010
0000
0100
1000
0100
0000
1000
0000
,
1001
0000
1000
0010
0110
0000
0010
0100
,
0001
0000
0000
0001
0100
0000
0000
0100
1000
0000
0000
1000
0100
0000
0001
0000
,
0011
0000
0001
0010
1010
0000
1000
0010
,
0110
0000
0000
0100
1000
0000
0000
1000
0001
0000
0000
0001
0100
0000
0010
0000
,
1000
0000
0010
0100
0001
0000
0001
0100
,
0010
0000
0000
0010
1000
0000
0000
1000
0100
0000
0000
0100
0010
0000
0001
0000
,
0011
0000
0000
0110
1100
0000
0000
1100
,
0110
1001
0110
1001
,
0111
0000
0001
0100
0101
0000
0100
0010
,
0110
0000
0000
0010
1000
0000
0000
1000
0100
0000
0000
0100
0010
0000
0001
0000
,
0011
0000
0010
0100
0110
0000
0100
1000
,
1100
0000
0000
0100
1000
0000
0000
1000
0010
0000
0000
0010
0100
0000
0001
0000
,
0101
0000
0100
0010
0110
0000
0010
1000
,
1010
0000
0000
0010
1000
0000
0000
1000
0100
0000
0000
0100
0010
0000
0001
0000
,
0011
0000
0010
0100
0110
0000
0100
1000
,
1100
1001
0101
1001
,
2012
0000
0000
0000
,
0000
0000
0000
0000
,
3003
0000
0000
0000
;
#NOTES:
     dance-double:
     :
     Beginner:
     1:
     0.361,0.373,0.661,0.000,0.000:
00000000
00000000
00000000
00000000
,
00000000
00000000
00000000
00000000
,
00000000
00000000
00000000
00000000
,
00000000
00000000
00000000
00000000
,
00000000
00000000
00000000
00000000
,
01000000
00011000
00000100
00011000
,
00100000
00011000
00000010
00011000
,
01000000
00011000
00000100
00011000
,
00100000
00011000
00000010
00011000
,
01000000
00011000
00000100
00011000
,
00100000
00011000
00000010
00011000
,
01000000
00011000
00000100
00011000
,
00100000
00011000
00000010
00011000
,
00011000
00000000
00001000
00001000
,
00010000
00010000
00001000
00001000
,
00010000
00010000
00000100
00000100
,
00010000
00010000
00001000
00001000
,
01000000
01000000
00001000
00001000
,
00010000
00010000
00001000
00001000
,
00010000
00010000
00000100
00000100
,
00010000
00010000
00001000
00000000
,
00000000
00000000
00011000
00001000
,
00011000
00001000
00011000
00010000
,
00011000
00010000
00011000
00001000
,
00011000
00001000
00011000
00010000
,
00011000
00010000
00011000
00001000
,
00011000
00001000
00011000
00010000
,
00011000
00010000
00011000
00001000
,
00011000
00001000
00011000
00010000
,
00011000
00010000
00011000
00000000
,
01000000
00011000
00000100
00011000
,
00100000
00011000
00000010
00011000
,
01000000
00011000
00000100
00011000
,
00100000
00011000
00000010
00011000
,
01000000
00011000
00000100
00011000
,
00100000
00011000
00000010
00011000
,
01000000
00011000
00000100
00011000
,
00100000
00011000
00000010
00011000
,
00001000
00001000
00010000
00010000
,
00001000
00001000
00010000
00010000
,
00000100
00000100
00010000
00010000
,
00001000
00001000
01000000
01000000
,
00001000
00001000
00010000
00010000
,
00001000
00001000
00010000
00010000
,
00000100
00000100
00010000
00010000
,
00001000
00000000
00000000
00000000
,
00011000
00001000
00011000
00001000
,
00011000
00010000
00011000
00010000
,
00011000
00001000
00011000
00001000
,
00011000
00010000
00011000
00010000
,
00011000
00001000
00011000
00001000
,
00011000
00010000
00011000
00010000
,
00011000
00001000
00011000
00001000
,
00011000
00010000
00011000
00010000
,
00011000
00000000
00000000
00000000
;
#NOTES:
     dance-single:
     Renard:
     Easy:
     5:
     0.386,0.387,0.563,0.020,0.000:
0000
0000
0000
0000
,
0000
0000
0000
0000
,
0000
0000
0000
0000
,
0000
0000
0000
0000
,
0000
0000
0000
0001
0000
1000
0001
1000
,
0010
0000
0010
0000
0100
0000
0100
0001
,
1000
0000
1000
0000
0001
0000
0010
0100
,
1000
0000
1000
0001
0100
0000
0100
0000
,
0001
0000
0000
0001
0000
1000
0100
0010
,
0001
0000
0001
0000
1000
0010
1000
0010
,
1000
0000
1000
0000
0000
0000
0001
0100
,
0010
0000
0010
0000
1000
0000
1000
0100
,
0010
0000
0010
0001
1000
0000
0010
0000
,
0110
0000
0000
0000
0010
0000
0000
0100
,
0001
0000
0000
0001
1000
0000
1100
0000
,
0110
0000
0011
0000
1000
0000
0000
1000
,
0001
0000
0000
0001
0100
0000
0101
0000
,
0110
0000
1010
0000
1000
0000
0000
1000
,
0100
0000
0000
0100
0010
0000
0110
0000
,
0011
0000
1100
0000
1000
0000
0000
1000
,
0010
0000
0000
0010
0100
0000
0101
0000
,
0110
0000
1010
0000
1001
0000
0000
0001
,
1000
0000
0000
1000
0100
0000
1100
0000
,
0110
0000
0011
0000
0001
0000
0000
0001
,
0010
0000
0000
0001
0100
0000
0101
0000
,
0110
0000
1010
0010
1000
0000
0000
0100
,
1000
0000
0000
0100
1000
0000
1100
0000
,
0110
0000
0011
0000
1001
0000
0000
0001
,
0100
0000
0000
0010
0100
0000
0010
0000
,
1000
0100
1001
0000
,
0001
0000
0001
0000
1000
0000
0100
1000
,
0100
0000
1000
0000
0001
0100
0001
0000
,
1000
1000
0001
0001
,
0100
0000
0010
0000
1000
0010
1000
0001
,
0100
0000
0001
0000
1000
0100
1000
0100
,
0010
0000
0010
0000
0001
0000
1000
0001
,
1000
0000
0001
0000
0100
0001
0100
0010
,
1000
0010
0100
0001
,
1001
0000
0000
0001
0100
0000
0000
0001
,
0100
0101
0110
1010
,
1010
0000
0000
1000
0100
0000
0000
0100
,
1000
1100
0110
0011
,
0101
0000
0000
0001
0100
0000
0000
0100
,
0010
0101
0110
1010
,
1100
0000
0110
0000
,
0011
0001
1000
0001
,
0101
0000
0000
0001
0100
0000
0000
0001
,
0100
0101
0110
1010
,
1010
0000
0000
0010
1000
0000
0000
1000
,
0100
1100
0110
0011
,
0101
0000
0000
0001
0100
0000
0000
0001
,
0100
0101
0110
1010
,
1100
0000
0000
0100
1000
0000
0000
0100
,
0010
0011
0110
1100
,
2002
0000
0000
0000
,
0000
0000
0000
0000
,
3003
0000
0000
0000
;
#NOTES:
     dance-single:
     Renard:
     Beginner:
     2:
     0.209,0.221,0.020,0.020,0.000:
0000
0000
0000
0000
,
0000
0000
0000
0000
,
0000
0000
0000
0000
,
0000
0000
0000
0000
,
0000
0000
0000
0000
,
1000
0000
1000
0000
,
0001
0000
0001
0000
,
0100
0010
0100
0010
,
1000
0000
1000
0000
,
0001
0000
0010
0010
,
0001
0000
0001
0000
,
1000
0100
1000
0000
,
0001
0100
0010
0000
,
1001
0000
1000
0000
,
1000
0000
0001
0100
,
0010
1000
0100
0000
,
0100
0000
1000
0100
,
0010
0001
0100
0000
,
0100
0000
0001
0100
,
0010
1000
0100
0000
,
0100
0000
1000
0100
,
0010
0001
0100
0000
,
0100
0000
0001
0100
,
0010
1000
0100
0000
,
0100
0000
1000
0100
,
0010
0001
0100
0000
,
0100
0000
0001
0100
,
0010
1000
0100
0000
,
0100
0000
1000
0100
,
0010
0001
1000
0000
,
0001
0000
0001
0000
,
1000
0010
1000
0001
,
1000
0000
1000
0000
,
0001
0100
0001
1000
,
0001
0000
0001
1000
,
0100
0000
0100
0000
,
0010
0010
0001
0001
,
1000
0000
0010
0100
,
0001
0000
0001
0000
,
0001
0100
0010
1000
,
0100
0000
0100
0000
,
1000
0100
0010
0001
,
0100
0000
0100
0000
,
0001
0100
0010
1000
,
0100
0000
0100
0000
,
1000
0100
0010
0001
,
0100
0000
0100
0000
,
0001
0010
0100
1000
,
0100
0000
0100
0000
,
1000
0010
0100
0001
,
0010
0000
0010
0000
,
0001
0010
0100
1000
,
0010
0000
0010
0000
,
1000
0010
0100
0001
,
2002
0000
0000
0000
,
0000
0000
0000
0000
,
3003
0000
0000
0000
;
