#TITLE:The Pink Panther;
#SUBTITLE:;
#ARTIST:DJ Fresh;
#TITLETRANSLIT:;
#SUBTITLETRANSLIT:;
#ARTISTTRANSLIT:;
#CRChallenge:;
#BANNER:pink.png;
#BACKGROUND:pink-bg.png;
#LYRICSPATH:;
#CDTITLE:!cdtitle.png;
#MUSIC:pink.ogg;
#OFFSET:0.000;
#SAMPLESTART:23.368;
#SAMPLELENGTH:12.000;
#SELECTABLE:YES;
#BPMS:0.000=174.000;
#STOPS:;
#BGCHANGES:;
#NOTES:
     dance-single:
     Renard:
     Hard:
     11:
     0.748,0.994,0.516,0.351,0.268:
0000
0000
0000
0000
,
0000
0000
0000
0000
,
0000
0000
0000
0000
,
0000
0000
0000
0000
,
0000
0000
0000
0000
,
1000
0000
0100
0010
0000
0001
0000
0010
,
0000
0010
0100
0010
0100
0000
0010
0000
,
0100
0000
0100
1000
0000
0010
0000
0100
,
0000
0100
0001
0100
0010
0000
1000
0000
,
0010
0000
1010
0000
0000
0101
0000
0000
,
0010
0000
0011
0000
0000
1100
0000
0000
,
0100
0000
1100
0000
0000
1010
0000
0000
,
1001
0000
0000
2200
0000
0001
3310
0000
,
2001
0001
0001
0001
0001
0001
0001
3001
,
2001
0001
0001
0001
0001
0001
0001
3001
,
2001
0001
3001
2001
0001
3001
2001
3001
,
2001
0001
0001
0001
0001
0000
3001
0000
,
0101
0000
0010
1000
0000
1100
0000
0011
,
0000
0100
1000
0010
0100
0001
0010
0000
,
0011
0000
0100
1000
0000
1010
0000
0101
,
0000
0001
0100
0010
1000
0000
1100
0000
,
1020
0000
0130
0000
0001
0010
0100
0000
,
1200
0000
0310
0000
0010
0001
0010
0100
,
1000
0000
1000
0010
0000
0010
0100
0001
,
0100
0000
0010
2000
0200
0010
3301
0000
,
1100
0000
0010
0001
0000
0101
0000
1010
,
0000
0010
1000
0100
0010
0000
0011
0000
,
0110
0000
0100
1000
0000
1010
0000
0101
,
0000
0001
0100
0010
1000
0100
0010
0000
,
0021
0000
0130
1000
0010
0000
0101
0000
,
1020
0000
0130
0001
0010
0000
0110
0000
,
0100
1000
0000
1000
0010
0000
0010
0100
,
0101
0000
0000
0000
1010
0000
0000
0000
0000
0000
0010
1000
0010
0000
1000
0000
,
0002
0100
0103
0020
1030
0200
1300
0002
,
0013
0200
1300
0020
0100
0100
0100
0130
,
0020
1030
0200
1300
0002
0023
0230
1300
,
0200
0000
1300
0000
0010
0000
1000
0001
1000
0000
0001
0000
1000
0001
1000
0000
,
0201
0000
0000
1000
0000
0010
0000
0001
,
0000
0001
0310
1000
0010
0000
1100
0000
,
0100
1000
0001
0010
0000
0011
0000
1100
,
0000
0100
1000
0010
0100
0001
0100
0000
,
0010
0100
0001
0000
0001
0100
0010
0000
,
0010
1000
0010
0000
1000
0100
1000
0000
,
0010
1000
0100
0010
0001
0100
0010
1000
,
0100
0000
0011
0000
2200
0010
3301
0000
,
1100
0000
0010
0001
0000
0101
0000
1010
,
0000
0010
1000
0100
1000
0000
1100
0000
,
0001
0000
0110
0000
0100
1000
0001
0000
,
0101
0000
0010
1000
0000
0100
1000
0000
,
0001
0010
0100
1000
0100
1000
0100
0000
,
1000
0100
0010
0001
0010
0001
0010
0000
,
0001
0010
0000
0100
1000
0000
0001
0100
,
0010
0000
0000
0000
1100
0000
0000
0000
0000
0000
0001
0010
0001
0000
0010
0000
,
0001
1000
0001
1000
0001
0000
0100
0010
0100
0010
0100
0000
0010
0000
1000
0000
,
0100
1000
0100
1000
0100
0000
0010
0001
0010
0001
0010
0000
0100
1000
0100
1000
,
0100
0000
1000
0001
1000
0001
1000
0000
0001
0100
0001
0100
0001
0000
1000
0100
,
1000
0100
1000
0000
0001
0010
0001
0010
0001
1000
0001
1000
0001
0100
0001
0100
,
0010
0000
0000
0000
0000
0000
0000
0000
0000
1000
0010
0100
,
0001
0000
0000
0000
0100
0000
0000
0000
0010
0000
0000
0000
1000
0000
0000
0000
0000
0000
0000
0000
0000
0000
0000
0000
0000
0000
0000
0000
0000
0000
0000
0000
0000
0000
0000
0000
0010
0000
0000
1000
0000
0000
0010
0000
0000
1000
0000
0000
,
0001
0000
0100
0000
0010
1000
0010
1000
0001
0000
0100
0001
0100
0001
1000
0001
,
1000
0010
1000
0010
0100
0001
0100
0001
1000
0001
1000
0100
1000
0100
0010
0001
,
1000
0000
0000
0000
0000
0000
0000
1000
,
0100
0001
0100
1000
0010
0001
0010
1000
,
0010
0100
0001
0100
1000
0100
0001
0010
,
1000
0010
0001
0010
0100
1000
0100
0001
,
0200
0000
0300
0200
0000
0300
0200
0000
,
0300
0200
0000
0300
0200
0000
0300
0000
,
0000
0000
0100
0000
1000
0100
1000
0000
0001
0000
0100
0001
0100
0000
0001
0000
,
1000
0100
1000
0100
0010
0001
0010
0001
1000
0001
1000
0000
1001
0000
0000
0000
;
#NOTES:
     dance-single:
     Renard:
     Medium:
     9:
     0.668,0.852,0.516,0.289,0.021:
0000
0000
0000
0000
,
0000
0000
0000
0000
,
0000
0000
0000
0000
,
0000
0000
0000
0000
,
0000
0000
0000
0000
,
1000
0000
0100
0010
0000
0001
0000
0010
,
0000
0010
0100
0010
0100
0000
0010
0000
,
0100
0000
0100
1000
0000
0010
0000
0100
,
0000
0100
0001
0100
0010
0000
1000
0000
,
0010
0000
1010
0000
0000
0101
0000
0000
,
0010
0000
0011
0000
0000
1100
0000
0000
,
0100
0000
1100
0000
0000
1010
0000
0000
,
1001
0000
0000
2200
0000
0001
3310
0000
,
1001
1000
0001
1000
0001
1000
0001
1000
,
1001
0001
1000
0001
1000
0001
1000
0001
,
1001
1000
0001
1001
1000
0001
1001
1000
,
1001
1000
0100
0010
0001
0000
0001
0000
,
0101
0000
0010
1000
0000
1100
0000
0011
,
0000
0100
1000
0010
0100
0001
0010
0000
,
0011
0000
0100
1000
0000
1010
0000
0101
,
0000
0001
0100
0010
1000
0000
1100
0000
,
1020
0000
0130
0000
0001
0010
0100
0000
,
1200
0000
0310
0000
0010
0001
0010
0100
,
1000
0000
1000
0010
0000
0010
0100
0001
,
0100
0000
0010
2000
0200
0010
3301
0000
,
1100
0000
0010
0001
0000
0101
0000
1010
,
0000
0010
1000
0100
0010
0000
0011
0000
,
0110
0000
0100
1000
0000
1010
0000
0101
,
0000
0001
0100
0010
1000
0100
0010
0000
,
0021
0000
0130
1000
0010
0000
0101
0000
,
1020
0000
0130
0001
0010
0000
0110
0000
,
0100
1000
0000
1000
0010
0000
0010
0100
,
0101
0000
1010
0000
0000
0010
0010
1000
,
0002
0100
0103
0020
1030
0200
1300
0002
,
0013
0200
1300
0020
0100
0100
0100
0130
,
0020
1030
0200
1300
0002
0023
0230
1300
,
0200
1300
0010
1000
1000
0001
1000
0001
,
0201
0000
0000
1000
0000
0010
0000
0001
,
0000
0001
0310
1000
0010
0000
1100
0000
,
0100
1000
0001
0010
0000
0011
0000
1100
,
0000
0100
1000
0010
0100
0001
0100
0000
,
0010
0100
0001
0000
0001
0100
0010
0000
,
0010
1000
0010
0000
1000
0100
1000
0000
,
0010
1000
0100
0010
0001
0100
0010
1000
,
0100
0000
0011
0000
2200
0010
3301
0000
,
1100
0000
0010
0001
0000
0101
0000
1010
,
0000
0010
1000
0100
1000
0000
1100
0000
,
0001
0000
0110
0000
0100
1000
0001
0000
,
0101
0000
0010
1000
0000
0100
1000
0000
,
0001
0010
0100
1000
0100
1000
0100
0000
,
1000
0100
0010
0001
0010
0001
0010
0000
,
0001
0010
0000
0100
1000
0000
0001
0100
,
0010
0000
1100
0000
0000
0001
0001
0010
,
0001
1000
0100
1000
0001
0100
0001
1000
,
0100
1000
0001
0100
0001
1000
0100
0100
,
1000
0001
0010
0001
1000
0010
0100
0001
,
0001
1000
0100
0010
0001
0001
0010
0100
,
1000
0000
0000
0000
0000
0000
0000
0000
0000
1000
0010
0100
,
0001
0000
0100
0000
0010
0000
1000
0000
0000
0000
0000
0000
0000
0000
0000
0000
0000
0000
0010
0000
0000
0010
0000
0000
,
1000
1000
0010
0100
0100
0001
0001
0010
,
0100
0100
1000
0001
0001
0010
0001
1000
,
0010
0000
0000
0000
0000
0000
0000
1000
,
0100
0001
0100
1000
0010
0001
0010
1000
,
0010
0100
0001
0100
1000
0100
0001
0010
,
1000
0010
0001
0010
0100
1000
0100
0001
,
0200
0000
0300
0200
0000
0300
0200
0000
,
0300
0200
0000
0300
0200
0000
0300
0000
,
0000
0100
1000
0001
0100
0010
1000
0100
,
0010
0001
0100
0010
1000
0010
1001
0000
;
#NOTES:
     dance-single:
     Renard:
     Easy:
     6:
     0.386,0.603,0.010,0.083,0.000:
0000
0000
0000
0000
,
0000
0000
0000
0000
,
0000
0000
0000
0000
,
0000
0000
0000
0000
,
0000
0000
0000
0000
,
0001
0000
0000
1000
0000
0100
0000
0010
,
0000
0001
0010
0100
,
1000
0000
0000
0010
0000
0100
0000
0001
,
0000
0100
0010
2000
,
0000
0000
0002
0000
0000
0010
0000
0000
,
0003
0000
0002
0000
0000
0010
0000
0000
,
3000
0000
2000
0000
0000
0010
0003
0000
,
0002
0000
0000
0010
0000
0000
3003
0000
,
1000
0000
0000
0000
,
0001
0000
0000
0000
,
0200
0000
0000
0320
0000
0000
2030
0000
,
3001
0000
0000
1001
,
1000
0000
0000
0100
0000
0010
0000
0001
,
0000
0010
0000
0100
1000
0000
0001
0000
,
1000
0000
0000
0010
0000
0100
0000
0001
,
0000
0100
0000
0010
1000
0000
0010
0000
,
1000
0000
1000
0000
0100
1000
0000
0000
,
0001
0000
0001
0000
0010
0001
0000
0000
,
1000
0000
0000
0001
0000
0000
0100
0000
,
0010
0000
0000
0000
0000
1000
0010
0000
,
1000
0000
0000
0010
0000
0100
0000
0001
,
0000
0000
1000
0100
1000
0000
0001
0000
,
0010
0000
0000
0100
0000
1000
0000
0100
,
0000
0000
0010
0001
0010
0000
0001
0000
,
1000
0000
0010
0000
0000
1000
0010
0000
,
0100
0000
0001
0000
0000
0100
0001
0000
,
1000
0000
0000
0001
0000
0000
0100
0000
,
0010
0000
1000
0000
0000
0010
1000
0010
,
1000
0000
0000
0010
0000
0100
0000
0001
,
0000
1000
0001
0000
1000
0000
0000
0000
,
0100
0000
0010
0000
0001
0010
0001
0000
,
0010
0100
1000
0000
,
0001
0000
0000
1000
0000
0100
0000
0010
,
0000
0001
1000
0001
,
1000
0000
0000
0010
0000
0100
0000
0001
,
0000
0000
1000
0001
1000
0000
0001
0000
,
0100
0000
0010
0000
0000
0100
0010
0000
,
1000
0000
0001
0000
0000
1000
0001
0000
,
1000
0100
0000
0010
0001
0000
1000
0000
,
0100
0000
0010
0000
0000
0010
0001
0000
,
0010
0000
0000
0001
0000
1000
0000
0010
,
0000
0100
0001
0100
,
0010
0000
1000
0000
0001
0100
0010
0000
,
1000
0000
0010
1000
0000
0000
0001
0000
,
1000
0000
0100
0010
,
0001
0000
1000
0001
,
0100
0000
0000
0001
1000
0000
0100
1000
,
0000
0000
0001
0000
0000
1000
0001
1000
,
0001
0000
0100
0000
0010
0000
0100
0100
,
0100
0000
0010
0000
0100
0000
0001
0001
,
0001
0000
1000
0000
0100
0000
0010
0010
,
0010
0000
0001
0000
0010
0100
0010
0100
,
0010
0100
1000
0001
,
0001
0001
0001
0000
0100
0000
0010
1000
,
0010
1000
0010
0100
,
0001
1000
0100
0010
,
0001
0000
0000
0000
0000
0000
0000
0001
,
0010
0100
1000
0100
0010
0001
0010
0100
,
1000
0100
0010
0001
0010
0100
1000
0100
,
0010
0001
0010
0100
1000
0100
0010
0001
,
1000
0000
0000
1000
0000
0000
1000
0000
,
0000
1000
0000
0000
1000
0000
0000
0000
,
0000
0001
0100
0010
1000
0010
0100
0001
,
0100
0010
1000
0010
0100
0001
0100
0000
;
#NOTES:
     dance-single:
     Renard:
     Beginner:
     4:
     0.248,0.355,0.010,0.124,0.000:
0000
0000
0000
0000
,
0000
0000
0000
0000
,
0000
0000
0000
0000
,
0000
0000
0000
0000
,
0000
0000
0000
0000
,
1000
0000
0000
0001
0000
0001
0000
0000
,
0000
1000
1000
1000
,
0001
0000
0000
1000
0000
1000
0000
0000
,
0000
0001
0001
0001
,
0000
0000
1000
0000
0000
0010
0000
0000
,
0000
0000
0100
0000
0000
0001
0000
0000
,
0000
0000
1000
0000
0000
0100
0000
0000
,
0010
0000
0000
0001
0000
0000
0000
0000
,
2000
0000
0000
0000
,
3002
0000
0000
0000
,
0203
0000
0000
0000
,
0310
0000
0000
0110
,
0010
0000
0000
0010
0000
0010
0000
0010
,
0000
0100
0100
0000
,
0001
0000
0000
1000
0000
1000
0000
1000
,
0000
0001
0001
0000
,
2000
0000
0000
0000
,
3200
0000
0000
0000
,
0310
0000
0000
0001
0000
0000
1000
0000
,
0100
0000
0000
1000
,
0001
0000
0000
0100
0000
0010
0000
0100
,
0000
0000
0001
0000
,
1000
0000
0000
0100
0000
0010
0000
0100
,
0000
0000
1000
0000
,
0002
0000
0000
0000
,
2003
0000
0000
0000
,
3010
0000
0100
0001
,
1000
0001
0000
1000
,
0001
0000
1000
0000
,
0001
1000
0001
0000
,
0100
0100
0010
0000
,
0010
0000
0100
0000
,
0010
0000
0000
0000
,
0000
0000
1000
0010
,
0100
0000
0000
0001
0000
0100
0000
0001
,
0000
0000
1000
0000
,
0002
0000
0000
0000
,
0023
0000
0000
0000
,
0230
0000
0000
2300
0000
0000
3002
0000
,
0013
0000
0000
0000
,
0010
0000
0000
0001
0000
0001
0000
0001
,
0000
1000
1000
0000
,
0010
0000
1000
0000
,
0001
0000
0000
0100
0000
0000
0000
0000
,
0001
0000
0000
0000
,
1000
0000
0000
0000
,
0010
0000
0000
0100
0000
0000
0010
0000
,
0000
1000
0000
0010
,
1000
0000
0000
0000
,
0000
0000
0000
0000
,
0000
0001
1000
0000
,
0100
1000
0001
0100
,
0010
0000
0000
1000
,
0010
0100
0000
0001
,
0100
0010
0100
0001
,
1000
0010
1000
0001
,
0100
0000
0000
0000
,
0010
1000
0010
1000
,
0010
1000
0010
1000
,
0010
1000
0010
1000
,
0001
0000
0000
0001
0000
0000
0001
0000
,
0000
0001
0000
0000
0001
0000
0000
0000
,
0000
0001
1000
0001
1000
0001
1000
0001
,
1000
0001
1000
0001
1000
0001
1000
0000
;
