#TITLE:The Other Side (MGD Edit);
#SUBTITLE:;
#ARTIST:Pendulum;
#TITLETRANSLIT:;
#SUBTITLETRANSLIT:;
#ARTISTTRANSLIT:;
#CRChallenge:;
#BANNER:other.png;
#BACKGROUND:other-bg.png;
#LYRICSPATH:;
#CDTITLE:;
#MUSIC:other.ogg;
#OFFSET:0.000;
#SAMPLESTART:26.530;
#SAMPLELENGTH:12.000;
#SELECTABLE:YES;
#BPMS:0.000=70.000,24.000=140.000,104.000=70.000,112.000=140.000,128.000=70.000,144.000=140.000;
#STOPS:;
#BGCHANGES:;
#NOTES:
     dance-single:
     Renard:
     Medium:
     9:
     0.586,0.667,0.362,0.221,0.292:
0000
0000
0000
0000
,
0000
0000
0000
0000
,
0000
0000
0000
0000
,
0000
0000
0000
0000
,
2000
0000
0000
0000
0000
0000
0000
3010
0200
0000
0000
0000
0000
0000
0000
0301
,
2002
0000
0000
0000
0000
0000
0000
0000
0000
0000
0000
0000
0000
0000
0000
3003
,
0001
1000
0100
1100
0100
0110
0010
0001
,
0100
0010
1000
1010
0010
0110
0100
0001
,
0010
0100
1000
1100
0100
0110
0010
0001
,
0100
0010
1000
1010
0010
0110
0100
0001
,
1000
1000
0001
0001
0100
0100
0010
0010
,
1000
0000
1000
0000
0100
0010
0100
0000
0010
0001
0010
0000
0001
1000
0001
0000
,
1000
1000
0010
0010
0100
0100
0010
0010
,
1000
0000
1000
0000
0001
0000
0001
0000
0010
0001
0010
0000
0001
1000
0001
0000
,
1000
0010
1000
0000
0010
0000
0010
0000
0100
0000
0100
0000
0001
0000
0001
0000
,
1000
0000
1000
0000
0100
1000
0100
0000
1000
0001
1000
0000
0001
0100
0001
0000
,
0100
0100
0010
0010
1000
1000
0001
0001
,
0010
0000
0010
0000
0100
0000
0100
0000
1000
0100
1000
0000
0001
1000
0001
0000
,
0100
0001
0100
0000
0010
0100
0010
0000
1000
0010
1000
0000
0100
1000
0100
0000
,
1000
0001
1000
0000
0001
0010
0001
0000
1000
0001
1000
0000
0001
1000
0001
0000
,
1000
0100
1000
0000
0001
0100
0001
0000
1000
0010
1000
0000
0001
0010
0001
0000
,
1000
0001
1000
0000
0001
1000
0001
0000
0100
0010
0100
0000
0010
0100
0010
0000
,
0100
0010
0100
0010
0100
0010
0100
0010
,
1000
0010
1000
0010
1000
0001
1000
0001
,
0100
0100
0001
0001
1000
1000
0100
0100
,
0010
0010
0010
0010
0001
0001
1000
0000
,
2012
0000
0000
3000
0200
0000
0000
0000
,
0020
0300
2000
0000
0000
0000
0000
3033
,
0001
0100
0010
1000
1010
0110
0101
0000
,
0001
0100
0001
0010
0011
0110
1100
0000
,
0100
1000
0010
0100
0101
0110
1010
1100
,
0110
0011
0110
1001
0110
1001
0110
0000
,
2010
0000
0000
0000
0000
3100
0010
0001
2000
0002
0000
0000
0000
0000
0000
0000
,
3000
0100
0100
0100
0200
0003
0010
0020
0000
0000
0000
0000
0300
1030
0100
0010
,
0002
0020
0003
0100
0200
0000
0000
0000
0030
0000
2300
0000
0020
3000
0230
0002
,
0000
0000
0300
1000
2000
0000
0003
0100
0200
3000
0020
0300
0032
0000
1003
0000
,
0111
1110
0111
1110
,
1000
0001
1000
0000
0001
1000
0001
0000
,
0100
0001
0100
0000
0001
1000
0001
0000
1000
0100
1000
0000
0001
1000
0001
0000
,
1000
1000
0010
0010
0100
0100
0001
0001
,
1000
0100
1000
0000
0001
0100
0001
0000
1000
0100
1000
0000
0001
0100
0001
0000
,
1000
1000
0010
0010
0100
0100
0001
0001
,
1000
0010
1000
0000
0001
0010
0001
0000
1000
0010
1000
0000
0001
0010
0001
0000
,
1000
0010
0100
0001
0010
0100
1000
0100
,
0000
0000
0000
0000
0010
0001
0010
0000
0100
0000
1000
0000
0001
0000
0100
0000
,
0010
0100
0010
0000
1000
0010
1000
0000
0000
0000
1001
0000
1001
0000
0000
0000
,
1000
0000
0100
0000
0010
0001
0010
0000
0100
1000
0100
0000
1000
0000
0010
0000
,
0100
0001
0100
0000
0010
0000
1000
0000
0000
0000
1100
0000
1100
0000
0000
0000
,
0001
0000
0010
0000
0100
1000
0100
0000
0010
0000
0001
0000
1000
0000
0010
0000
,
0100
0010
0100
0000
0001
0100
0001
0000
0000
0000
1001
0000
1001
0000
0000
0000
,
0001
0000
0010
0000
0100
1000
0100
0000
0010
0001
0010
0000
0001
0000
0100
0000
,
0010
1000
0010
0000
0100
0000
0001
0000
0000
0000
0101
0000
0101
0000
0010
0000
,
0111
0000
0000
0000
;
#NOTES:
     dance-single:
     Renard:
     Easy:
     5:
     0.297,0.345,0.000,0.062,0.053:
0000
0000
0000
0000
,
0000
0000
0000
0000
,
0000
0000
0000
0000
,
0000
0000
0000
0000
,
0001
0000
0000
0000
0000
0000
0000
1000
0001
0000
0000
0000
0000
0000
0000
0100
,
0020
0000
0000
0000
,
1030
0000
1000
0000
0001
0100
0001
0000
,
1000
0100
1000
0000
0001
0100
0001
0000
,
1000
0000
1000
0000
0001
0100
0001
0000
,
1000
0100
1000
0000
0001
0100
0001
0000
,
0100
0010
1000
0100
,
0010
0000
0001
0010
0100
0000
1000
0001
,
0000
0100
0010
1000
,
0100
0000
0010
0000
0001
0010
0000
0100
,
0000
1000
0001
0000
0100
0000
0010
0000
,
1000
0000
0010
0100
0001
0000
1000
0100
,
0000
0010
0001
0010
,
0100
0000
1000
0000
0001
0100
0000
0010
,
0000
1000
0100
0000
0010
0000
0001
1000
,
0000
0000
0010
0000
0100
0000
0001
1000
,
0000
0100
0010
0000
0001
0000
1000
0010
,
0000
0000
0100
0000
0001
1000
0100
0010
,
0000
0000
0001
0000
0010
0000
0100
1000
,
0000
0000
0001
0000
0100
0010
1000
0010
,
0000
0000
0100
0000
0001
0000
0100
0010
,
0000
1000
0100
0010
0001
0010
0100
0000
,
2000
0000
3020
0000
,
0230
0000
0302
0000
,
1003
0000
1000
0100
0010
0000
0000
0000
,
1000
0000
1000
0100
0010
0000
0000
0000
,
0001
0000
0001
0010
0100
0000
0000
0000
,
0001
0000
0001
0010
0100
0000
0000
0000
,
1000
0000
0000
0000
0000
0000
0001
0100
0001
0100
0000
0000
0000
0000
0000
0000
,
0000
0000
0001
1000
0001
0000
1000
0100
0000
0000
0000
0000
0000
0000
0000
0000
,
1000
0001
0000
0100
0001
0000
0000
0000
0000
0000
0001
0000
1000
0000
0100
0010
,
0000
0000
0000
0001
0010
0000
0000
0100
1000
0000
0000
0001
0100
0000
0000
0000
,
0010
0010
1000
1000
,
0001
0001
0001
0001
0001
0001
0001
0001
,
0100
0100
0010
0010
,
1000
1000
1000
1000
1000
1000
1000
1000
,
0100
0100
0010
0010
,
0001
0001
0001
0001
0001
0001
0001
0001
,
0100
0100
0010
0010
,
1000
1000
1000
1000
1000
1000
1000
1000
,
0000
0000
0010
1000
0010
0000
0010
0000
,
1000
0010
1000
0010
0000
0000
0000
0000
,
0000
0000
0100
0001
0100
0000
0100
0000
,
0001
0100
0001
0100
0000
0000
0000
0000
,
0000
0000
0001
0010
0001
0000
0010
0000
,
0001
0010
0001
0010
0000
0000
0000
0000
,
0000
0000
0100
1000
0100
0000
1000
0000
,
0100
1000
0100
1000
0200
0000
2000
0000
,
3301
0000
0000
0000
;
#NOTES:
     dance-single:
     Renard:
     Beginner:
     3:
     0.260,0.299,0.124,0.106,0.000:
0000
0000
0000
0000
,
0000
0000
0000
0000
,
0000
0000
0000
0000
,
0000
0000
0000
0000
,
0002
0000
2003
0000
,
3020
0000
0000
0000
,
1030
1000
0001
0001
,
1000
1000
0001
0001
,
0100
0100
0010
0010
,
0100
0100
0010
0010
,
1000
0001
1000
0001
,
0001
1000
0001
0000
0001
1000
0001
0000
,
1000
1000
0001
0001
,
0001
1000
0001
0000
0001
1000
0001
0000
,
1000
1000
0001
0001
,
1000
0001
1000
0000
1000
0001
1000
0000
,
1000
1000
0001
0001
,
1000
0001
1000
0000
1000
0001
1000
0000
,
0001
0100
0010
0000
,
0010
0000
0010
0000
,
1000
0010
0100
0000
,
0100
0000
0100
0000
,
0002
0000
1000
0100
,
1000
0000
0100
1000
,
0100
0100
1000
1000
,
0100
1000
0100
1003
,
1001
2000
3200
0000
,
0320
0000
0032
0000
,
1003
0000
0001
0100
0001
0000
0000
0000
,
1000
0000
0001
0100
0001
0000
0000
0000
,
1000
0000
0001
0100
0001
0000
0000
0000
,
1000
0000
0001
0100
0001
0000
0000
0000
,
2000
0000
0000
3100
2000
0000
0000
0000
,
0000
3100
0100
0100
2000
0000
0000
0100
,
0100
0200
0000
0000
,
0010
0001
0010
3301
,
1100
1100
1100
1100
,
0000
1000
0001
1000
,
0000
0101
0101
0101
,
0000
0001
1000
0001
,
0000
1100
1100
1100
,
0000
1000
0001
1000
,
0000
0101
0101
0101
,
0000
0001
1000
0001
,
0000
0000
0001
1000
0001
0000
1000
0000
,
0001
1000
0001
1000
0000
0000
0000
0000
,
0000
0000
0001
1000
0001
0000
1000
0000
,
0001
1000
0001
1000
0000
0000
0000
0000
,
0000
0000
0010
0100
0010
0000
0100
0000
,
0010
0100
0010
0100
0000
0000
0000
0000
,
0000
0000
0010
0100
0010
0000
0100
0000
,
0010
0100
0010
0100
0010
0100
0010
0100
,
0010
0000
0000
0000
;
