#TITLE:The Original You;
#SUBTITLE:;
#ARTIST:E-Type;
#TITLETRANSLIT:;
#SUBTITLETRANSLIT:;
#ARTISTTRANSLIT:;
#CRChallenge:;
#BANNER:you.png;
#BACKGROUND:you-bg.png;
#LYRICSPATH:;
#CDTITLE:;
#MUSIC:you.ogg;
#OFFSET:0.000;
#SAMPLESTART:24.971;
#SAMPLELENGTH:12.000;
#SELECTABLE:YES;
#BPMS:0.000=81.500,66.000=20.370,74.000=81.500;
#STOPS:;
#BGCHANGES:;
#NOTES:
     dance-single:
     pyroko:
     Hard:
     9:
     0.652,0.879,0.072,0.331,1.000:
0000
0000
0000
0000
0000
0000
0000
0000
1001
0000
0000
1000
0100
0010
0001
0100
,
0010
0000
0001
0000
0010
0000
1000
0000
0100
0000
0010
0000
0001
0100
0001
0000
1000
0000
0000
0100
0000
0000
0010
0000
0001
0000
0100
0000
0010
0000
1000
0000
,
0100
0000
0010
0000
0001
0000
0100
0000
0010
0000
1000
0000
0010
0001
0010
0000
1000
0000
0000
0100
0000
0000
0010
0000
0001
0000
0100
0000
0010
0000
1000
0000
,
0100
0000
0010
0000
0001
0000
1000
0000
0010
0000
0100
0000
0010
1000
0100
0000
0010
0000
0000
0001
0000
0000
0100
0000
0010
0000
1000
0000
0100
0000
0010
0000
,
0001
0000
0000
0000
0000
0000
0000
0000
0000
0000
0000
0000
0100
0000
0000
0000
0000
0000
0000
0000
0000
0000
0000
0000
0010
0000
0000
0000
0000
0000
0000
0000
0000
0000
0000
0000
1000
0000
0000
0000
0000
0000
0000
0000
0000
0000
0000
0000
0100
0000
0000
0000
0000
0000
0000
0000
0010
0000
0000
0000
0000
0000
0000
0000
0001
0000
0000
0000
0000
0000
0000
0000
1000
0000
0000
0000
0000
0000
0000
0000
0000
0000
0000
0000
0000
0000
0000
0000
0000
0000
0000
0000
0000
0000
0000
0000
0202
0000
0000
0000
0000
0000
0000
0000
0000
0000
0000
0000
0000
0000
0000
0000
0000
0000
0000
0000
0000
0000
0000
0000
0000
0000
0000
0000
0000
0000
0000
0000
0000
0000
0000
0000
0300
0000
0000
0000
0000
0000
0003
0000
0000
0000
0000
0000
0010
0000
0000
0000
0000
0000
0000
0000
0000
0000
0000
0000
1000
0000
0000
0000
0000
0000
0001
0000
0000
0000
0000
0000
0100
0000
0000
0000
0000
0000
0001
0000
0000
0000
0000
0000
0010
0000
0000
0000
0000
0000
0000
0000
0000
0000
0000
0000
,
0001
0000
0100
0000
0010
0000
1000
0000
0100
0000
0010
0000
0001
0000
0001
0000
2000
0000
0000
0000
0000
0000
0200
0000
3000
0002
0000
0000
0000
0000
0000
0303
,
0100
0000
0010
0000
0001
0000
1000
0000
0100
0000
0000
0000
1000
0000
0000
0000
2002
0000
0000
0000
0000
0000
0000
0003
3010
0000
0100
0001
0010
0100
0010
0000
,
0001
0000
0100
0000
0010
0000
0100
0000
0001
0000
0010
0000
0100
0000
1000
0000
2000
0000
0000
0000
0000
0000
0020
0000
3000
0200
0000
0000
0000
0000
0000
0330
,
0001
0000
0001
0000
0010
0000
0010
0000
0200
0000
0000
0000
1000
0300
0010
0000
1000
0000
0000
0100
0000
0000
0010
0001
0100
0000
0010
0000
1000
0000
0100
0000
,
0010
0000
0001
0000
0100
0000
0010
0000
1000
0000
0100
0000
0010
0001
0010
0000
0001
0000
0000
0100
0000
0000
0010
0000
1000
0000
0100
0000
0010
0000
0001
0000
,
0100
0000
0010
0000
1000
0000
0100
0000
0000
0000
0010
0000
0001
0100
0010
0000
1000
0000
0000
0100
0000
0000
0010
0000
0001
0000
0100
0000
0010
0000
1000
0000
,
0100
0000
0010
0000
0001
0000
0100
0000
0000
0000
0010
0000
1000
0100
0010
0000
0001
0000
0000
0100
0000
0000
0010
0000
1000
0000
0010
0000
0100
0000
0001
0000
,
0100
0000
0010
0000
1000
0000
0100
0000
0000
0000
0010
0000
0001
0100
0010
0000
1000
0000
0000
0100
0000
0000
0010
0000
0001
1000
0100
0000
0100
0000
0010
0000
,
0001
0000
0010
0000
0001
1000
0100
0010
0001
0000
0100
0000
0010
0000
1000
0000
0010
0000
0000
0001
0000
0000
0010
0000
1000
0000
0100
0000
0010
0000
0001
0000
,
1000
0000
0100
0000
0010
0000
0001
0000
0000
0000
0100
0000
0010
1000
0010
0000
0100
0000
0010
0000
0001
0010
0001
0000
0010
0000
1000
0000
0010
0000
0100
0000
,
0001
0000
1000
0000
0100
0000
0010
0000
0000
0000
0000
0000
0001
0000
0200
0000
0020
0000
0300
0000
0032
0000
0020
0003
2000
0000
0000
0000
0000
0000
0000
0030
,
0200
0000
0000
0000
0000
0000
0000
0000
0000
0000
0000
0000
0000
0000
3300
0000
0011
0000
0000
0000
0000
0000
0000
0000
0000
0000
0000
0000
0000
0000
0000
0000
1000
0000
0010
0000
0100
0010
1000
0000
0100
0000
0010
0000
0001
0000
0100
0001
0000
0000
0010
0100
0010
0001
1000
0000
0010
0000
0100
0000
0010
0000
1000
0100
,
0000
0000
0010
0001
0010
1000
0010
0000
0001
0000
0100
0000
0010
0000
1000
0100
0000
0000
0010
0100
1000
0010
0001
0000
0020
0000
0000
0000
2000
0000
3030
0000
1100
0000
0001
1000
0001
1000
0001
0000
0100
0000
0010
0000
1000
0000
0100
0010
0000
0000
0001
0100
0001
0010
0001
0000
1000
0000
0010
0000
0100
0000
0010
1000
,
0000
0000
0010
0001
0010
0100
0010
0000
1000
0000
0010
0000
1000
0000
0001
0010
0000
0000
1000
0100
0010
0001
0100
0000
0020
0000
0000
0000
2000
0000
0000
3030
2002
0000
0000
0000
0000
0000
0000
0000
0000
0000
0000
0000
0000
0000
0003
0000
3010
0000
0000
0000
0100
0000
0001
0000
0010
0000
0100
0000
0010
0000
0000
0000
,
0001
0000
0100
0000
0010
0000
0100
0000
0001
0000
0010
0000
0100
0000
1000
0000
2000
0000
0000
0000
0000
0000
0020
0000
3000
0200
0000
0000
0000
0000
0000
0330
,
0001
0000
0001
0000
1000
0000
1000
0000
0200
0000
0000
0000
0020
0000
0300
0000
0200
0000
0000
0000
0030
0000
0000
0300
0010
0000
0001
1000
0010
0100
0001
0000
,
0001
0000
0100
0000
0010
0000
0100
0000
0001
0000
1000
0000
0100
0000
0010
0000
0010
0000
0000
0000
0000
0000
0002
0000
0000
0200
0000
0000
0000
0000
0000
0303
,
0010
0010
1000
1000
0020
0000
0100
0030
0110
0000
0000
1000
0100
0010
0001
0100
,
0010
0000
1000
0000
0100
0000
0010
0000
0001
0000
0100
0000
0010
1000
0010
0000
1000
0000
0000
0100
0000
0000
0010
0000
0001
0000
0100
0000
0001
0000
0010
0000
,
0100
0000
1000
0000
0010
0000
0100
0000
0010
0000
1000
0000
0100
0010
0001
0000
1000
0000
0000
0010
0000
0000
0001
0000
0010
0000
1000
0000
0100
0000
0010
0000
,
0001
0000
1000
0000
0010
0000
0100
0000
0010
0000
1000
0000
0100
1000
0100
0000
0010
0000
0000
0001
0000
0000
0100
0000
0010
0000
0001
0000
0010
0000
1000
0000
,
0100
0000
0010
0000
0001
0000
1000
0000
0000
0000
0010
0000
0100
0010
1000
0000
0100
0000
0000
0010
0000
0000
0001
0000
1000
0010
1000
0000
0100
0000
0010
0000
,
0001
0000
0100
0000
0010
1000
0001
0100
0010
0000
0100
0000
0010
0000
1000
0000
0001
0000
0000
0100
0000
0000
0010
0000
0100
0000
0001
0000
0010
0000
0100
0000
,
1000
0000
0010
0000
0100
0000
0001
0000
0000
0000
0010
0000
0100
1000
0010
0000
0100
0000
1000
0000
0100
0000
0001
0000
0010
0000
0100
0000
1000
0000
0001
0000
,
0100
0000
0010
0000
0100
0000
0001
0000
0000
0000
0000
0000
0010
0000
0100
0000
2000
0000
0000
0020
0000
3000
0002
0030
2000
0000
0000
0000
0000
0000
0000
0003
,
0200
0000
0000
0000
0000
0000
0000
3300
0011
0000
0000
0000
0000
0000
0000
0000
0000
0000
0000
0000
0000
0000
0000
0000
0000
0000
0000
0000
0000
0000
0000
0000
,
0000
0000
0000
0000
;
#NOTES:
     dance-single:
     pyroko:
     Easy:
     4:
     0.401,0.582,0.107,0.063,0.398:
0000
0000
0000
0000
0000
0000
0000
0000
1000
0000
0000
0100
0010
0000
0000
0001
,
0010
0000
0000
0001
0100
0000
0010
0000
1000
0000
0000
0100
0010
0000
0000
0010
,
0001
0000
0000
0001
0100
0000
0001
0000
1000
0000
0100
0000
0010
0000
0001
0000
,
0100
0010
1000
0000
1000
0000
1000
0000
0100
0000
0010
0000
0001
0000
0010
0000
,
0001
1000
0001
0000
0010
0000
0100
0000
0011
0000
0001
0000
1000
0000
0100
0000
,
0010
0000
0001
0000
1000
0001
1000
0000
1000
0000
0100
0000
0010
0000
0001
0000
,
1000
0100
0010
0001
1000
0000
0010
0000
0210
0000
0000
0000
0020
0300
0000
0000
,
2000
0000
0000
0030
0002
0000
3000
0000
0020
0000
0003
0000
0200
0030
0000
0300
,
1000
0010
0100
0001
1000
0000
0100
0000
0110
0000
0000
0001
0010
0000
0000
0001
,
0100
0000
0000
0100
0010
0000
1000
0000
0100
0000
0000
1000
0100
0000
0000
1000
,
0100
0000
0000
0100
0010
0000
0001
0000
0010
0000
0000
0001
1000
0000
0000
0001
,
0100
0000
0000
0100
0010
0000
1000
0000
0100
0000
0010
0000
0001
0000
1000
0000
,
0010
0100
0010
1000
0000
0100
0010
0000
0011
0000
1000
0000
0100
0010
0001
0000
,
1000
0000
0010
0000
0100
0010
0100
0000
0010
0000
1000
0000
0001
1000
0001
0000
,
1000
0000
0001
0000
0010
0001
0010
0000
0001
0000
0010
0000
0100
1000
0001
0000
,
0001
0000
0100
0000
0010
0000
1000
0001
1000
0000
0100
0000
0010
0000
0100
0000
,
0001
0000
0000
0000
0100
0000
0000
0000
0110
0000
0000
0000
0000
0000
0000
0000
1000
1000
0100
0000
0010
0001
0100
0000
0010
0010
1000
0000
0100
1000
0100
0000
,
0010
0010
0100
0000
0010
0100
0010
0000
0001
0001
1000
0000
0001
1000
0001
0000
0100
0010
0100
0010
0100
0100
0001
0000
1000
0001
1000
0001
1000
1000
0010
0000
,
0010
1000
0010
1000
0010
0010
0100
0000
0001
0100
0001
0100
0020
0000
1030
0000
1100
0000
0000
0000
0000
0000
0000
0000
0100
0000
0000
0000
0010
0000
0000
0000
,
0001
0000
0010
0000
0001
1000
0100
0000
0100
0000
1000
0000
0100
0000
0010
0000
,
0001
0010
0001
1000
0100
0000
0010
0000
1001
0000
1000
0000
0010
0000
0100
0000
,
0010
1000
0100
0000
0010
0000
1000
0000
0100
0000
1000
0000
0100
0000
0010
0000
,
0001
1000
0100
0010
0001
0000
1000
0000
1010
0000
0000
0100
0010
0000
0000
0010
,
1000
0000
0000
1000
0100
0000
0010
0000
1001
0000
0000
0001
0100
0000
0000
0100
,
0001
0000
0000
0001
1000
0000
0010
0000
0110
0000
0000
0010
1000
0000
0000
1000
,
0100
0000
0000
0100
0010
0000
0001
0000
1000
0000
0001
0000
0100
0000
0001
0000
,
0100
0010
0100
0010
0100
0000
0010
0000
1010
0000
0100
0000
1000
0010
1000
0000
,
0010
0000
1000
0000
0010
0100
0010
0000
0100
0000
0001
0000
0100
0010
1000
0000
,
1000
0000
0100
0000
1000
0000
0100
0000
0010
0001
0010
0000
0001
0000
1000
0000
,
0100
0010
0100
0000
0001
0000
0100
0000
0010
0000
0001
0000
1000
0010
0100
0000
,
0001
1000
1001
0000
0000
0000
0000
0000
,
0000
0000
0000
0000
;
#NOTES:
     dance-single:
     pyroko:
     Beginner:
     2:
     0.230,0.500,0.072,0.054,0.112:
0000
0000
1000
0010
,
1000
0000
0001
1000
0001
0000
0100
0000
,
0010
0000
0100
0010
0100
0000
0001
0000
,
1000
0000
0001
1000
0001
0000
0010
0000
,
0001
0000
2000
3000
1001
0000
0001
0000
,
1000
0010
0100
0000
0001
0000
1000
0000
,
0020
0000
0000
0030
1001
0000
0001
0000
,
1000
0001
1000
0000
0001
0000
0100
0000
,
0020
0000
0000
0030
1001
0000
0001
0000
,
1000
0000
0001
0010
0001
0000
0010
0000
,
0100
0000
1000
0100
1000
0000
0001
0000
,
1000
0000
0001
0100
0001
0000
0100
0000
,
0001
1000
0010
1000
,
0001
1000
0001
0000
0100
0000
0010
0000
,
1000
0001
0010
0001
,
0010
0000
0001
0000
1000
0001
1000
0001
,
0100
0000
0000
0000
0001
0000
0000
0000
1001
0000
0000
0000
0000
0000
0000
0000
0010
0000
1000
0000
0100
1000
0100
0000
1000
0000
0100
0000
0010
0100
0010
0000
,
0001
0000
0010
0000
0001
0010
0001
0000
0100
0000
0001
0000
0100
0001
0100
0000
0001
0000
1000
0000
0010
0100
0010
0100
0010
0000
1000
0000
0001
1000
0001
1000
,
0001
0000
1000
0000
0100
1000
0100
1000
0100
0000
1000
0000
0020
0000
0000
0000
2030
0000
0000
0000
0000
0000
0000
0000
0000
0000
0000
0000
0000
0000
0000
0000
,
0000
0000
0000
0000
0000
0000
0000
3000
,
0001
0100
0020
0000
,
0000
0000
0000
0000
0000
0000
0000
0030
,
1000
0001
0100
0010
0110
0000
0010
0000
,
1000
0000
0001
1000
0001
0000
0100
0000
,
0001
0100
0001
0000
1000
0000
1000
0000
,
1000
0010
1000
0000
0001
0000
0001
0000
,
0001
0010
0001
0000
1001
0000
0010
0000
,
0010
0100
0010
0000
1001
0000
0001
0000
,
0001
1000
0001
1000
0100
0000
1000
0000
,
0100
1000
0100
0000
0010
0001
1000
0001
,
0100
0010
0110
0000
0000
0000
0000
0000
,
0000
0000
0000
0000
;
#NOTES:
     dance-single:
     Renard:
     Medium:
     8:
     0.608,0.682,0.438,0.018,0.858:
0000
0000
0000
0000
0000
0000
0000
0000
1001
0000
0000
1000
0100
0010
0001
0010
,
0100
0000
1000
0000
0001
0000
0010
0000
0001
0000
1000
0000
0010
0100
0010
0000
1000
0000
0000
0010
0000
0000
0100
0000
0010
0000
1000
0000
0001
0000
0010
0000
,
0100
0000
1000
0000
0001
0000
0010
0000
0001
0000
1000
0000
0010
0000
0100
0000
0010
0000
0000
0010
0000
0000
1000
0000
0100
0000
0010
0000
0001
0000
0010
0000
,
0100
0000
1000
0000
0001
0000
0010
0000
0001
0000
1000
0000
0001
0000
0100
0000
0010
0000
0000
0010
0000
0000
0010
0000
1000
0000
0100
0000
0010
0000
0001
0000
,
1000
0000
0000
0000
0000
0000
0001
0000
0100
0000
0001
0000
0100
0000
0001
0000
0100
0000
0001
0000
0100
0000
0001
0000
0100
0000
0000
0000
0000
0000
0010
0000
0000
1000
0000
0000
1010
0000
0000
0000
0000
0000
1000
0000
0000
0100
0000
0000
,
0010
0001
1000
0000
1001
0000
0001
0100
0010
0000
0010
1000
1010
0000
1000
0100
,
0010
0001
1000
0001
0100
0000
0001
0010
0100
0000
0100
1000
1001
0000
1000
0001
,
0100
0010
1000
0001
1001
0000
1000
0100
0010
0000
0010
0001
1000
0000
0001
0100
,
0010
0010
1000
1000
0100
0000
0011
0000
1100
0000
1000
0010
1000
0010
1000
0010
,
0100
0001
0100
0001
0010
0001
0010
0100
1000
0000
1000
0100
1000
0100
1000
0010
,
1000
0010
0100
0001
0100
0001
0010
0001
0010
0000
0011
0000
0010
0100
1000
0100
,
1000
0001
1000
0001
0100
0001
0010
0100
1000
0000
1100
0000
0011
0000
1000
0010
,
0100
0001
0010
0100
1000
0000
1001
0000
0110
0000
1001
0000
1100
0000
1000
0100
,
0010
0001
1000
0000
1010
0000
0100
0000
0011
0000
0110
0000
1100
0000
1000
0100
,
0010
0001
1000
0010
0100
0000
0101
0000
0110
0000
0110
0000
1010
0000
1000
0100
,
0010
0001
1000
0000
1100
0000
1000
0100
0010
0000
0110
0000
0011
0000
0001
0010
,
0100
0000
0000
0000
0100
0000
1000
0000
0010
0000
0000
0000
0100
0000
0000
0000
0001
0000
0001
1000
0100
0000
1100
0000
1000
0000
0001
0100
0001
0000
0101
0000
,
0001
0000
0000
0000
0001
0000
1000
0000
0010
0000
0000
0000
1010
0000
0000
0000
1000
0000
0000
0000
1000
0000
0001
0000
0100
0000
0000
0000
0101
0000
0000
0000
0010
0000
1000
0100
1000
0000
0001
0000
0010
0000
0001
0000
1100
0000
0010
0001
0000
0000
1000
0001
1000
0001
1000
0000
0001
0000
0001
0000
0100
0000
0010
1000
,
0000
0000
0010
1000
0100
1000
0001
0000
1000
0000
0001
0000
0010
0000
0100
1000
0001
0000
0100
0010
0100
0010
1000
0000
0010
0000
0100
0100
0100
0100
0100
0000
0010
0000
0000
0000
1000
0000
0000
0000
0010
0000
0000
0000
1000
0000
0000
0000
0001
0000
0000
0000
0000
0000
0000
0000
0010
0000
0000
0000
0001
0000
0000
0000
,
0010
0001
1000
0100
0010
0000
0001
0010
0001
1000
0001
0100
0001
0000
1000
0010
,
1000
0001
1000
0100
1000
0000
1100
0000
0011
0000
0001
0010
0001
1000
0001
0000
,
1000
0100
1000
0010
1000
0000
0001
0010
0001
1000
0100
0000
1000
0010
1000
0001
,
0100
0001
0010
0100
1000
0000
1100
0000
0011
0000
0001
0010
1000
0010
0001
0010
,
0100
1000
0100
0001
0100
1000
0100
0000
1100
0000
1000
0100
0001
0100
1000
0100
,
0010
0001
0010
1000
0010
0000
0011
0000
0110
0000
0100
1000
0010
0001
0010
0100
,
0010
0100
1000
0100
0010
0000
0110
0000
0101
0000
0001
0100
0010
1000
0100
0001
,
0100
0010
0001
0010
0100
0000
0110
0000
1100
0000
1000
0010
0100
0001
0010
0100
,
1000
0001
0100
0010
1000
0000
1010
0000
0101
0000
0001
0010
0100
1000
0001
0100
,
0010
1000
0010
1000
0100
0010
0001
0010
0100
0000
0110
0000
1100
0000
1000
0100
,
0010
0001
1000
0001
0100
0000
0101
0000
0110
0000
0010
1000
0100
0000
0100
0010
,
0001
2002
0010
0000
3003
0000
0000
0000
,
0000
0000
0000
0000
;
