#TITLE:The Moon Lights My Way;
#SUBTITLE:;
#ARTIST:Kettu;
#TITLETRANSLIT:;
#SUBTITLETRANSLIT:;
#ARTISTTRANSLIT:;
#CRChallenge:;
#BANNER:moon.png;
#BACKGROUND:moon-bg.png;
#LYRICSPATH:;
#CDTITLE:!CDtitle.png;
#MUSIC:moon.ogg;
#OFFSET:0.000;
#SAMPLESTART:11.440;
#SAMPLELENGTH:12.000;
#SELECTABLE:YES;
#BPMS:0.000=165.000;
#STOPS:;
#BGCHANGES:;
#NOTES:
     dance-single:
     Renard:
     Hard:
     10:
     0.679,0.682,0.344,0.468,0.401:
0000
0000
0000
0000
,
0000
0000
0000
0000
,
0000
0000
0000
0000
,
0000
0000
0000
0000
,
1000
0101
1000
0011
,
1000
0000
0000
0000
0101
0000
0000
0000
1000
0000
0000
0001
0100
0000
0010
0000
,
1000
0101
1000
0110
,
1000
0010
1000
1011
,
1000
0000
0000
0000
0000
0000
0001
0100
0001
0000
0000
0000
1000
0000
0000
0000
0100
0000
0000
0000
0010
0000
0000
0000
0001
0000
0000
0000
0010
0000
0000
0000
,
0100
0100
1000
1000
0001
0001
0100
0000
,
0010
0000
0000
1000
0010
0000
0000
0100
0001
0010
0000
0000
0100
0000
0000
0000
,
1000
0000
0000
0100
1000
0000
0010
0000
0100
0000
0000
0001
0010
0000
0001
0000
,
0001
0000
0000
0000
0000
0000
1000
0010
1000
0000
0000
0000
0001
0000
0000
0000
0010
0000
0000
0000
0100
0000
0000
0000
1000
0000
0000
0000
0100
0000
0000
0000
,
0010
0010
0001
0001
1000
1000
0010
0000
,
0100
0000
0000
0001
0100
0000
0000
0010
1000
0100
0000
0000
0010
0000
0000
0000
,
0001
0000
0000
0010
0001
0000
0100
0000
0010
0000
0000
0000
1001
0000
0000
0000
,
0201
0000
0010
0000
1000
0000
0310
1000
,
0100
0001
0200
0000
0010
0000
1000
0000
,
2300
0000
3020
0000
0230
0000
0301
0010
,
0200
0000
0000
0000
0310
0000
0002
0000
0000
0000
0003
1000
0001
0000
0100
0000
,
0202
0310
2000
0013
,
0200
0000
0000
0000
3310
0000
0000
0000
0100
0000
0000
1000
0100
0000
0010
0000
,
0012
0103
2010
3001
,
0102
0000
0013
0000
2100
0000
3010
0010
,
1000
0000
1000
0001
0000
0001
0100
0000
0010
0000
0010
1000
0000
1000
0010
0000
,
0100
0000
0100
0001
0000
0001
0010
0000
0100
0000
0100
0010
0000
0010
0100
0000
,
1000
0000
1000
0010
0000
0010
0100
0000
0001
0000
0001
0010
0000
0010
0100
0000
,
1000
0000
1000
0010
0000
0010
0100
0000
0001
0000
0001
0010
0000
0010
0100
0000
,
1000
0000
0001
1000
0000
0010
1000
0000
0001
0000
1000
0001
0000
0100
0001
0000
,
0010
0000
0001
1000
0000
0100
1000
0000
0001
0000
0100
0010
0000
1000
0100
0000
,
0010
0000
0001
0010
0000
0100
1000
0000
0001
0000
0100
0010
0000
1000
0100
0000
,
1100
0000
0011
1100
0000
1011
0000
0000
,
0001
0000
0100
0010
1000
0000
0010
0100
0000
0000
0001
0100
0010
0000
0000
0000
,
1000
0000
0010
0000
0100
0001
0000
0100
0000
0000
0010
0000
1000
0000
0100
0000
,
1000
0000
0010
0100
0001
0000
0100
0010
0000
0000
1000
0010
0100
0000
0000
0000
,
0001
0000
0100
0000
0010
1000
0000
0010
0000
0000
0100
0000
0001
0000
0010
0000
,
0001
0000
0100
0010
1000
0000
0010
0100
0000
0000
0001
0100
0010
0000
0000
0000
,
1000
0000
0010
0000
0100
0001
0000
0100
0000
0000
0010
0000
1000
0000
0100
0000
,
1000
0000
0010
0100
0001
0000
0100
0010
0000
0000
1000
0010
0100
0000
0000
0000
,
0000
0000
0000
0000
1001
0000
0000
0110
0000
0000
0000
0000
1011
0000
0000
0000
,
0001
0100
0010
1000
0010
0000
0100
0001
0000
0000
0100
0000
0000
0000
0010
0000
,
0000
0000
1000
0000
0000
0100
0000
0000
0010
0000
0000
0001
0000
0000
0010
0000
,
0100
1000
0100
0010
0001
0000
0010
0100
0000
0000
1000
0000
0000
0000
0001
0000
,
0000
0000
0010
0000
0000
0100
0000
0000
1000
0000
0000
0001
0000
0000
0100
0000
,
0001
0100
0010
1000
0010
0000
0100
0001
0000
0000
0100
0000
0000
0000
0010
0000
,
0000
0000
1000
0000
0000
0100
0000
0000
0010
0000
0000
0001
0000
0000
0010
0000
,
0100
1000
0100
0010
0001
0000
0010
0100
0000
0000
1000
0000
0000
0000
0001
0000
,
0000
0000
0100
0000
0000
0010
0000
0000
1000
0000
0000
0000
1011
0000
0000
0000
,
0110
0000
2002
0010
0000
3103
0000
0000
,
0000
0000
0000
0000
0202
0000
0000
0313
0000
0000
0000
0000
1011
0000
0000
0000
,
0202
0310
2000
0013
,
0200
0310
0002
3010
,
0200
0310
2000
0013
,
0200
0310
0002
3013
,
0202
1300
2000
0013
,
0020
0031
0002
3010
,
0200
1300
2000
0013
,
0200
0301
0002
3013
,
2200
0311
0002
3110
,
0200
1310
2000
0113
,
0200
0311
0002
3110
,
0200
1310
2000
3113
,
0002
0000
0000
0000
0100
0000
0000
0000
0010
0000
0000
0000
1003
0000
0001
1000
,
0200
2300
0010
3001
,
0001
0100
1000
0001
0010
1000
0100
0001
,
1000
0010
0001
0100
1000
0001
0010
1000
,
0100
0001
1000
0010
0001
0100
1000
0001
,
0010
1000
0100
0001
0100
0010
0001
1000
,
0010
0000
0000
0000
;
#NOTES:
     dance-single:
     Renard:
     Medium:
     9:
     0.544,0.552,0.239,0.010,0.143:
0000
0000
0000
0000
,
0000
0000
0000
0000
,
0000
0000
0000
0000
,
0000
0000
0000
0000
,
0010
0000
0100
0001
0100
0010
0000
1010
,
0000
0101
0000
0010
1000
0100
0000
1000
,
0100
0000
0000
0010
0001
0010
0000
1100
,
0000
0011
0000
1000
0100
1000
0010
0000
,
1000
0000
0000
1000
0010
0000
0100
0000
0001
0000
0100
0000
0010
0000
1000
0000
,
0001
0000
0000
0000
0001
0000
0000
0000
1000
0000
0000
0000
0000
1000
0000
0000
,
0001
0000
0000
0001
0100
0000
0000
0100
0010
0000
1000
0000
0100
0000
0010
0000
,
0001
0001
0010
0010
,
0100
0000
0000
0100
1000
0000
0010
0000
0100
0000
0000
0100
0010
0000
0100
0000
,
0001
0010
0100
1000
,
0001
0000
0000
0001
1000
0000
0000
1000
0010
0000
0100
0000
0001
0000
0100
0000
,
0010
0000
1000
0100
0010
0000
0011
0000
,
0010
0000
0100
1000
0001
0000
0100
0010
,
1000
1000
0010
0000
0100
0100
0001
0001
,
1000
0000
0100
0010
0001
0000
0010
0100
,
1000
1000
1000
0001
0000
1001
1001
0000
,
1000
0010
0100
0000
0010
0100
0001
0000
,
0001
0100
0010
0000
1000
0010
0100
0000
,
0010
0000
1000
0000
0100
1000
1000
0000
,
0100
0000
0010
0000
0000
1001
1001
0000
,
1000
0000
0000
0001
0000
0000
0100
0000
0010
0000
0000
1000
0000
0000
0100
0000
,
0010
0000
0000
0001
0000
0000
0010
0000
0100
0000
0000
1000
0000
0000
0001
0000
,
0100
0000
0000
0010
0000
0000
1000
0000
0010
0000
0000
0100
0000
0000
0001
0000
,
1000
0100
0010
0001
0010
0100
1000
0001
,
0010
0000
0000
0001
0000
0000
1000
0000
0100
0000
0000
0010
0000
0000
0001
0000
,
1000
0000
0000
0010
0000
0000
0100
0000
0001
0000
0000
0100
0000
0000
0010
0000
,
1000
0000
0000
0001
0000
0000
0100
0000
0010
0000
0000
1000
0000
0000
0100
0000
,
0010
0000
0010
0001
0000
1001
0000
0000
,
1000
0000
1000
0000
0001
0100
0001
0000
,
1000
0000
1000
0000
0001
0100
0001
0100
,
0001
0000
0001
0000
1000
0100
1000
0000
,
0001
0000
0001
0000
1000
0100
1000
0100
,
1000
0000
1000
0000
0001
0010
0001
0000
,
1000
0000
1000
0000
0001
0010
0001
0010
,
0001
0000
0001
0000
1000
0010
1000
0000
,
0002
0000
0000
0000
0000
0000
0000
0000
0000
0000
0000
0000
0000
0000
0000
0003
,
1000
0100
1000
0001
1000
0010
0000
1000
,
0000
0000
0010
0000
0000
0100
0000
0000
0001
0000
0000
0100
0000
0000
0010
0000
,
1000
0100
0010
0001
0010
0001
0000
1000
,
0000
0000
0001
0000
0000
0100
0000
0000
0010
0000
0000
1000
0000
0000
0100
0000
,
0010
0001
0010
0100
1000
0001
0000
1000
,
0000
0000
0010
0000
0000
0100
0000
0000
0001
0000
0000
0100
0000
0000
0010
0000
,
1000
0010
0100
0001
1000
0100
0000
0010
,
0000
0000
0001
0000
0000
0010
0000
0000
0100
0000
0000
0100
1000
0000
1000
0000
,
0001
0000
0100
0010
0000
1000
0000
0000
,
0000
0000
0000
0000
1010
0000
0000
1001
0000
0000
0000
0000
0001
0000
0000
0000
,
0100
0000
0010
0100
0001
0000
0100
0010
,
1000
0100
0000
0000
0010
0010
0001
0001
,
1000
0000
0100
1000
0001
0100
0010
0000
,
1000
1000
1000
0001
0000
1001
1001
0000
,
0001
0001
0100
0100
0010
0010
1000
1000
,
0010
0000
1000
0100
0010
0000
0001
0001
,
0010
0000
0010
0100
0000
0100
1000
1000
,
0010
0000
0010
0100
0000
0100
0001
0000
,
0110
0000
0010
1000
0100
0010
0010
0001
,
0010
0000
0000
0000
0010
0000
0100
0000
1000
0000
0010
0000
0100
0000
0001
0100
,
0001
0000
0100
0010
1000
0100
0010
0001
,
1000
1000
1000
0001
0000
1001
1001
0000
,
1000
1000
0010
0100
0000
1010
1010
0000
,
0010
0010
0100
0001
0000
0101
0101
0000
,
0001
0100
0000
0010
1000
0010
0000
1010
,
0000
0101
0000
0010
1000
0100
0010
0001
,
0010
0100
0000
1000
0100
0010
0000
0011
,
0000
1100
0000
1000
0010
0100
0001
1000
,
0001
0000
0000
0000
;
#NOTES:
     dance-single:
     Renard:
     Easy:
     6:
     0.374,0.552,0.067,0.172,0.000:
0000
0000
0000
0000
,
0000
0000
0000
0000
,
0000
0000
0000
0000
,
0000
0000
0000
0000
,
0001
0000
0000
1000
0100
1000
0000
0001
,
0000
0001
0000
1000
0100
1000
0000
0000
,
0001
0000
0000
1000
0100
1000
0000
0001
,
0000
0001
0000
1000
0100
1000
0000
0000
,
0001
0001
1000
1000
,
0100
0000
0100
0000
0010
0000
0001
1000
,
0001
0100
0010
1000
,
0010
0000
0100
0000
0001
1000
0100
0010
,
0001
1000
0001
0100
,
0001
0000
1000
0000
0010
0000
0100
0001
,
1000
0100
0010
0001
,
0010
0000
0100
0000
1000
0001
0100
0000
,
0020
0000
1000
0000
0100
0000
1030
0100
,
0010
0002
0000
0000
0023
0000
0230
0000
,
2300
0000
3010
0100
0001
0100
0010
0000
,
2000
0000
0000
3200
0000
0000
0000
0000
,
0320
0032
0023
0230
,
2300
0001
0010
0001
,
3200
1000
0010
2300
,
3020
0230
0302
0203
,
0310
0000
0010
1000
0100
0000
1000
0000
,
0010
0000
0010
1000
0100
0000
0000
0000
,
1000
0000
1000
0010
0100
0000
0010
0000
,
1000
0000
1000
0010
0100
0000
0000
0000
,
0001
0000
0001
0100
0010
0000
0100
0000
,
0001
0000
0001
0100
0010
0000
0000
0000
,
0010
0000
0010
1000
0001
0000
1000
0000
,
1100
0000
0000
0011
0000
0000
0000
0000
,
0100
0100
1000
1000
,
0000
0001
0000
0001
,
1000
1000
0100
0100
,
0000
0010
0000
0010
,
0100
0100
1000
1000
,
0000
0001
0000
0001
,
1000
1000
0100
0100
,
0000
0010
0000
0010
,
0100
1000
0100
0100
,
0000
1000
0100
0010
,
0001
0001
0010
0010
,
0000
0001
0010
0001
,
0100
0100
0001
0001
,
0000
1000
0001
1000
,
0010
0010
0100
0100
,
0000
0010
0100
0010
,
1000
0000
0000
1010
0000
0000
0000
0000
,
0000
1001
1001
0101
,
0001
0000
0000
0000
0000
0000
0000
0100
,
0010
1000
0000
0000
0010
0100
0001
1000
,
0100
0000
0000
0000
,
0010
0000
0000
0001
0000
0000
0000
0000
,
1000
0000
0001
0100
0001
0000
1000
0100
,
1000
0000
0000
0001
,
0100
0000
0000
0000
0000
0000
0010
1000
,
0001
0000
0000
0000
,
0100
0000
0000
0000
,
0001
0000
0000
0000
0000
0000
0000
1000
,
0100
0000
0000
0000
,
0010
0001
0010
0001
0000
0000
0000
0000
,
1000
0100
1000
0100
1000
0100
1000
0100
,
1000
0001
1000
0001
1000
0001
1000
0001
,
1000
0010
0000
1000
0010
1000
0000
0010
,
0000
1000
0000
0010
1000
0010
1000
0000
,
0001
0100
0000
0001
0100
0001
0000
0100
,
0000
0001
0000
0100
0001
0100
0001
0000
,
1001
0000
0000
0000
;
#NOTES:
     dance-single:
     Renard:
     Beginner:
     3:
     0.266,0.422,0.019,0.372,0.000:
0000
0000
0000
0000
,
0000
0000
0000
0000
,
0000
0000
0000
0000
,
0000
0000
0000
0000
,
0001
0001
1000
0000
,
0001
0001
1000
0000
,
0010
0010
0100
0000
,
0010
0010
0100
0000
,
0020
1030
0020
1030
,
0020
1030
0020
1030
,
0002
0103
0002
0103
,
0002
0103
0002
0103
,
0020
1030
0020
1030
,
0020
1030
0020
1030
,
0002
0103
0002
0103
,
0002
0103
0002
0103
,
0020
0000
0000
0000
,
2030
0000
0001
0001
,
3020
0000
0000
0000
,
0230
0000
0000
0000
,
0302
0000
1000
0000
,
0023
0000
0000
0000
,
0032
0000
0000
0000
,
0000
0000
0000
0000
,
1003
1000
0001
0001
,
0100
0100
0010
0000
,
0010
0010
0100
0100
,
0001
0001
1000
0000
,
0001
0001
1000
1000
,
0100
0100
0010
0000
,
0001
0001
0010
0100
,
1000
0000
0000
0000
,
0001
0000
1000
0000
,
0001
0000
1000
0000
,
0010
0000
0100
0000
,
0010
0000
0100
0000
,
0001
0000
1000
0000
,
0001
0000
1000
0000
,
0010
0000
0100
0000
,
0010
0000
0000
0000
,
1000
1000
1000
1000
,
0000
0010
0000
0010
,
0100
0100
0100
0100
,
0000
0001
0000
0001
,
1000
1000
1000
1000
,
0000
0100
0000
0100
,
0010
0010
0010
0010
,
0000
0001
0000
0001
,
1000
0000
0000
0000
,
0000
0001
0000
1001
,
2000
0000
0000
0000
,
3002
0000
0100
0103
,
0200
0000
0000
0000
,
0320
0000
0000
0000
,
2030
0000
0000
0000
,
3002
0000
0000
0100
,
0203
0000
0000
0010
,
0320
0000
0000
0000
,
2030
0000
0000
0000
,
3200
0000
0000
0010
,
0320
0000
0000
0000
,
0032
0000
0000
0000
,
0203
0000
0000
0302
,
2003
0000
0000
0000
,
3200
0000
1000
0000
,
0010
0001
0010
0000
,
1000
0000
0010
0000
,
0001
0010
1000
1300
,
1100
0000
0000
0000
;
