#TITLE:The Moon Breaks My Day;
#SUBTITLE:;
#ARTIST:Kettu Remix;
#TITLETRANSLIT:;
#SUBTITLETRANSLIT:;
#ARTISTTRANSLIT:;
#CRChallenge:;
#BANNER:;
#BACKGROUND:;
#LYRICSPATH:;
#CDTITLE:;
#MUSIC:day.ogg;
#OFFSET:0.000;
#SAMPLESTART:127.960;
#SAMPLELENGTH:12.000;
#SELECTABLE:YES;
#BPMS:0.000=165.000;
#STOPS:;
#BGCHANGES:;
#NOTES:
     dance-single:
     Nonstop:
     Challenge:
     10:
     0.691,0.980,0.141,0.012,0.458:
0000
0000
0000
0000
,
0000
0000
0000
0000
,
0000
0000
0000
0000
,
0000
0000
0000
0000
,
1000
0001
1000
0001
0010
0001
0010
0001
,
1000
0001
1000
0001
1000
0100
1000
0100
,
1000
0001
1000
0001
0100
0001
0100
0001
,
1000
0010
1000
0001
0100
0000
1001
0000
,
0001
0000
0010
0100
1000
0000
0100
0000
0010
0000
0001
0000
0010
0000
0100
0000
,
1000
1000
0100
0100
,
0010
0000
0001
0000
0010
0000
0100
0000
1000
0001
1000
0000
0010
0000
0100
0000
,
0001
0001
0100
0100
,
0010
0000
1000
0010
0100
0000
0010
0000
1000
0000
0100
0000
0010
0000
0001
0000
,
0010
0010
0001
0001
,
1000
0000
0100
0000
0010
0000
0000
0000
0001
0010
0100
0000
1000
0000
0001
0000
,
0100
0100
0010
1010
,
0010
1000
0100
0010
0001
0010
0100
1000
,
0010
0010
1000
0100
0010
0010
0001
0001
,
1000
0000
0010
0100
0001
0010
0100
1000
,
0001
0000
0000
0000
0001
0000
0100
0000
0010
0000
0000
0100
0010
0000
0100
0000
,
0010
1000
0100
0010
0001
0010
0100
1000
,
0001
0000
0001
0100
0010
0000
0010
1000
,
0100
0000
1000
0010
0100
0001
0010
0001
,
1000
0000
0001
0010
0100
1000
0001
0100
,
0010
0000
1000
0001
0000
0100
0010
0000
1000
0000
0000
0100
0000
0000
0010
0000
,
0001
0000
0010
0100
0000
1000
0100
0000
0010
0000
0000
0001
0000
0000
0010
0000
,
0100
0000
1000
0001
0000
0100
0010
0000
1000
0000
0000
0010
0000
0000
0100
0000
,
0001
0000
0100
0010
0000
1000
0001
0000
0100
0000
0000
0010
0000
0000
1000
0000
,
0100
0000
0010
0001
0000
0010
0100
0000
1000
0000
0000
0001
0000
0000
0100
0000
,
0010
0000
1000
0010
0000
0100
0001
0000
0100
0000
0000
0010
0000
0000
1000
0000
,
0100
0000
0010
0001
0000
0010
0100
0000
1000
0000
0000
0001
0000
0000
0010
0000
,
0200
0000
0000
0000
1000
0000
2000
0000
0000
0000
3311
0000
0000
0000
1000
0100
,
1000
0100
0010
0001
0010
0100
1000
0000
0001
0000
0000
0001
0000
0000
0001
0000
,
1000
0100
0010
0001
0010
0100
1000
0000
0001
0000
0000
0001
0000
0000
0001
0000
,
1000
0101
0010
1001
,
0010
1100
1000
1001
,
0001
0100
0010
1000
0001
0100
0010
0000
1000
0000
0000
1000
0000
0000
1000
0000
,
0001
0100
0010
1000
0001
0100
0010
0000
1000
0000
0000
1000
0000
0000
1000
0000
,
0000
0000
0001
0100
0010
0000
1000
0000
0100
0000
0000
0100
0000
0000
0100
0000
,
0010
0000
0000
0010
0000
0000
0010
0000
0001
0000
0000
1000
0000
0000
0100
0000
,
0010
0000
0000
0000
0011
0000
0000
0000
0010
0000
0100
1000
0100
0000
1000
0000
,
0001
0000
0001
0000
1000
0000
0010
0000
0100
0000
0001
0100
0010
0000
0000
0000
,
1000
0000
0000
0010
0000
0000
0100
0000
0001
0000
0000
0000
0101
0000
0000
0000
,
0001
0000
0000
0010
0000
0000
0100
0000
1100
0000
0000
0000
0000
0000
0000
0000
,
1000
0100
0010
0001
0010
0100
1000
0001
0010
0100
1000
0100
0010
0001
0010
0100
,
1000
0100
0010
0001
0010
0100
1000
0100
1000
0100
0000
0010
0001
0000
0000
0000
,
1000
0000
0100
0000
0010
0000
0001
0000
0010
0000
0000
0010
0000
0000
0010
0000
,
0001
0010
0100
1000
0001
0000
0100
0000
,
0010
0000
1000
0000
0100
0000
0010
0000
0001
0000
0000
0010
0000
0000
0001
0000
,
0010
0100
1000
0100
0010
0000
0011
0000
,
0001
0010
0100
1000
0001
0000
1000
0100
0000
0000
0010
0000
0000
0000
0001
0000
,
0000
0000
1000
0000
0000
1000
0000
0000
1000
0000
0000
1000
0000
0000
1000
0000
,
0001
0100
0010
1000
0001
0000
0100
0010
0000
0000
0010
0000
0000
0000
1000
0000
,
0000
0000
0001
0000
0000
0100
0000
0000
0010
0000
0000
1000
0000
0000
0100
0000
,
0010
0001
0010
0100
1000
0000
0001
0010
0000
0000
0100
0000
0000
0000
1000
0000
,
0000
0000
0001
0000
0000
0100
0000
0000
0010
0000
0000
1000
0000
0000
0010
0000
,
0100
0001
0100
0010
1000
0000
0010
0100
0000
0000
0001
0000
0000
0000
0100
0000
,
0000
0000
0010
0000
0000
1000
0000
0000
0100
0000
0000
0000
1001
0000
0000
0000
,
1000
0001
0100
0100
0000
0001
0000
0000
,
0000
0000
0000
0000
1100
0000
0000
1001
0000
0000
0000
0000
0101
0000
0000
0000
,
0010
0000
1000
0000
0100
0000
0010
0000
0001
0000
0000
0010
0000
0000
0001
0000
,
0010
0000
0000
0100
0000
0000
1000
0000
0010
0000
0000
0100
0000
0000
0001
0000
,
0100
0000
0000
0010
0000
0000
1000
0000
0100
0000
0000
0010
0000
0000
0001
0000
,
0010
0000
0000
0100
0000
0000
1000
0000
0001
0000
0000
0000
0100
0000
0000
0000
,
0010
0000
1000
0100
1000
0000
0010
0000
0100
0000
0000
0001
0000
0000
0100
0000
,
0010
0000
0000
1000
0000
0000
0100
0000
0010
0000
0000
0001
0000
0000
0010
0000
,
0100
0000
0000
1000
0000
0000
0001
0000
0100
0000
0000
0010
0000
0000
1000
0000
,
0100
0000
0000
0010
0000
0001
0000
0000
0010
0000
0000
0000
0100
1000
0100
0010
,
0001
0000
0000
0000
0010
0000
0001
0010
0000
0000
0100
0000
1000
0000
0000
0000
,
0001
0100
0010
1000
0100
0000
0100
0000
,
1000
0000
0010
0100
0001
0000
0100
0010
0000
0000
1000
0000
0010
0000
0000
0000
,
0100
0001
0010
0100
1000
0000
1000
0000
,
0100
0000
0010
0001
1000
0000
0100
1000
0000
0000
0001
0000
0010
0000
0000
0000
,
0100
1000
0001
0000
0100
0010
1000
0000
,
0001
0000
0010
0100
1000
0000
0001
0100
0000
0000
0010
0000
1000
0000
0000
0000
,
0000
0000
0000
0000
1001
0000
0000
1001
0000
0000
0000
0000
0110
0000
0000
0000
,
0010
0000
0000
1000
0000
0000
0100
0000
0001
0000
0000
0000
0101
0000
0000
0000
,
0100
0000
0000
1000
0000
0000
0010
0000
0100
0000
0000
0000
0110
0000
0000
0000
,
0010
1000
0001
0100
0010
1000
0100
0010
0001
0010
0100
1000
0001
0010
0100
1000
,
0100
0010
0001
0010
0100
1000
0100
0010
0001
0010
0000
0100
0010
0000
0000
0000
,
0000
0000
0010
0000
0100
0000
1000
0000
0010
0000
0000
0100
0000
0000
0010
0000
,
1000
0100
0010
0001
0010
0000
0011
0000
,
0010
0000
0100
0000
1000
0000
0001
0000
0100
0000
0000
0010
0000
0000
1000
0000
,
0100
0010
0001
0010
0100
1000
0100
0000
0000
1001
0000
0000
,
0001
0000
1000
0100
1000
0000
0001
0000
0100
0000
0000
0010
0000
0000
1000
0000
,
0100
0000
0000
0010
0000
0000
0001
0000
0010
0000
0000
0100
0000
0000
1000
0000
,
0001
0000
0000
0100
0000
0000
0010
0000
1000
0000
0000
0100
0000
0000
0010
0000
,
0001
0000
0000
0010
0000
0000
0100
0000
1000
0000
0000
0000
1001
0000
0000
0000
,
1000
0000
0001
0100
0001
0000
0100
0000
0010
0000
0000
1000
0000
0000
0100
0000
,
0010
0000
0000
0001
0000
0000
0010
0000
0100
0000
0000
1000
0000
0000
0010
0000
,
0100
0000
0000
0001
0000
0000
1000
0000
0100
0000
0000
0010
0000
0000
0001
0000
,
0010
0000
0000
0100
0000
0000
1000
0000
0001
0000
0000
0000
0100
0001
1000
0100
,
0010
0001
0010
0001
0010
1000
0010
1000
,
0001
0100
0001
0100
1000
0100
1000
0100
,
1000
0010
1000
0010
0001
0010
0001
0010
,
0100
1000
0100
1000
0100
0001
0100
0001
,
1000
0001
1000
0001
1000
0100
1000
0100
,
0001
0100
0001
0100
0010
0100
0010
0100
,
0010
1000
0010
1000
0010
0001
0010
0001
,
0010
1000
0010
0001
0010
1000
0010
0000
,
0010
1000
0010
1000
0010
0001
0010
0001
,
0100
0001
0100
0001
0100
1000
0100
1000
,
0001
1000
0001
1000
0001
0010
0001
0010
,
1000
0010
0001
0010
1000
0010
0001
0000
,
0010
1000
0010
0000
0100
0001
0100
0000
,
0001
0010
0001
0000
0010
1000
0010
0000
,
0010
0100
1000
0010
0100
1000
0100
0001
,
0010
0100
0001
0100
1000
0010
0100
1000
,
0100
0001
0010
0100
0001
0100
1000
0010
,
0100
1000
0100
0010
0100
0001
0010
0100
,
0001
0000
0000
0000
;
