#TITLE:The Man I Killed;
#SUBTITLE:;
#ARTIST:NOFX;
#TITLETRANSLIT:;
#SUBTITLETRANSLIT:;
#ARTISTTRANSLIT:;
#CRChallenge:;
#BANNER:man.png;
#BACKGROUND:man-bg.png;
#LYRICSPATH:;
#CDTITLE:;
#MUSIC:man.ogg;
#OFFSET:0.000;
#SAMPLESTART:49.580;
#SAMPLELENGTH:12.000;
#SELECTABLE:YES;
#BPMS:0.000=272.400;
#STOPS:;
#BGCHANGES:;
#NOTES:
     dance-single:
     Renard:
     Medium:
     9:
     0.735,0.775,0.305,0.025,0.000:
0000
0000
0000
0000
,
0100
0000
0010
0000
1000
0000
0010
1000
,
0000
1000
0001
0100
,
0001
0000
0010
0000
0100
1000
0000
0001
,
0000
0001
0100
0010
,
1000
0000
0001
0000
0100
0001
1000
0001
,
0000
0001
1000
0100
,
0010
0000
0001
0000
0010
0100
0000
1000
,
0000
1000
0001
0100
,
0010
0100
0001
0100
,
0010
0100
0001
0100
,
0010
1000
0100
1000
,
0010
1000
0100
1000
,
0001
0010
0100
1000
,
0001
0100
0010
1000
,
0100
0000
0010
0000
0001
0010
0100
0000
,
1000
0100
0010
0000
0011
0000
0011
0000
,
0010
0000
0100
0000
1000
0001
0000
0101
,
0000
0000
0100
0000
0010
0000
1000
0100
,
0000
0000
0010
0000
0001
0010
0000
1100
,
0000
0000
1000
0000
0010
0100
0000
0101
,
0000
0000
0100
0000
0010
1000
0000
1100
,
0000
0000
0010
0000
0001
0010
0000
0000
,
0110
0000
1000
0000
0001
0100
0000
0110
,
0000
0000
0010
1000
,
0100
0000
0010
0000
0001
0000
0010
0100
,
0000
1100
1000
0010
,
0100
0001
0000
0010
0000
0100
0000
0110
,
0000
0000
0000
0100
1000
0000
0010
0000
,
0100
0000
0001
0000
0100
0000
0010
1000
,
0000
0010
0100
0001
,
0010
0100
0000
1001
0000
0010
0000
1001
,
0000
0000
0001
0100
0010
1000
0100
0010
,
0001
0000
0010
0000
0100
0010
0100
0000
,
1000
0100
1000
0000
0001
0010
0001
0000
,
1000
0000
0010
0000
0100
0001
0100
0000
,
0010
0100
0010
0000
1000
0010
1000
0000
,
0100
0000
0010
0000
0001
1000
0001
0000
,
1000
0100
1000
0000
0001
0010
0001
0000
,
0010
0100
1000
0001
0100
0000
0010
1000
,
0001
0000
1000
0001
,
0100
0100
0010
0010
,
1000
1000
0100
0100
,
0010
0001
0010
0100
,
1000
0010
0100
0001
,
0010
0010
0001
0001
,
1000
1000
0100
0100
,
1000
0001
0010
0100
,
1000
0010
0100
0001
,
1000
1000
0001
0001
,
0010
0010
0100
0100
,
1000
0010
0100
0001
,
0010
0100
1000
0001
,
0100
0000
0001
0000
1000
0000
0100
1000
,
0100
0000
1000
0000
0001
0000
0010
0001
,
0010
0001
0010
0100
1000
0001
0010
0100
,
1000
0100
0010
0000
0011
0000
1100
0000
,
1000
0100
0000
0011
0000
0010
0000
0100
,
0000
1000
0000
0000
0010
0000
0100
0000
,
0001
0000
0100
0010
0000
1000
0000
1010
,
0000
0100
0001
0100
,
0001
1000
0100
0010
,
0011
0000
0000
1000
0001
0000
0100
0000
,
0010
0000
1000
0000
0100
0010
0000
0011
,
0000
0000
0110
1100
,
1001
0000
0001
0000
0100
0000
0010
1000
,
0000
0000
0010
0000
1000
0010
1000
0000
,
0010
0000
0100
0001
0000
0010
0000
0011
,
0000
0000
0010
0100
,
1000
0000
0010
0000
0100
0000
0001
0100
,
0000
0110
1000
0100
,
0010
0000
0001
0010
0000
0100
0000
1100
,
0000
0000
1000
0100
0010
0001
0010
0100
,
1000
0000
0001
0010
0001
0000
1000
0000
,
0010
0000
0100
0010
0100
0000
0010
0000
,
1000
0000
0100
1000
0100
0000
1000
0001
,
1000
0001
0100
0010
,
1000
0010
1000
0000
0010
0100
0010
0000
,
0100
0001
0100
0000
0001
0010
0100
1000
,
0001
1000
0001
0100
,
0010
0000
1000
0100
0000
0010
0001
0000
,
0010
0000
0100
1000
0000
0001
0010
0000
,
0001
0000
1000
0010
0000
0100
0001
0000
,
0100
0010
1000
0100
,
0010
0001
0010
0100
1000
0100
0010
0002
,
0200
0000
0000
0000
,
0000
0000
0000
0000
,
0303
0000
0000
0000
;
#NOTES:
     dance-single:
     Renard:
     Hard:
     9:
     0.822,0.830,0.140,0.025,0.000:
0000
0000
0000
0000
,
1000
0000
0100
0000
0010
0000
0001
0010
,
0000
0000
0100
1000
,
0001
0000
0100
0000
0010
1000
0000
0010
,
0000
0000
1000
0100
,
0010
0000
0001
0000
0011
0000
0010
0001
,
0000
0000
1000
0100
,
0010
0000
0001
0000
1000
0010
0000
1010
,
0000
0000
1000
0010
,
0100
0000
0001
0100
0001
0000
0100
0000
,
0010
0000
1000
0010
1000
0000
0100
0000
,
1000
0000
0100
1000
0100
0000
1000
0000
,
0001
0000
0010
0001
0010
0000
0001
0000
,
1000
0000
0010
1000
0010
0000
1000
0000
,
0010
0000
0100
0001
0100
0000
0001
0000
,
0100
0001
1000
0100
,
0010
0001
0010
0000
1100
0000
0011
0000
,
1000
0000
0001
0000
0100
0001
0100
0000
,
0010
1000
0010
0000
1000
0100
1000
0000
,
0001
0000
0010
0000
0100
1000
0100
0000
,
1000
0001
1000
0000
0001
0100
0001
0000
,
0100
0000
0010
0000
1000
0010
1000
0000
,
0001
0100
0001
0000
1000
0100
1000
0000
,
0001
0000
0010
0000
0100
1000
0100
0000
,
1000
0001
1000
0000
0101
0000
1010
0000
,
1001
0000
1000
0000
0100
0010
0001
0000
,
0010
0100
1000
0000
0001
0000
0010
0000
,
0100
0000
1000
0000
0010
0100
0001
0000
,
0100
0010
1000
0000
0010
0000
0100
0000
,
0001
0000
0010
0000
0100
1000
0100
0000
,
0010
0001
0010
0000
0100
1000
0100
0000
,
1000
0000
0001
0000
0100
0010
1000
0000
,
0010
0100
0001
0010
0100
1000
0100
0010
,
0001
0000
0010
0100
0010
0000
0100
1000
,
0100
0000
1000
0001
1000
0000
0001
0100
,
0001
0000
0100
0010
0100
0000
0010
1000
,
0010
0000
1000
0100
1000
0000
0100
0010
,
0100
0000
0010
0001
0010
0000
0001
0010
,
0001
0000
0010
0100
0010
0000
0100
0010
,
0100
0000
1000
0100
1000
0000
0100
1000
,
0001
0000
0100
0001
,
1000
0000
0100
1000
0100
0000
1000
0000
,
0001
0000
0100
0001
0100
0000
0001
0000
,
0010
0000
0001
0010
0001
0000
0010
0000
,
0100
0000
1000
0100
1000
0000
0100
0000
,
1000
0000
0010
1000
0010
0000
1000
0000
,
0001
0000
0100
0001
0100
0000
0001
0000
,
1000
0000
0100
1000
0100
0000
1000
0000
,
0001
0000
0010
0001
0010
0000
0001
0000
,
1000
0000
0010
1000
0010
0000
1000
0000
,
0001
0000
0100
0001
0100
0000
0001
0000
,
1000
0000
0100
1000
0100
0000
1000
0000
,
0001
0000
0010
0001
0010
0000
0001
0000
,
1000
0000
0010
1000
0010
0000
1000
0000
,
0001
0000
0100
0001
0100
0000
0001
0000
,
1000
0100
0010
0001
0010
0100
1000
0010
,
0100
0001
0010
0000
1100
0000
0011
0000
,
1000
0000
0001
0000
0100
0001
0100
0000
,
0010
1000
0010
0000
1000
0100
1000
0000
,
0001
0000
0010
0000
0100
1000
0100
0000
,
0010
0001
0010
0000
0100
1000
0100
0000
,
1000
0000
0001
0000
0100
0010
0100
0000
,
0010
1000
0010
0000
1000
0001
1000
0000
,
0001
0000
0100
0000
0010
1000
0010
0000
,
0100
0001
0100
0000
1010
0000
0101
0000
,
0001
0000
1000
0000
0100
0010
0001
0000
,
0010
0100
1000
0000
0001
0010
0100
0000
,
1000
0000
0010
0000
0100
0001
0100
0000
,
0010
1000
0010
0000
1000
0100
1000
0000
,
0001
0000
0010
0000
0100
1000
0100
0000
,
0010
0001
0010
0000
0100
1000
0100
0000
,
1000
0000
0001
0000
0100
0010
1000
0000
,
0010
0100
0001
0010
0100
1000
0100
0010
,
0001
0000
0001
0100
0010
0000
0010
1000
,
0100
0000
0100
0010
0001
0000
0001
0010
,
0100
0000
0100
1000
0010
0000
0010
0100
,
0001
0000
0001
0010
0100
0000
0100
1000
,
0010
0000
0010
0100
0001
0000
0001
0010
,
0100
0000
0100
1000
0010
0000
0010
0100
,
0001
0100
0010
1000
,
0100
0000
0010
0001
0000
0010
0100
0000
,
1000
0000
0001
0010
0000
0100
1000
0000
,
0010
0000
0100
0001
0000
0100
0010
0000
,
1000
0000
0010
0100
0000
0001
0100
0000
,
0010
0000
1000
0100
0010
0001
0010
0200
,
2000
0000
0000
0000
,
0000
0000
0000
0000
,
3300
0000
0000
0000
;
#NOTES:
     dance-single:
     Renard:
     Easy:
     7:
     0.567,0.664,0.293,0.025,0.000:
0000
0000
0000
0000
,
1000
0001
1000
0001
,
1000
0000
0001
0100
,
0010
0100
0010
0100
,
0010
0000
1000
0010
,
1000
0010
1000
0010
,
1000
0000
0001
1000
,
0001
1000
0001
1000
,
0001
0000
1000
0100
,
1000
0100
1000
0001
,
1000
0000
0001
0010
,
0001
0010
0001
1000
,
0001
0000
0100
0010
,
0100
0001
0100
0001
,
1000
0000
0100
1000
,
0001
0000
1000
0000
,
0001
0100
0001
1000
,
0100
0000
0010
0000
,
0001
1000
0010
0100
,
0001
0000
1000
0000
,
0100
0010
0001
1000
,
0010
0000
0100
0001
,
0100
0000
0010
1000
,
0010
1000
0100
0010
,
0001
0000
0010
0100
,
1000
0001
0100
0010
,
1000
0010
1000
0010
,
1000
0001
0100
0001
,
0010
0000
0100
1000
,
0001
0100
0010
1000
,
0010
0100
0001
1000
,
0100
0010
0001
1000
,
0001
0000
0100
0010
,
1000
0000
0010
0100
,
0001
0010
0100
1000
,
0001
0000
1000
0010
,
0100
0000
0001
0010
,
0100
0000
1000
0100
,
0010
0001
0010
0100
,
1000
0010
0100
0001
,
1000
0000
0001
1000
,
0100
0010
0001
0010
,
0100
0000
1000
0010
,
0100
0001
0100
0010
,
1000
0000
0001
0010
,
0100
1000
0100
0010
,
0001
0000
1000
0010
,
0100
0001
0010
0100
,
1000
0000
0001
0010
,
0100
1000
0010
0100
,
0001
0100
0010
1000
,
0100
0010
0001
0010
,
0100
0000
1000
0010
,
0100
0001
0100
0010
,
1000
0100
0010
0001
,
1000
0001
0100
0010
,
1000
0100
1100
1100
,
1100
1000
0001
0100
,
0001
1000
0001
0000
,
0101
0000
0001
0100
,
0010
1000
0100
0010
,
0110
0000
0010
0001
,
1000
0010
0100
0000
,
0110
0000
0100
0001
,
0010
0100
1100
1001
,
1001
0000
1000
0001
,
0100
0010
1000
0000
,
1010
0000
1000
0010
,
0100
0001
0010
0000
,
0011
0000
0010
0100
,
1000
0010
0100
0010
,
0110
0000
0100
0001
,
0010
0001
1000
1001
,
1001
0000
1000
0001
,
0100
0010
1000
0100
,
0010
0000
0010
0001
,
0010
0000
0100
1000
,
0010
0000
0100
0001
,
0100
0010
1000
0100
,
0010
0011
0000
0011
,
0010
0110
0000
0110
,
0100
1100
0000
1100
,
1000
1010
0000
1010
,
0010
0110
0000
0100
,
0002
0000
0200
0000
,
0010
0000
0000
0000
,
0000
0000
0000
0000
,
0303
0000
0000
0000
;
#NOTES:
     dance-single:
     Renard:
     Beginner:
     4:
     0.447,0.498,0.000,0.280,0.000:
0000
0000
0000
0000
,
1000
0000
1000
0000
,
1000
0000
0001
1000
,
0001
0000
0001
0000
,
0001
0000
0100
0010
,
0100
0000
0100
0000
,
0100
0000
0010
0100
,
0010
0000
0010
0000
,
0010
0000
1000
0000
,
0010
1000
0010
0000
,
1000
0000
0010
0000
,
0100
0001
0100
0000
,
0001
0000
0100
0000
,
0001
0010
0001
0000
,
1000
0100
1000
0000
,
0001
0000
1000
0000
,
0010
0100
0001
1000
,
0200
0000
0310
0000
,
0001
0010
0100
0000
,
2000
0000
3001
0000
,
0100
0010
1000
0000
,
0002
0000
0013
0000
,
0100
1000
0001
0000
,
0200
0000
0310
0000
,
1000
0000
0010
0100
,
0020
0000
0130
0000
,
0001
0000
0010
0000
,
0200
0000
1300
0000
,
0001
0000
0100
0010
,
0200
0000
0301
0000
,
1000
0000
0100
0010
,
0002
0000
0013
0000
,
0100
0000
1000
0010
,
0200
0000
0000
0000
,
0301
0000
0010
0100
,
2000
0000
3002
0000
,
0203
0000
0320
0000
,
1030
0000
0100
0000
,
0010
0001
0010
0100
,
1000
0001
0010
0100
,
1000
0000
0000
0000
,
0001
0010
0001
0010
,
0001
0010
0001
0010
,
0001
0010
0001
0010
,
0001
0000
0001
0000
,
1000
0100
1000
0100
,
1000
0100
1000
0100
,
1000
0100
1000
0100
,
1000
0000
1000
0000
,
0001
0100
0001
0100
,
0001
0100
0001
0100
,
0001
0100
0001
0100
,
0001
0000
0001
0000
,
1000
0010
1000
0010
,
1000
0010
1000
0010
,
1000
0010
1000
0010
,
1000
0000
0010
0000
,
1000
0010
1000
0010
,
1000
0010
0000
0000
,
0100
0001
0100
0001
,
0100
0000
0000
0000
,
0001
0010
0001
0010
,
0001
0010
0000
0000
,
0100
1000
0100
1000
,
0100
0000
0000
0000
,
1000
0010
1000
0010
,
1000
0010
0000
0000
,
0100
0001
0100
0001
,
0100
0000
0000
0000
,
0001
0010
0001
0010
,
0001
0010
0000
0000
,
0100
1000
0100
1000
,
0100
0000
1000
0001
,
0200
0000
0000
0000
,
0000
0000
0000
0301
,
0020
0000
0230
0000
,
2300
0000
3020
0000
,
0230
0000
0000
0000
,
0000
0000
0000
0301
,
0020
0000
0130
0000
,
1000
0000
0010
0000
,
0100
0000
0001
0100
,
0010
0000
1000
0000
,
0100
0000
0010
0000
,
0001
0000
1000
0002
,
2000
0000
0000
0000
,
0000
0000
0000
0000
,
3003
0000
0000
0000
;
