#TITLE:The Kumatei;
#SUBTITLE:;
#ARTIST:Jaql;
#TITLETRANSLIT:;
#SUBTITLETRANSLIT:;
#ARTISTTRANSLIT:;
#CRChallenge:;
#BANNER:kumatei.png;
#BACKGROUND:kumatei-bg.png;
#LYRICSPATH:;
#CDTITLE:;
#MUSIC:kumatei.ogg;
#OFFSET:0.000;
#SAMPLESTART:15.299;
#SAMPLELENGTH:12.000;
#SELECTABLE:YES;
#DISPLAYBPM:70.000:140.000;
#BPMS:0.000=70.044,58.000=140.088,122.000=70.044,138.250=560.352,152.250=280.176;
#STOPS:;
#BGCHANGES:;
#NOTES:
     dance-single:
     Renard:
     Medium:
     10:
     0.709,0.954,0.341,0.011,1.000:
0000
0000
0000
0000
,
0000
0000
0000
0000
,
0000
0000
0000
0000
,
0000
0000
0000
0000
,
0001
1000
0100
0010
0001
0000
0000
0000
0000
0000
0000
0000
1011
0000
0000
0000
0001
0000
0000
0000
0001
0000
0000
0000
1000
0001
0100
0000
0001
0000
0000
0000
,
0001
1000
0100
0000
1000
0000
0000
0000
0001
0000
0100
0001
1000
0000
0100
0000
1000
0001
0010
0000
0100
0000
1000
0000
0001
0000
0000
0100
0001
1000
0100
0000
,
0000
1000
0001
0100
0001
0000
0000
1000
0100
1000
0001
0000
0100
0001
1000
0000
1000
0000
0000
0000
1000
0000
0000
0000
0001
1000
0010
0000
1000
0000
0000
0000
,
1000
0001
0010
0000
0001
0000
0000
0000
1000
0000
0010
1000
0001
0000
0010
0000
0001
1000
0100
0000
0010
0000
0001
0000
1000
0000
0000
0010
1000
0001
0010
0000
,
0000
0001
1000
0010
1000
0000
0000
0001
0010
0001
1000
0000
0010
1000
0001
0000
0001
0010
0100
1000
0001
0000
1000
0100
0010
0001
1000
0000
0001
0010
0100
1000
,
0001
0000
1000
0100
0010
0001
1000
0000
0001
0000
0100
0010
1000
0000
0010
0000
0100
0000
0001
0000
1000
0100
0010
0000
1001
0000
0100
0000
1001
0000
0000
0000
,
0001
0000
0100
0001
0100
0000
0001
1000
0001
0000
1000
0100
1000
0000
0001
0000
1000
0100
0010
0001
1000
0000
0001
0010
0100
1000
0001
0000
1000
0100
0010
0001
,
1000
0000
0001
0010
0100
1000
0001
0000
1000
0000
0010
0100
0001
0000
0100
0000
0010
0000
1000
0000
0001
0010
0100
0000
1001
0000
0010
0000
1001
0000
0000
0000
,
1000
0000
0010
1000
0010
0000
1000
0001
1000
0000
0001
0010
0001
0000
1000
0000
0001
0000
0100
0001
0100
0000
0010
1000
0100
0010
0001
0000
0000
0000
0000
0000
,
0010
0000
0100
0000
1000
0100
1000
0000
0001
0000
0100
0000
0010
0000
0000
0000
0000
0000
1000
0001
0010
0000
0100
1000
0001
0100
0010
0000
0000
0000
0000
0000
,
0111
1001
1110
1001
1000
0000
1000
0000
,
0001
1000
0010
0000
1000
0000
0000
0000
1000
0001
0010
0000
0001
0000
0000
0000
,
1000
0000
0010
1000
0001
0000
0010
0000
0001
1000
0100
0000
0010
0000
0001
0000
,
1000
0000
0000
0010
1000
0001
0010
0000
0000
0001
1000
0010
1000
0000
0000
0001
,
0010
0001
1000
0000
0010
1000
0001
0000
0001
0000
0000
0000
0001
0000
0000
0000
,
1000
0001
0100
0000
0001
0000
0000
0000
0001
1000
0100
0000
1000
0000
0000
0000
,
0001
0000
0100
0001
1000
0000
0100
0000
1000
0001
0010
0000
0100
0000
1000
0000
,
0001
0000
0000
0100
0001
1000
0100
0000
0000
1000
0001
0100
0001
0000
0000
1000
,
0100
0000
1000
0001
1000
0000
0001
0000
0100
0001
1000
0010
1000
0000
0001
0100
,
0010
1000
0001
0000
0100
0001
1000
0010
1000
0000
0001
0100
0010
1000
0001
0000
,
1000
0000
0100
0010
0001
0000
0010
0000
0100
1000
0100
0010
0001
0000
0010
0001
,
0010
0100
1000
0000
0100
1000
0100
0010
0001
0010
0100
1000
0100
0010
0001
1000
,
0001
0000
0100
0000
0010
1000
0001
0000
0100
0001
1000
0010
1000
0000
0001
0100
,
0010
1000
0001
0000
0100
0001
1000
0010
1000
0000
0001
0100
0010
1000
0001
0000
,
1000
0000
0100
0010
0001
0000
0010
0000
0100
1000
0100
0010
0001
0000
0010
0001
,
0010
0100
1000
0000
0100
1000
0100
0010
0001
0010
0100
1000
0100
0010
0001
1000
,
0001
0000
0100
0000
0010
1000
0001
0000
1010
0100
1010
0000
0011
0100
0011
0000
,
1000
0010
0100
0001
0010
0010
0100
0100
1000
0001
0110
0000
1000
0001
0110
0000
,
0001
1000
0110
0000
1000
0001
0110
0000
0011
0100
0011
0100
1010
0100
1010
0000
,
1010
0100
1010
0000
0011
0100
0011
0000
1001
0100
1010
0000
1010
0100
0011
0000
,
1001
0000
0100
0000
0010
0000
1000
0000
0200
0000
0000
0000
1300
0000
0000
0001
0010
0100
1000
0000
0000
0000
0000
0000
0000
0000
0000
0000
0000
0000
0000
0000
,
0000
0000
0000
0000
,
0000
0000
0000
0000
,
0000
1M11
0000
0000
0000
0000
0000
0000
0000
0000
0000
0000
0000
0000
0000
0000
,
0000
11M1
0000
0000
0000
0000
0000
0000
0000
0000
0000
0000
0000
0000
0000
0000
;
#NOTES:
     dance-single:
     Renard:
     Easy:
     8:
     0.428,0.548,0.213,0.021,0.213:
0000
0000
0000
0000
,
0000
0000
0000
0000
,
0001
0000
0001
0000
0010
0000
0010
0000
0100
0000
0000
0000
1000
1000
1000
0000
,
0001
0000
0001
0000
0010
0000
0010
0000
0100
0000
0000
0000
1000
1000
1000
0000
,
0002
0000
0000
1003
1001
0100
1010
0100
,
0011
0000
0100
0000
0001
0100
0010
1000
0100
0000
0011
0000
0100
0000
1010
0000
,
0100
0000
0011
0000
0100
0001
0100
0010
1000
0000
1010
0000
0100
0000
0101
0000
,
1000
0000
1001
0000
0001
0010
0100
1000
0001
0000
0101
0000
1000
0000
1001
0000
,
1000
0000
0100
0000
1000
0100
1000
0000
0001
0000
0101
0000
0010
0000
0101
0000
,
1000
0101
0010
0101
1000
1100
0010
1100
,
0001
1100
0010
1100
1000
1000
0001
0001
,
0100
0000
0100
0000
0010
0000
0010
0000
1000
0010
1000
0010
1000
0010
1000
0000
,
0001
0100
0001
0100
0001
0100
0001
0000
0000
1000
0100
0000
0010
0001
0000
0000
,
0010
0100
1000
0001
0010
0001
1000
0000
0000
0100
1000
0000
0001
0010
0000
0000
,
0002
1003
0001
1000
,
0100
1000
0100
0000
1000
0001
1000
0000
,
0001
0100
0001
0100
0000
0001
0010
0000
,
0100
1000
0001
0000
0000
1000
0100
0000
,
0010
0001
1000
0001
0000
0000
0100
0000
,
0001
1000
0001
0000
1000
0100
1000
0000
,
0001
0000
0100
0010
1000
0000
0010
1000
,
0010
0000
0100
0001
0100
0000
0001
1000
,
0100
1000
0001
1000
0100
0000
0100
1000
,
0001
0000
0001
0100
0010
0000
0010
1000
,
0100
0000
0100
0010
0001
0000
0001
0000
,
1000
0000
0010
0000
0100
0000
0001
0000
0100
0001
0100
0001
0100
0001
0100
0001
,
0100
0100
0100
0000
0010
1000
0010
0000
,
1000
0100
1000
0000
0100
0010
0100
0000
,
0010
0001
0010
0000
0001
1000
0001
0000
,
1000
0000
0100
0000
0010
0000
0001
0000
1000
0001
1000
0001
1000
0001
1000
0000
,
0010
0010
0010
0000
1000
1000
0010
0010
,
0100
0001
1000
0100
0010
0001
0010
0100
1000
0000
1000
0000
0010
0000
0010
0000
,
0100
0001
0100
0010
1000
0000
1000
0000
0010
0000
0100
0000
0001
0000
0100
0000
,
0010
0000
0010
0000
1000
0100
0010
0001
0010
0000
0010
0000
0001
0000
0010
0000
,
0100
1000
0100
0010
0001
0000
0010
0000
0000
0000
0000
0000
0000
0000
0000
0000
,
0000
0000
0000
0000
,
0000
0000
0000
0000
,
0000
0000
0000
0000
,
0000
1001
0000
0000
0000
0000
0000
0000
0000
0000
0000
0000
0000
0000
0000
0000
;
#NOTES:
     dance-single:
     Renard:
     Beginner:
     5:
     0.319,0.386,0.107,0.000,0.005:
0000
0000
0000
0000
,
0000
0000
0000
0000
,
0001
0001
1000
1000
0010
0000
0000
0000
,
1000
1000
0001
0001
0100
0000
0010
1000
,
0001
0000
0000
1000
0001
0001
0100
0100
,
0010
0010
0000
1000
0010
0000
0100
0001
,
1000
0100
1000
0001
0010
0000
0001
1000
,
0010
0000
0010
0100
0001
0000
0001
1000
,
0100
0100
1000
1000
0001
0000
0001
0100
,
0010
0100
0001
0001
1000
0100
0010
0001
,
0000
1000
0010
0100
0100
1001
0010
1001
,
0100
1001
0010
1001
0001
0100
0010
1000
,
0000
0001
0001
0001
0000
1000
0001
0000
,
0100
0100
0100
0100
0000
0010
1000
0000
,
0001
1000
0001
0001
,
1000
0000
1000
0000
0001
0100
0001
0000
,
1000
1000
0001
0001
,
1000
0100
1000
0000
0001
0100
0001
0000
,
1000
0100
0010
0001
1000
0000
1000
0000
,
0001
0100
0001
0000
1000
0100
1000
0000
,
0001
0010
0100
1000
,
0001
0100
0001
0000
1000
0100
1000
0001
,
0010
0100
1000
0000
0001
0100
0001
0000
,
1000
0100
1000
0000
0001
0100
0001
0000
,
1000
0100
1000
0000
0001
0000
0001
0000
,
1000
0000
1000
0000
0010
0100
0010
0100
,
0001
0000
0001
0000
1000
0001
1000
0000
,
0100
1000
0100
0000
1000
0001
1000
0000
,
0001
0100
0001
0000
1000
0000
0100
0000
,
0010
0000
0001
0000
1000
0010
1000
0010
,
0100
0000
0100
0000
0001
0001
1000
1000
,
0100
0100
0010
0010
0001
0001
1000
1000
,
0010
0010
0100
0000
0001
0001
1000
1000
,
0100
0100
0010
0010
0001
0101
1000
1100
,
0001
0101
1100
0000
1001
0000
0000
0000
,
0000
0000
0000
0000
,
0000
0000
0000
0000
,
0000
0000
0000
0000
,
0000
1001
0000
0000
0000
0000
0000
0000
0000
0000
0000
0000
0000
0000
0000
0000
;
