#TITLE:The Gay Priest;
#SUBTITLE:;
#ARTIST:Scott El;
#TITLETRANSLIT:;
#SUBTITLETRANSLIT:;
#ARTISTTRANSLIT:;
#GENRE:;
#CRChallenge:;
#MENUCOLOR:;
#BANNER:gay.png;
#BACKGROUND:gay-bg.png;
#LYRICSPATH:;
#CDTITLE:!cdtitle.png;
#MUSIC:gay.ogg;
#OFFSET:0.000;
#SAMPLESTART:67.745;
#SAMPLELENGTH:12.000;
#SELECTABLE:YES;
#LISTSORT:;
#BPMS:0.000=170.000;
#STOPS:;
#TICKCOUNT:0.000=2;
#BGCHANGES:;
#KEYSOUNDS:;
#ATTACKS:;
#NOTES:
     dance-single:
     Renard:
     Medium:
     9:
     0.609,0.582,0.322,0.086,0.070:
0000
0000
0000
0000
,
0000
0000
0000
0000
,
0000
0000
0000
0000
,
0000
0000
0000
0000
,
1000
0010
0100
0000
0001
0010
0100
0000
,
1000
0100
0010
0000
0001
0100
0010
0000
,
1000
0010
0100
0001
0010
0100
1000
0100
,
0020
0000
0000
0000
,
0031
0000
0000
0000
0010
0001
0010
0000
0001
0000
0000
0000
0000
0000
1000
0000
,
0100
0010
0001
1000
0100
0000
0000
0000
,
0010
0000
0010
0001
0010
0000
0100
0000
,
1000
0000
0000
0000
0000
0000
0001
1000
0001
0000
0000
0000
0000
0000
0000
0000
,
1000
0000
0000
0000
0010
1000
0010
0000
0100
0000
0000
0000
0000
0000
0001
0000
,
0010
0100
1000
0100
0010
0000
0000
0000
,
0010
0000
0010
0001
0010
0000
0100
0000
,
1000
0000
0000
0000
0000
0000
0001
0100
0001
0000
0000
0000
0000
0000
0000
0000
,
1100
0000
0010
0001
1000
0000
0110
0000
,
0010
1000
0100
0010
0001
0000
0011
0000
,
0001
0000
0010
0100
1000
0000
1001
0000
,
0110
0000
0000
0000
0010
0000
1000
0010
1000
0000
0000
0000
0110
0000
0000
0000
,
1000
0000
0010
0100
0001
0000
0011
0000
,
0001
0010
0100
1000
0001
0000
1001
0000
,
1000
1000
0100
0010
0001
0000
0001
0001
,
0020
0230
2000
3300
,
0010
1000
0100
1000
0010
0000
1010
0000
,
1000
0010
0100
0001
0010
0000
0011
0000
,
0001
0010
0100
1000
0001
0000
0100
0010
,
1000
0000
0000
0000
0100
0000
1000
0100
1000
0000
0000
0000
0011
0000
0000
0000
,
0100
1000
0001
0100
0001
0000
0101
0000
,
0001
0010
0100
1000
0001
0000
1001
0000
,
1000
0001
0010
0100
1000
0001
0100
0010
,
1000
0000
0000
0000
0001
0001
0001
0000
,
1000
0100
1000
0100
0010
0100
0010
0100
,
0010
0001
0010
0100
1000
0001
0010
0000
,
0001
0010
0001
0010
0100
0010
0100
0010
,
0100
1000
0100
0010
0001
0010
0100
0000
,
1000
0010
1000
0010
0100
0010
0100
0010
,
0100
0001
0100
0010
1000
0010
0100
0000
,
0001
0100
0001
0100
0010
0100
0010
0100
,
0020
0000
0000
0000
,
1030
1000
0010
0100
0001
0001
0010
0100
,
1000
1000
0100
0010
0001
0001
1000
0010
,
0100
0100
0010
1000
0100
0100
1000
0010
,
0100
0100
0010
1000
0100
0010
0001
0000
,
1000
1000
0001
0010
0001
0001
0010
0100
,
1000
1000
0100
0010
0100
0100
1000
0010
,
0100
0100
0010
1000
0100
0100
0010
0010
,
0001
0000
0000
1001
,
0110
0000
0000
0000
0010
1000
0010
0000
1000
0000
0000
0000
0100
0000
0010
0000
,
0001
0010
0100
1000
0001
0000
1001
0000
,
1000
0000
0100
0010
0001
0000
1001
0000
,
1010
0000
0000
0000
0100
0000
0001
0100
0001
0000
0000
0000
0101
0000
0000
0000
,
0100
0000
0000
0000
0001
0010
0001
0000
0010
0000
0000
0000
0100
0000
1000
0000
,
0001
0100
0010
1000
0001
0000
1001
0000
,
1000
0000
0100
0010
0001
0000
0011
0000
,
1100
0000
0000
0000
1000
0000
0001
0100
0001
0000
0000
0000
0100
0000
0000
0000
,
1010
0000
0000
0000
0001
0100
0001
0000
0100
0000
0000
0000
0010
0000
1000
0000
,
0100
0010
0001
0010
0100
0000
0110
0000
,
1100
0000
1000
0001
0100
0000
0101
0000
,
1010
0000
0000
0000
1000
0000
0010
1000
0010
0000
0000
0000
1010
0000
0000
0000
,
0110
0000
0000
0000
0100
0000
0001
0100
0001
0000
0000
0000
0100
0000
0001
0000
,
0010
0100
1000
0001
0010
0000
0110
0000
,
0100
0100
1000
1000
0001
0000
0010
0010
,
0002
2003
0002
3003
;
#NOTES:
     dance-single:
     Renard:
     Hard:
     11:
     0.655,0.855,0.311,0.086,0.344:
0000
0000
0000
0000
,
0000
0000
0000
0000
,
0000
0000
0000
0000
,
0000
0000
0000
0000
,
0001
0100
0010
0000
1000
0100
0010
0000
,
0001
0010
0100
0000
1000
0010
0100
0000
,
0001
0100
0010
1000
0100
0010
0001
0010
,
0200
0000
0000
0000
,
1300
0000
0000
0000
0100
1000
0100
0000
1000
0000
0000
0000
0000
0000
0001
0000
,
0010
0100
1000
0001
0010
0000
0000
0000
,
0100
0000
0100
1000
0100
0000
0010
0000
,
0001
0000
0000
0000
0000
0000
1000
0001
1000
0000
0000
0000
0000
0000
0000
0000
,
0001
0000
0000
0000
0100
0001
0100
0000
0010
0000
0000
0000
0000
0000
1000
0000
,
0100
0010
0001
0010
0100
0000
0000
0000
,
0100
0000
0100
1000
0100
0000
0010
0000
,
0001
0000
0000
0000
0000
0000
1000
0010
1000
0000
0000
0000
0000
0000
0000
0000
,
0011
0000
0100
1000
0001
0000
0110
0000
,
0100
0001
0010
0100
1000
0000
1100
0000
,
1000
0000
0100
0010
0001
0000
1001
0000
,
0110
0000
0000
0000
0100
0000
0001
0100
0001
0000
0000
0000
0110
0000
0000
0000
,
0001
0000
0100
0010
1000
0000
1100
0000
,
1000
0100
0010
0001
1000
0000
1001
0000
,
0001
0001
0010
0100
1000
0000
1000
1000
,
0200
0320
0002
0033
,
0100
0001
0010
0001
0100
0000
0101
0000
,
0001
0100
0010
1000
0100
0000
1100
0000
,
1000
0100
0010
0001
1000
0000
0010
0100
,
0001
0000
0000
0000
0010
0000
0001
0010
0001
0000
0000
0000
1100
0000
0000
0000
,
0010
0001
1000
0010
1000
0000
1010
0000
,
1000
0100
0010
0001
1000
0000
1001
0000
,
0001
1000
0100
0010
0001
1000
0010
0100
,
0001
0000
0000
0000
1MM1
1MM1
1MM1
0000
,
0101
0000
0000
0000
0000
0000
0101
0000
0000
0000
0000
0000
0001
0100
0001
0100
,
0001
0000
0000
0100
0000
0000
0010
0000
0000
1000
0000
0000
0100
0010
0100
0010
,
0100
0000
0000
0000
0010
0000
0001
0000
0000
0000
1000
0000
0100
1000
0001
1000
,
0001
0000
0000
0100
0000
0000
0010
0000
0000
1000
0000
0000
0001
0100
0001
0100
,
0001
0000
0000
0000
0000
0000
1010
0000
0000
0000
0000
0000
1000
0100
1000
0100
,
1000
0000
0000
0100
0000
0000
0010
0000
0000
0001
0000
0000
1000
0100
1000
0100
,
1000
0000
0000
0000
0000
0000
1100
0000
0000
0000
0001
0000
0010
0001
0010
0000
,
0002
0000
0000
0000
,
1003
0010
1000
0000
0010
0100
0010
0000
0100
0001
0100
0000
0001
0010
0001
0000
,
1000
0100
1000
0000
0100
0010
0100
0000
0010
0001
0010
0000
0001
1000
0001
0000
,
1000
0010
1000
0000
0010
0100
0010
0000
0100
0001
0100
0000
0001
0010
0001
0000
,
1000
0100
1000
0000
0100
0010
0100
0000
0010
0001
0010
0000
0001
1000
0001
0000
,
1000
0010
1000
0000
0010
0100
0010
0000
0100
0001
0100
0000
0001
0010
0001
0000
,
1000
0100
1000
0000
0001
0010
0001
0000
1000
0010
1000
0000
0001
0100
0001
0000
,
1000
0010
1000
0000
0001
0010
0001
0000
1000
0100
1000
0000
0001
0100
0001
0000
,
1001
0000
0000
0110
,
0100
0000
0000
0000
0001
0010
0001
0010
0001
0000
0000
0000
1000
0000
0100
0000
,
0010
0001
1000
0010
0100
0000
0001
0000
,
1000
0000
0100
0010
0001
0000
1000
0000
,
0010
0000
0000
0000
0100
0000
0001
0100
0001
0000
0000
0000
0100
0000
0000
0000
,
0010
0000
0000
0000
1000
0100
1000
0100
1000
0000
0000
0000
0100
0000
0010
0000
,
0001
1000
0010
0100
0001
0000
1000
0000
,
0010
1000
0001
0010
0100
0000
1000
0000
,
0100
0000
0000
0000
0000
0000
0010
0001
0010
0000
0000
0000
0001
0000
0000
0000
,
1000
0000
0000
0000
0010
0100
0010
0100
0010
0000
0000
0000
0100
0000
0001
0000
,
0010
0100
1000
0100
0010
0000
0110
0000
,
0011
0000
0001
1000
0010
0000
1010
0000
,
0101
0000
0000
0000
0001
0000
0100
0001
0100
0000
0000
0000
0101
0000
0000
0000
,
0110
0000
0000
0000
0010
1000
0010
1000
0010
0000
1000
0000
0010
0000
1000
0000
,
0100
0010
0001
1000
0100
0000
0110
0000
,
0010
0010
0001
0001
1000
0000
0100
0100
,
2000
3002
2000
3003
;
#NOTES:
     dance-single:
     JS:
     Easy:
     6:
     0.452,0.445,0.268,0.097,0.000:
0000
0000
0000
0000
,
0000
0000
0000
0000
,
0000
0000
0000
0000
,
0000
0000
0000
0000
,
1000
0000
0100
0000
0010
0000
0001
0100
,
0001
0000
0100
0000
0010
0000
1000
0100
,
1000
0000
0010
0100
0001
0000
0100
0010
,
2002
0000
0000
3003
,
1000
0100
0010
0000
,
0001
0100
0010
1000
0001
0000
0000
0000
,
1000
0000
1000
0100
0010
0000
0100
0000
,
0010
0001
0100
0010
1000
0000
0000
0000
,
0001
0100
0010
0000
,
1000
0100
0010
0001
1000
0000
0000
0000
,
0001
0000
0001
0100
0010
0000
0100
0000
,
0010
1000
0100
0010
0001
0000
0000
0000
,
1001
1000
0100
0000
,
0010
0100
1000
0001
1000
0000
0000
0000
,
0100
0000
0010
0001
0100
0000
0010
0000
,
0100
0001
0010
0100
1000
0000
0000
0000
,
1000
0001
0100
0000
,
0010
0100
0001
1000
0001
0000
0000
0000
,
1000
0100
1000
0001
1000
0000
0010
0100
,
0001
0100
0010
0000
,
0011
0110
1100
0000
,
0100
1000
0010
0100
0001
0000
0000
0000
,
1000
0000
0100
0010
0100
0000
1000
0000
,
0010
0100
0001
0000
,
1010
0110
0101
0000
,
0100
0001
0010
0100
1000
0000
0000
0000
,
0001
0100
0010
0000
1000
0100
0010
0000
,
1002
0000
0000
0000
0100
0100
0103
0000
,
0001
0000
1000
0100
0000
0100
0010
0000
,
0001
0000
1000
0100
0000
0010
0001
0000
,
1000
0000
0001
0100
0000
0100
0010
0000
,
1000
0000
0001
0100
0000
0010
1000
0000
,
0001
0000
1000
0010
0000
0010
0100
0000
,
0001
0000
1000
0010
0000
0100
0001
0000
,
1000
0000
0001
0010
0000
0100
1000
0000
,
2002
0000
0000
0000
0000
3003
0000
0000
,
1000
1000
0100
0100
,
0001
0001
0100
0100
,
1000
1000
0010
0010
,
0001
0000
0001
0000
0010
0000
1000
1000
,
0001
0001
0100
0100
,
1000
1000
0100
0100
,
0001
0001
0010
0010
,
2002
0000
0000
3003
,
1010
1001
0101
0000
,
0100
0001
0010
0100
1000
0000
0000
0000
,
1100
0000
0100
0010
0001
0000
0100
0000
,
0010
0100
0001
1000
0100
0000
0000
0000
,
0011
1001
1100
0000
,
0100
1000
0010
0100
0001
0000
0000
0000
,
0101
0000
0100
0010
1000
0000
0100
0000
,
0010
0100
1000
0001
0100
0000
0000
0000
,
1100
0011
1001
0000
,
1000
0100
0010
0001
1000
0000
0000
0000
,
0001
0000
0010
0100
1000
0000
0010
0000
,
0100
0001
1000
0001
0010
0000
0000
0000
,
0101
1010
1001
0000
,
0001
0100
0010
1000
0001
0000
0000
0000
,
1000
0100
0010
0001
0100
0000
0010
1000
,
0100
2000
0002
3003
;
#NOTES:
     dance-single:
     JS:
     Beginner:
     3:
     0.288,0.308,0.064,0.129,0.000:
0000
0000
0000
0000
,
0000
0000
0000
0000
,
0000
0000
0000
0000
,
0000
0000
0000
0000
,
1000
1000
0100
0000
,
0100
0100
0010
0000
,
0010
0010
0001
0000
,
2002
0000
0000
3003
,
1000
0100
0010
0000
,
0001
0001
1000
0000
,
0001
0100
0010
1000
,
0100
0010
0001
0000
,
0001
0100
0010
0000
,
1000
1000
0001
0000
,
0001
0100
0010
1000
,
0100
0010
0001
0000
,
1000
0010
0100
0000
,
0001
0001
0010
0000
,
0001
0100
0010
1000
,
0010
0100
0001
0000
,
0001
0010
0100
0000
,
1000
1000
0010
0000
,
2002
0000
0000
0000
,
0000
0000
0000
3003
,
1000
0001
0100
0000
,
0010
0010
1000
0000
,
0001
1000
0100
0010
,
0001
1000
0001
0000
,
0001
1000
0100
0000
,
0010
0010
0001
0000
,
1000
0001
0100
0010
,
2002
0000
3003
0000
,
1000
0010
1000
0000
,
0001
0100
0001
0000
,
0001
0010
0001
0000
,
1000
0100
1000
0000
,
0001
0100
0001
0000
,
1000
0010
1000
0000
,
0001
0010
0001
0000
,
2002
0000
0000
3003
,
1000
1000
0100
0000
,
0100
0100
0010
0000
,
0010
0010
0100
0000
,
0100
0100
1000
0000
,
0001
0001
0100
0000
,
0100
0100
0010
0000
,
0010
0010
0100
0000
,
0220
0000
0000
0330
,
1000
0010
0100
0000
,
0001
0001
1000
0000
,
0001
0100
0010
1000
,
0100
0010
0001
0000
,
0001
0010
0100
0000
,
1000
1000
0001
0000
,
1000
0010
0100
0001
,
0010
0100
1000
0000
,
0001
0100
0010
0000
,
1000
1000
0001
0000
,
1000
0010
0100
0001
,
0010
0100
1000
0000
,
1000
0100
0010
0000
,
0001
0001
1000
0000
,
2002
0000
0000
0000
,
0000
0000
0000
3003
;
