#TITLE:The Final Daybreak;
#SUBTITLE:;
#ARTIST:Kettu;
#TITLETRANSLIT:;
#SUBTITLETRANSLIT:;
#ARTISTTRANSLIT:;
#CRChallenge:;
#BANNER:daybreak.png;
#BACKGROUND:daybreak-bg.png;
#LYRICSPATH:;
#CDTITLE:!CDtitle.png;
#MUSIC:daybreak.ogg;
#OFFSET:0.000;
#SAMPLESTART:37.200;
#SAMPLELENGTH:12.000;
#SELECTABLE:YES;
#BPMS:0.000=160.000,164.000=80.000,179.500=160.000;
#STOPS:179.500=0.188
;
#BGCHANGES:;
#NOTES:
     dance-single:
     Renard:
     Challenge:
     10:
     0.866,1.000,1.000,0.132,0.989:
0000
0000
0000
0000
,
1000
0000
0000
0010
0000
0000
0001
0000
1000
0000
0000
0100
0000
0000
0001
0000
,
0010
0000
0000
0100
0000
0000
1000
0000
0000
0001
0000
0001
0010
0000
0100
0000
,
1000
0000
0000
0010
0000
0000
0100
0000
0010
0000
0000
0100
0000
0000
1000
0000
,
0100
0000
0000
0001
0000
0000
0010
0000
0000
0100
0000
0100
0001
0000
0100
0000
,
1000
0000
0000
0010
0000
0000
0100
0000
1000
0000
0000
0000
0100
0000
0000
0000
,
0010
0000
1000
0010
1000
0010
0100
0001
0100
0001
1000
0100
0010
0000
0000
0000
,
0001
0010
0100
1000
0001
0100
0010
1000
0100
0000
0000
1000
0000
0000
0010
0000
,
0100
0001
0100
0010
1000
0100
0010
0001
1000
0000
0000
0010
0000
0000
0100
0000
,
0001
0000
1000
0010
0100
0000
0110
0000
0010
0000
0000
1000
0000
0000
1010
0000
,
1000
0000
0000
0100
0000
0000
1100
0000
0011
0000
0000
0000
1100
0000
0000
0000
,
0100
1000
0001
0010
0100
1000
0100
0010
0001
0000
0000
0010
0000
0000
0100
0000
,
1000
0001
0100
0010
1000
0010
0100
0001
0100
0000
0000
0010
0000
0000
0010
0000
,
1000
0000
0001
0100
0010
0000
1000
0000
0010
0000
0000
1000
0000
0000
0010
0000
,
0100
0000
0000
0101
0000
0000
0100
0000
0010
0000
0000
1010
0000
0000
1000
0000
,
0100
0000
0010
0000
0001
0000
0010
0000
0100
0000
1000
0100
0010
0001
0010
0100
,
1000
0000
0001
0010
0100
0000
0000
0000
1000
0100
0010
0001
1000
0000
0000
0000
,
2000
0000
0000
0200
0000
0000
0010
0000
0001
0000
0000
0000
3311
0000
0000
0000
,
0002
0000
0000
0200
0000
0000
0010
0000
1303
0000
0000
0000
0001
0000
0000
0000
,
0001
0100
0010
1000
0100
0010
0001
0010
0100
1000
0001
0100
0010
1000
0100
0010
,
0001
0010
0100
1000
0001
0100
0010
1000
0100
0010
0000
0001
0010
0000
0000
0000
,
0100
0000
1000
0000
0001
0000
0100
0000
0010
0000
0000
1000
0000
0000
0100
0000
,
2000
0200
0020
0032
0320
3200
2300
0233
3311
0000
0000
0000
,
0010
1000
0010
1000
0010
0000
1000
0000
0001
0000
0100
0000
0010
0000
1000
0000
,
0010
1000
1000
0001
0100
0100
0010
0000
0000
1001
0000
0000
,
0001
0000
0100
1000
0100
0000
0010
0000
0110
0000
0000
1010
0000
0000
0110
0000
,
0110
0000
0000
0101
0000
0000
0101
0000
0110
0000
0000
0101
0000
0000
0110
0000
,
1001
0000
0000
1010
0000
0000
1100
0000
1001
0000
0000
0101
0000
0000
0011
0000
,
0110
0000
0000
0011
0000
0000
1100
0000
0110
0000
0000
0000
1001
0000
0000
0000
,
1000
0000
0010
0001
0010
0000
0100
0000
0110
0000
0000
0101
0000
0000
0110
0000
,
0110
0000
0000
1010
0000
0000
1010
0000
0110
0000
0000
1010
0000
0000
0110
0000
,
1001
0000
0000
0101
0000
0000
0011
0000
1001
0000
0000
1010
0000
0000
1100
0000
,
0110
0000
0000
1100
0000
0000
0011
0000
1100
0000
0000
0000
0001
0010
0100
1000
,
0001
0000
0000
0100
0000
0000
0010
0000
1000
0000
0000
0010
0000
0000
0100
0000
,
0001
0000
0000
0010
0000
0000
0100
0000
1000
0100
0000
0100
1000
0000
0001
0000
,
0010
0000
0000
0100
0000
0000
1000
0000
0010
0000
0000
0100
0000
0000
1000
0000
,
0100
0000
0000
0001
0000
0000
0010
0000
0100
0010
0000
0010
0001
0000
0010
0000
,
0100
0000
0000
1000
0000
0000
0010
0000
0100
0000
0000
0001
0000
0000
0010
0000
,
0100
0000
0000
0010
0000
0000
0001
0000
1000
0010
0000
0010
0100
0000
0001
0000
,
1000
0000
0000
0010
0000
0000
0100
0000
0001
0000
0000
0100
0000
0000
0010
0000
,
1000
0010
0100
0001
1000
0100
0010
0001
1000
0000
0000
0000
1001
0000
0000
0000
,
0001
0000
0100
0001
0000
1000
0001
0000
0100
0000
0000
0000
1001
0000
0000
0000
1000
0000
0001
1000
0000
0010
1000
0000
0010
0000
0000
0000
1001
0000
0000
0000
,
0001
0100
0010
1000
0010
0100
0001
1000
0100
0010
0001
0010
0100
1000
0001
0010
0100
1000
0010
0100
0001
1000
0100
0010
0001
0010
0000
0100
1000
0000
0000
0000
,
0001
0000
0000
0000
0000
0000
0000
0000
0000
0000
0000
0000
0010
0000
0000
0000
0000
0000
0100
0000
0000
0000
0000
0000
1000
0000
0000
0000
0000
0000
0000
0000
0000
0000
0000
0000
0001
0000
0000
0000
0000
0000
0000
0000
0000
0000
0000
0000
0100
0000
0000
0000
0000
0000
0000
0000
0000
0000
0000
0000
0000
0000
0000
0000
0000
0000
0010
0000
0000
0000
0000
0000
0000
0000
0000
0000
0000
0000
0000
0000
0000
0000
0000
0000
1000
0000
0000
0000
0000
0000
0000
0000
0000
0000
0000
0000
0010
0000
0000
0000
0000
0000
0000
0000
1000
0000
0000
0000
0000
0000
0000
0000
0001
0000
0000
0000
0000
0000
0000
0000
0100
0000
0000
0000
0000
0000
0000
0000
0010
0000
0000
0000
0000
0000
0000
0000
1000
0000
0000
0000
0000
0000
0000
0000
0001
0000
0000
0000
0000
0000
0000
0000
0100
0000
0000
0000
0000
0000
0000
0000
0010
0000
0000
0000
0000
0000
0000
0000
0000
0000
0000
0000
0000
0000
0000
0000
0000
0000
0000
0000
0100
0000
0000
0000
0000
0000
0000
0000
0000
0000
0000
0000
,
0001
0000
0000
0000
0000
0000
0000
0000
0000
0000
0000
0000
1000
0000
0000
0000
0000
0000
0100
0000
0000
0000
0000
0000
0010
0000
0000
0000
0000
0000
0000
0000
0000
0000
0000
0000
0001
0000
0000
0000
0000
0000
0000
0000
0000
0000
0000
0000
0010
0000
0000
0000
0000
0000
0000
0000
0000
0000
0000
0000
0000
0000
0000
0000
0000
0000
0010
0000
0000
0000
0000
0000
0000
0000
0000
0000
0000
0000
0000
0000
0000
0000
0000
0000
0100
0000
0000
0000
0000
0000
0000
0000
0000
0000
0000
0000
1000
0000
0000
0000
0000
0000
0000
0000
0100
0000
0000
0000
0000
0000
0000
0000
0010
0000
0000
0000
0000
0000
0000
0000
0001
0000
0000
0000
0000
0000
0000
0000
0010
0000
0000
0000
0000
0000
0000
0000
0100
0000
0000
0000
0000
0000
0000
0000
1000
0000
0000
0000
0000
0000
0000
0000
0000
0000
0000
0000
0000
0000
0000
0000
0000
0000
0000
0000
0000
0000
0000
0000
1001
0000
0000
0000
0000
0000
0000
0000
0000
0000
0000
0000
0000
0000
0000
0000
0000
0000
0000
0000
0000
0000
0000
0000
,
0001
0000
0100
0010
1000
0000
0010
0000
0110
0000
0000
0101
0000
0000
0110
0000
,
1010
0000
0000
0110
0000
0000
1010
0000
1010
0000
0000
1100
0000
0000
1001
0000
,
1001
0000
0000
0011
0000
0000
0101
0000
1001
0000
0000
1010
0000
0000
1100
0000
,
1001
0000
0000
0101
0000
0000
0110
0000
1010
0000
0000
0000
1001
0000
0000
0000
,
1000
0000
0010
0100
0001
0000
0100
0000
0110
0000
0000
1010
0000
0000
0110
0000
,
0101
0000
0000
0110
0000
0000
0101
0000
0101
0000
0000
0011
0000
0000
1001
0000
,
1001
0000
0000
1100
0000
0000
1010
0000
1001
0000
0000
0101
0000
0000
0011
0000
,
1001
0000
0000
1010
0000
0000
0110
0000
0101
0000
0000
0000
0001
0100
0010
1000
,
0101
0000
0000
0000
;
