#TITLE:The Dream Master;
#SUBTITLE:;
#ARTIST:Sonitus Vir x Kitsune?;
#TITLETRANSLIT:;
#SUBTITLETRANSLIT:;
#ARTISTTRANSLIT:;
#CRChallenge:;
#BANNER:master.png;
#BACKGROUND:master-bg.png;
#LYRICSPATH:;
#CDTITLE:;
#MUSIC:master.ogg;
#OFFSET:0.000;
#SAMPLESTART:31.900;
#SAMPLELENGTH:12.000;
#SELECTABLE:YES;
#BPMS:0.000=117.038,38.000=300.000;
#STOPS:252.000=0.200
;
#BGCHANGES:;
#NOTES:
     dance-single:
     Renard:
     Medium:
     10:
     0.734,0.957,0.441,0.086,0.043:
0000
0000
0000
0000
,
0000
0000
0000
0000
,
0000
0000
0000
0000
,
0000
0000
0000
0000
,
1000
0100
1000
0010
1000
0001
1000
0100
,
1000
0100
0010
0001
1000
0000
0001
0000
0100
0000
0001
0000
0010
0000
0001
0000
,
1000
0000
0000
0000
0000
0000
0000
0000
0000
0000
0000
0000
0100
0000
0000
0000
0000
0000
0000
0000
0000
0000
0000
0000
0010
0000
0000
0000
0000
0000
0000
0000
0000
0000
0000
0000
0001
0000
0000
0000
0000
0000
0000
0000
0000
0000
0000
0000
0000
0000
0000
0000
0000
0000
1000
0000
0000
0000
0000
0000
0000
0000
0000
0000
0000
0000
0000
0000
0000
0000
0000
0000
0000
0000
0000
0000
0000
0000
0000
0000
0000
0002
0000
0000
0000
0000
0000
0000
0000
0000
0000
0000
0000
0000
0000
0000
0000
0000
0000
0000
0000
0000
0000
0000
0000
0000
0000
0000
0000
0000
0000
0000
0000
0000
0000
0000
0200
0000
0000
0000
0000
0000
0000
0000
0000
0000
0000
0000
0000
0000
0000
0000
0000
0000
0000
0000
0000
0000
0000
0000
0000
0000
0000
0000
0000
0000
0000
0000
0000
0000
0000
0000
0000
0000
0000
0000
0000
0000
0000
0000
0000
0000
0000
0000
0000
0000
0000
0000
0000
0000
0000
0000
0000
0000
0000
0000
0000
0000
0000
0000
0000
0000
0000
0000
0000
0000
0000
0000
0000
0000
0000
0000
,
0000
0000
0000
0000
,
0000
0000
0000
0000
,
0000
0000
0000
0000
0000
0000
0000
0000
0303
0000
0000
0000
0000
0001
0000
0000
1000
0000
0000
0000
0000
0000
0000
0000
0010
0000
0000
0000
0000
0000
0000
0000
,
0100
0000
0001
1000
0000
1000
0001
0000
,
0100
0010
1000
0100
,
0010
0000
0001
1000
0000
1000
0001
0000
,
0010
0100
1000
0001
,
0100
0000
0010
1000
0000
1000
0010
0000
,
1000
0000
0001
0100
0000
0001
0010
0100
,
0000
0000
1000
0100
0000
0100
1000
0000
,
0001
0010
0001
0010
,
0100
0000
1000
0001
0000
0001
1000
0000
,
0010
0100
0001
0010
,
0100
0000
1000
0001
0000
0001
0100
0000
,
0010
1000
0001
0010
,
0100
0000
1000
0001
0000
0001
0100
0001
,
0000
1000
0100
0010
0001
0010
0100
1000
,
0000
0100
0010
0001
0010
0100
1000
0100
,
0000
0010
0100
1000
0001
0100
0010
1000
,
0000
0001
0100
0010
1000
0010
0100
0001
,
0000
0100
0010
1000
0100
0010
0001
0010
,
0000
0100
1000
0100
0010
0001
0010
0100
,
0000
1000
0001
0100
0010
1000
0001
0100
,
0000
0010
1000
0001
0100
0010
1000
0100
,
0000
0010
0001
0000
1000
0100
0010
0001
,
0000
0010
0100
1000
0100
0010
0001
0010
,
0000
0100
0010
0001
1000
0010
0100
0001
,
0000
1000
0010
0100
0001
0100
0010
1000
,
0000
0010
0100
0001
0010
0100
1000
0100
,
0000
0010
0001
0010
0100
1000
0100
0010
,
0000
0001
1000
0010
0100
0001
1000
0010
,
0000
0100
0001
1000
0010
0100
0001
0010
,
0000
0100
1000
0100
2000
0000
0000
0000
,
0000
0000
0000
0000
,
0000
3100
0010
0001
0020
0000
0000
0000
,
0031
0000
0101
1001
,
0010
0000
0002
0000
,
0000
0000
0000
0000
,
0000
0013
0100
1000
0001
0010
0100
1000
,
0000
0000
0001
0000
,
1010
0000
2000
0000
,
0000
0000
0000
0000
,
0000
3100
0010
0001
0020
0000
0000
0000
,
0031
0000
0101
1001
,
0010
0000
0002
0000
,
0000
0000
0000
0000
,
0000
0013
0100
1000
0001
0010
0100
1000
,
0000
0000
0001
0000
,
0010
0101
0010
0101
,
0101
0110
0110
1100
,
1100
0110
1010
0000
,
1001
0000
0000
0000
0101
0000
0000
0001
,
0010
0100
1000
1010
,
1010
0110
0110
0101
,
0101
0011
0110
0000
,
1100
0000
1010
0000
,
MMMM
1010
0100
0011
,
0000
0011
0100
1010
,
0000
0000
1000
0000
0100
0010
0000
0000
,
0001
0010
0000
0000
0000
0000
0110
0000
,
0000
0000
1001
0000
0100
0010
0000
0000
,
0000
1010
0000
0100
,
0001
0010
0000
0100
1000
0100
0000
0000
,
0010
0001
0010
0100
,
0000
1001
0100
1010
,
0000
1010
0100
0011
,
0000
0000
0100
0000
0010
1000
0000
0000
,
0100
0010
0000
0000
0001
0000
0010
0000
,
0100
1000
0001
0010
,
0000
1001
0000
0000
0000
0001
0000
1000
,
0100
0000
0010
0001
0010
0001
0000
0010
,
0001
1000
0100
1000
0100
1000
0000
0100
,
0010
0001
1000
0010
1000
0010
0000
1000
,
0010
0100
0001
1000
0001
0100
0000
0001
,
0010
0100
1000
0001
0010
0001
0000
1000
,
0010
0100
0001
1000
0010
1000
0000
0001
,
0100
0010
1000
0100
1000
0100
0000
1000
,
0010
0100
0001
0010
0001
1000
0000
0001
,
0100
0001
0010
0001
0010
0001
0000
0010
,
0001
1000
0100
1000
0100
1000
0000
0100
,
0010
0001
1000
0010
1000
0010
0000
1000
,
0010
0100
0001
1000
0001
0100
0000
0001
,
0010
0100
1000
0001
0010
0001
0000
1000
,
0010
0100
0001
1000
0010
1000
0000
0001
,
0100
0010
1000
0100
1000
0100
0000
1000
,
0010
0100
0001
0010
0001
1000
0100
0010
,
0001
1001
0110
1001
;
#NOTES:
     dance-single:
     Renard:
     Easy:
     9:
     0.519,0.957,0.140,0.043,0.043:
0000
0000
0000
0000
,
0000
0000
0000
0000
,
0000
0000
0000
0000
,
0000
0000
0000
0000
,
1000
0100
1000
0010
1000
0001
1000
0100
,
1000
0100
0010
0001
1000
0000
0001
0000
0100
0000
0001
0000
0010
0000
0001
0000
,
1000
0000
0000
0000
0000
0000
0000
0000
0000
0000
0000
0000
0100
0000
0000
0000
0000
0000
0000
0000
0000
0000
0000
0000
0010
0000
0000
0000
0000
0000
0000
0000
0000
0000
0000
0000
0001
0000
0000
0000
0000
0000
0000
0000
0000
0000
0000
0000
0000
0000
0000
0000
0000
0000
1000
0000
0000
0000
0000
0000
0000
0000
0000
0000
0000
0000
0000
0000
0000
0000
0000
0000
0000
0000
0000
0000
0000
0000
0000
0000
0000
0002
0000
0000
0000
0000
0000
0000
0000
0000
0000
0000
0000
0000
0000
0000
0000
0000
0000
0000
0000
0000
0000
0000
0000
0000
0000
0000
0000
0000
0000
0000
0000
0000
0000
0000
0200
0000
0000
0000
0000
0000
0000
0000
0000
0000
0000
0000
0000
0000
0000
0000
0000
0000
0000
0000
0000
0000
0000
0000
0000
0000
0000
0000
0000
0000
0000
0000
0000
0000
0000
0000
0000
0000
0000
0000
0000
0000
0000
0000
0000
0000
0000
0000
0000
0000
0000
0000
0000
0000
0000
0000
0000
0000
0000
0000
0000
0000
0000
0000
0000
0000
0000
0000
0000
0000
0000
0000
0000
0000
0000
0000
,
0000
0000
0000
0000
,
0000
0000
0000
0000
,
0000
0000
0000
0000
0000
0000
0000
0000
0303
0000
0000
0000
0000
0001
0000
0000
1000
0000
0000
0000
0000
0000
0000
0000
0000
0000
0000
0000
0000
0000
0000
0000
,
0100
0000
0010
0000
,
0001
0000
0000
0000
0010
0000
0100
1000
,
0000
0000
0001
0100
0000
0000
0000
0000
,
0010
0000
1000
0000
0100
0000
0010
0001
,
0000
0000
0010
0100
0000
0000
1000
0000
,
0001
0000
0100
0010
0000
0100
0010
0100
,
0000
0010
1000
0100
,
0010
0001
1000
0000
,
0010
0000
0100
0000
,
0001
0000
0000
0000
1000
0000
0100
0010
,
0000
0000
0001
0010
0000
0000
0100
0000
,
1000
0000
0001
0000
0100
0000
0010
1000
,
0000
0000
0001
0100
0000
0000
0010
0000
,
1000
0000
0100
0000
0010
0000
0010
0001
,
0000
0000
1000
0000
0100
0000
0100
1000
,
0000
0000
0001
0000
0010
0000
0010
0001
,
0000
0000
0010
0000
0100
0000
0100
1000
,
0000
0000
1000
0000
0010
0000
0100
0001
,
0000
0000
0100
0000
0010
0000
1000
0010
,
0000
0000
1000
0000
0010
0000
0100
0001
,
0000
0000
0100
0000
0010
0000
1000
0001
,
0000
0000
0010
0000
0100
0000
1000
0100
,
0000
0000
0010
0000
0001
0000
0010
0100
,
0000
0000
1000
0000
0100
0000
0010
0001
,
0000
1000
0010
0100
,
0001
0000
1000
0000
0100
0000
0010
0001
,
0000
0000
0010
0000
0100
0000
1000
0001
,
0000
0000
1000
0000
0010
0000
0100
0001
,
0000
0100
0010
1000
,
0100
0010
0011
0000
,
0000
0000
0000
0000
,
0000
0001
0010
0100
1000
0000
0000
0000
,
0000
0000
0100
1000
,
0000
0000
1001
0000
,
0000
0000
0000
0000
,
0000
1000
0001
0000
0100
0000
0010
1000
,
0000
0000
0000
0000
,
0000
0000
1001
0000
,
0000
0000
0000
0000
,
0000
0001
0010
0100
1000
0000
0000
0000
,
0000
0000
1000
0100
,
0000
0000
0110
0000
,
0000
0000
0000
0000
,
0000
0010
0001
0000
1000
0100
0010
0001
,
0000
0000
0000
0000
,
0000
0000
1000
0001
,
0001
0100
0100
0010
,
0010
1000
1010
0000
,
0101
0000
0000
0000
1001
0000
0000
0110
,
0000
0000
0010
1000
,
0100
0010
0001
0010
,
0100
1000
0001
0000
,
0110
0000
0202
0000
,
0313
0001
0100
0010
,
0100
0001
0100
0010
,
0100
0000
0001
0000
0100
0010
0000
0000
,
1000
0100
0010
0001
,
0010
0000
0100
0000
1000
0100
0000
0000
,
0010
0100
1000
0010
,
0100
0001
0000
0100
0010
0100
0000
0000
,
0010
1000
0100
0010
,
0001
0010
0100
1000
,
0100
0010
0001
1000
,
0010
0000
0100
0000
0010
1000
0000
0000
,
0010
1000
0001
0100
,
0010
1000
0001
0100
,
0010
1000
0000
0000
0000
0001
0000
0100
,
0001
0100
0001
1000
,
0100
0010
0001
0010
,
0100
1000
0001
0100
,
0010
1000
0100
0010
,
0001
0010
0100
1000
,
0010
0100
0001
0010
,
0100
1000
0001
0100
,
0010
0000
1000
0000
0100
0000
0010
0001
,
0010
0001
0010
0000
0100
0000
1000
0000
,
0001
0100
0010
1000
,
0100
0010
0001
0010
,
0100
0000
1000
0010
1000
0010
1000
0000
,
0010
1000
0001
0100
,
0010
0000
1000
0001
0010
0001
0010
0000
,
0001
0000
0010
0100
0010
0100
0010
0000
,
0100
1000
0001
0010
,
0100
1001
0110
1001
;
#NOTES:
     dance-single:
     Renard:
     Beginner:
     6:
     0.348,0.856,0.021,0.129,0.021:
0000
0000
0000
0000
,
0000
0000
0000
0000
,
0000
0000
0000
0000
,
0000
0000
0000
0000
,
1000
0100
1000
0010
1000
0001
1000
0100
,
1000
0001
1000
0001
0100
0001
0010
0001
,
1000
0000
0000
0000
0000
0000
0000
0000
0000
0000
0000
0000
0000
0000
0000
0000
0000
0000
0000
0000
0000
0000
0000
0000
0010
0000
0000
0000
0000
0000
0000
0000
0000
0000
0000
0000
0000
0000
0000
0000
0000
0000
0000
0000
0000
0000
0000
0000
0000
0000
0000
0000
0000
0000
0100
0000
0000
0000
0000
0000
0000
0000
0000
0000
0000
0000
0000
0000
0000
0000
0000
0000
0000
0000
0000
0000
0000
0000
0000
0000
0000
0002
0000
0000
0000
0000
0000
0000
0000
0000
0000
0000
0000
0000
0000
0000
0000
0000
0000
0000
0000
0000
0000
0000
0000
0000
0000
0000
0000
0000
0000
0000
0000
0000
0000
0000
0200
0000
0000
0000
0000
0000
0000
0000
0000
0000
0000
0000
0000
0000
0000
0000
0000
0000
0000
0000
0000
0000
0000
0000
0000
0000
0000
0000
0000
0000
0000
0000
0000
0000
0000
0000
0000
0000
0000
0000
0000
0000
0000
0000
0000
0000
0000
0000
0000
0000
0000
0000
0000
0000
0000
0000
0000
0000
0000
0000
0000
0000
0000
0000
0000
0000
0000
0000
0000
0000
0000
0000
0000
0000
0000
0000
,
0000
0000
0000
0000
,
0000
0000
0000
0000
,
0000
0000
0000
0000
0000
0000
0000
0000
0303
0000
0000
0000
0000
0001
0000
0000
1000
0000
0000
0000
0000
0000
0000
0000
0000
0000
0000
0000
0000
0000
0000
0000
,
0100
0000
0010
0000
,
0001
0000
0010
0010
,
0010
0000
0001
0000
,
0010
0000
0100
0100
,
0100
0000
1000
0000
,
0010
0100
0010
0100
,
0010
0000
0100
0000
,
0001
0000
1000
0000
,
0100
0000
0010
0000
,
0001
0000
1000
1000
,
1000
0000
0010
0000
,
0100
0000
0001
0001
,
0001
0000
0100
0000
,
0010
0000
1000
0100
,
1000
0000
0001
0010
,
0001
0000
1000
0010
,
1000
0000
0001
0100
,
0001
0000
1000
0100
,
1000
0000
0001
0010
,
0001
0000
1000
0010
,
1000
0000
0001
0100
,
0001
0000
1000
0000
,
1000
0000
0001
1000
,
0001
0000
0100
0000
,
0100
0000
0001
1000
,
0001
0000
0010
0000
,
0010
0000
0001
1000
,
0001
0000
0001
0000
,
0001
0000
1000
0001
,
1000
0000
0020
0000
,
0000
0000
0000
0000
,
0000
1030
0200
0000
,
0000
0000
0320
0000
,
0000
0000
0032
0000
,
0000
0000
0000
0000
,
0000
0013
0100
1000
,
0002
0000
0000
0000
,
0000
0000
0023
0000
,
0000
0000
0000
0000
,
0000
0031
0020
0000
,
0000
0000
0130
2000
,
0000
0000
3020
0000
,
0000
0000
0000
0000
,
0000
0130
0001
0100
,
0020
0000
0000
0000
,
0000
0000
1030
0000
,
1000
0000
0010
0010
,
0100
0000
0001
0000
,
0001
0000
1000
0000
,
0001
0000
1000
0000
,
0100
0000
0010
0010
,
0001
0001
1000
0000
,
0100
0000
1000
0000
,
1100
1000
0000
0100
,
0000
0010
0000
0001
,
0000
1000
1000
1000
,
0000
0001
0000
0100
,
0000
0010
0010
0010
,
0000
0100
0000
0001
,
0001
0010
0010
0100
,
0000
1000
0000
0010
,
0000
0100
0000
0001
,
0000
0010
0000
0100
,
0000
0010
0010
0010
,
0000
0001
0000
1000
,
0000
0010
0010
0010
,
0000
0100
0000
0000
,
0000
0010
0000
1000
,
0000
0010
1000
0010
,
0000
0100
0000
0001
,
0000
0100
0001
0100
,
0000
0001
0000
1000
,
0000
0001
1000
0001
,
0000
1000
0000
0100
,
0000
1000
0100
1000
,
0000
0001
0000
0010
,
0000
0001
0010
0001
,
0000
1000
0000
0010
,
0000
1000
0010
1000
,
0000
0001
0000
0100
,
0000
0001
0100
0001
,
0000
1000
0000
0100
,
0000
0010
0000
0001
,
0000
1000
0001
1001
;
