#TITLE:The Detinator;
#SUBTITLE:;
#ARTIST:Teranoid vs L.E.D.-G;
#TITLETRANSLIT:;
#SUBTITLETRANSLIT:;
#ARTISTTRANSLIT:;
#CRChallenge:;
#BANNER:detinator.png;
#BACKGROUND:detinator-bg.png;
#LYRICSPATH:;
#CDTITLE:;
#MUSIC:detinator.ogg;
#OFFSET:0.000;
#SAMPLESTART:30.380;
#SAMPLELENGTH:12.000;
#SELECTABLE:YES;
#DISPLAYBPM:173.000;
#BPMS:0.000=173.000,88.000=86.500,90.000=173.000,186.000=86.500,194.000=173.000,290.000=692.005,338.000=346.000;
#STOPS:;
#BGCHANGES:;
#NOTES:
     dance-single:
     Renard:
     Challenge:
     10:
     0.709,1.000,0.917,0.098,0.200:
0000
0000
0000
0000
,
0000
0000
0000
0000
,
0000
0000
0000
0000
,
0000
0000
0000
0000
,
0000
0000
0000
0000
,
0000
0000
0000
2002
,
3013
0000
0000
0000
,
0000
0000
0000
0000
0000
0000
0000
0000
1000
0100
0010
0001
2000
0000
0000
0000
,
0000
0000
0000
0000
,
3000
0000
0000
0000
,
1001
0000
0000
0000
,
0000
0000
0000
0000
,
0000
0000
0000
0000
,
0000
0000
0000
0000
,
1001
0110
1001
0101
1001
1100
1001
0110
,
0010
1000
0001
0000
0100
0000
0010
0000
1000
0001
1000
0010
1000
0000
0001
0100
,
0001
0010
0001
1000
0001
0000
1010
0000
0101
0000
0000
1001
0000
0000
1100
0000
,
0011
0000
0100
0000
1000
0000
0100
0010
0001
0000
1000
0010
0100
0000
0000
0000
,
1001
0000
1000
0010
0100
0000
0001
1000
0001
0000
0100
0000
0010
0000
1000
0010
,
0100
0001
1000
0001
0010
0100
1000
0001
1000
0100
0020
0000
0000
0000
0000
0000
,
0031
0000
0010
0000
0100
0000
1000
0000
0000
0001
0000
0000
0101
0000
0000
0010
0000
0000
1010
0000
0000
0101
0000
0000
,
1001
0000
0000
0000
1010
0000
0100
0001
0100
0000
0010
0000
1000
0000
0001
0000
,
0110
0MM0
0000
0000
0000
0000
0000
0000
0000
0000
0000
0000
0000
0000
0000
0000
0000
0000
0000
0000
0000
0000
0000
0000
0000
0000
0000
0000
0000
0000
0000
0000
0010
0000
0000
0000
0000
0000
0000
0000
0010
0000
0000
0000
0000
0000
0000
0000
1000
0000
0000
0000
0000
0000
0000
0000
1000
0000
0000
0000
0000
0000
0000
0000
,
0010
0010
1000
1000
0001
0001
0100
0100
,
0001
0001
0100
0100
0010
0010
0001
0001
,
0010
0010
0001
0001
1000
1000
0100
0100
,
0001
0001
0010
0010
0100
0100
0001
0001
,
0100
0100
0001
0001
1000
1000
0010
0010
,
1000
1000
0010
0010
0100
0100
1000
1000
,
0100
0100
1000
1000
0001
0001
0010
0010
,
0001
0000
0000
0000
1000
0000
0010
0000
0000
0000
0100
0000
0010
0000
0000
0010
0000
0000
1000
0000
0000
1000
0000
0000
,
0010
0010
1000
1000
0001
0001
0100
0100
,
0001
0001
0100
0100
0010
0010
0001
0001
,
0010
0010
0001
0001
1000
1000
0100
0100
,
0001
0001
0010
0010
0100
0100
0001
0001
,
0100
0100
0001
0001
1000
1000
0010
0010
,
1000
1000
0010
0010
0100
0100
1000
1000
,
0100
0100
1000
1000
2002
0000
0000
0000
,
0000
0000
0000
0000
3003
0000
0000
0000
0001
0000
0100
0000
0001
0100
0001
0000
,
1000
0000
0100
0000
1000
0100
1000
0000
0001
0000
0100
0000
0001
0100
0001
0000
,
1000
0000
0100
0000
1000
0100
1000
0000
0001
0000
0010
0000
0001
0010
0001
0000
,
1000
0000
0010
0000
1000
0010
1000
0000
0001
0000
0010
0000
0001
0010
0001
0000
,
1000
0000
0010
0000
1000
0010
1000
0000
0100
0000
1000
0000
0100
1000
0100
0000
,
0010
0000
1000
0000
0010
1000
0010
0000
0100
0000
1000
0000
0100
1000
0100
0000
,
0010
0000
1000
0000
0010
1000
0010
0000
0100
0000
0001
0000
0100
0001
0100
0000
,
0010
0000
0001
0000
0010
0001
0010
0000
0100
0000
0001
0000
0100
0001
0100
0000
,
0010
0000
0001
0000
0010
0001
0010
0000
2002
0000
0000
0000
0000
0000
0000
0000
,
0000
0000
0000
0000
,
0000
0000
0000
3003
M111
0000
M111
0000
,
111M
111M
M111
M111
,
111M
0000
111M
0000
1M11
0000
1001
0110
,
1001
11M1
1M11
1M11
,
11M1
11M1
M111
M111
,
111M
0000
111M
0000
1001
0110
1001
0000
,
111M
111M
1M11
1M11
,
11M1
0000
11M1
0000
1001
1001
0000
1001
,
0001
0010
0100
1000
0001
0000
0000
0000
111M
0000
0000
0000
111M
0000
0000
0000
,
M111
M111
111M
111M
,
M111
0000
M111
0000
11M1
0000
1001
0110
,
1001
1M11
11M1
11M1
,
1M11
1M11
111M
111M
,
M111
0000
M111
0000
1001
0110
1001
0000
,
M111
M111
11M1
11M1
,
1M11
0000
1M11
0000
1001
1001
0000
1001
,
1000
0100
0010
0001
1000
0000
0000
0000
0001
0000
0000
0000
0100
0000
0000
0000
,
1000
0010
0001
0100
,
1000
0010
0001
0100
,
1000
0010
0001
0100
,
1000
0010
0011
0101
,
1100
1010
0011
0101
,
1100
1010
0011
0101
,
1100
1010
2022
0000
,
0000
0000
0M00
0M00
,
0M00
0M00
0M00
0M00
,
0M00
0M00
0M00
0M00
,
0M00
0M00
0M00
0M00
,
0M00
0M00
0M00
0M00
,
0M00
0M00
0M00
0M00
,
0M00
0M00
0M00
0M00
,
0M00
0M00
0M00
0M00
,
0M00
0M00
0M00
0M00
,
0M00
0M00
0M00
0M00
,
0M00
0M00
0M00
0M00
,
0M00
0M00
0M00
0M00
,
0M00
0M00
3133
0000
;
