#TITLE:The Daeva Suite;
#SUBTITLE:;
#ARTIST:Renard feat. Foenix;
#TITLETRANSLIT:;
#SUBTITLETRANSLIT:;
#ARTISTTRANSLIT:;
#CRChallenge:;
#BANNER:daeva.png;
#BACKGROUND:daeva-bg.png;
#LYRICSPATH:;
#CDTITLE:!cdtitle.png;
#MUSIC:daeva.ogg;
#OFFSET:-0.013;
#SAMPLESTART:276.746;
#SAMPLELENGTH:30.000;
#SELECTABLE:YES;
#BPMS:0.000=190.000,418.000=95.000,470.000=190.000,548.000=145.060,692.000=151.730,693.000=150.000,749.000=75.000,752.000=150.000,781.000=75.000,782.000=150.000,881.000=180.100,1109.000=90.050,1122.500=22.513,1129.375=45.025;
#STOPS:416.000=1.895
,692.000=3.748
,754.833=0.800
,758.750=2.400
,765.750=0.800
,767.500=1.160
,769.833=2.000
,781.500=0.420
,979.000=0.167
,979.500=0.167
,980.000=0.167
,980.500=0.167
;
#BGCHANGES:;
#NOTES:
     dance-single:
     Nonstop:
     Challenge:
     14:
     0.754,1.000,0.379,0.098,0.566:
0000
0000
0000
0000
,
0000
0000
0000
0000
,
0000
0000
0000
0000
,
0000
0000
0000
0000
,
0000
0000
0000
0000
,
0000
0000
0000
0000
,
0000
0000
0000
0000
,
0000
0000
0000
0000
,
0001
0001
1000
1000
,
0100
0100
0010
0010
,
0001
0001
1000
1000
,
0010
0010
0100
0100
,
0001
0001
0010
0010
,
1000
1000
0010
0010
,
0100
0100
1000
1000
,
0001
0001
0100
0100
,
1000
1000
0100
0100
,
0010
0010
1000
1000
,
0001
0001
0010
0010
,
0100
0100
1000
1000
,
0010
0010
0100
0100
,
0001
0001
0010
0010
,
0001
0010
0100
1000
0001
0010
0001
1000
0100
0010
0001
1000
0100
1000
0001
0010
,
0100
1000
0001
0010
0001
0000
1000
0000
0100
0000
0000
0000
0100
0000
0000
0000
,
0001
0000
0100
0000
0010
0000
1000
0000
0010
0000
0100
0000
0001
0100
0010
0000
,
1000
0000
0010
1000
0010
0000
1000
0000
0001
0000
0010
0000
0001
0000
0001
0000
,
1000
0000
0010
0000
0100
0001
0100
0000
0010
0000
1000
0100
1000
0000
0001
0000
,
1000
0100
0010
0001
0010
0100
1000
1000
,
0010
0000
0100
0001
0100
0000
0010
0000
1000
0000
0100
0000
0010
0000
0010
0000
,
0001
0000
0010
0000
0100
1000
0100
0000
0010
0000
0001
0010
0100
0000
1000
0000
,
0001
0100
1000
0100
0001
0010
1000
0010
,
0100
1000
0010
0001
0010
0100
1000
0100
,
0001
0010
0100
0001
0100
1000
1000
0010
,
0100
0000
0001
0100
1000
0100
0010
1000
,
0010
0000
1000
0100
0001
0100
0010
0000
,
0001
0010
0100
1000
0010
0100
0001
0010
,
0100
1000
0010
0001
0010
0100
1000
0100
,
0001
0010
0100
0001
0100
1000
0010
0100
,
1000
0100
0010
1000
0100
0001
0100
0010
,
0001
0010
1000
0010
0100
1000
0010
0100
,
1000
0100
0010
1000
0100
0010
0100
0001
,
0100
0010
0001
0010
0100
0001
0100
1000
,
0010
0100
1000
0100
0010
1000
0100
0010
,
0001
0010
0100
0001
0100
0010
0001
0100
,
1000
0100
0010
1000
0100
0010
1000
0010
,
0001
0010
0100
0010
0100
0001
0100
1000
,
0010
0100
1000
0100
0010
1000
0100
0010
,
0001
0010
0100
1000
0001
0010
0000
0000
,
1100
0000
1100
0000
1100
1010
0000
1010
,
0000
0101
0000
0101
0011
0000
0011
0000
,
0110
0000
0110
0000
0011
0110
0000
0000
,
0110
1100
0000
1100
1010
0000
1001
0000
,
0011
0000
0011
0000
0011
0101
0000
0101
,
0000
1010
0000
1010
1100
0000
1100
0000
,
0110
0000
0110
0000
1100
0110
0000
0000
,
0110
0011
0000
0011
0101
0000
1001
0000
,
1010
0000
1010
0000
1010
0011
0000
0011
,
0000
1100
0000
1100
0101
0000
0101
0000
,
1001
0000
1001
0000
0101
1001
0000
0000
,
1001
1010
0000
1010
0011
0000
0110
0000
,
0101
0000
0101
0000
0101
1100
0000
1100
,
0000
0011
0000
0011
1010
0000
1010
0000
,
0010
1000
0001
0100
0010
1000
0100
0010
0001
0010
0100
1000
0001
0010
0100
1000
,
0001
0100
0010
1000
0100
0010
0001
0000
1000
0000
0000
0000
0100
0000
0000
0000
,
1000
0000
0010
0000
0100
0000
0001
0000
0100
0000
0010
0000
1000
0010
0100
0000
,
0001
0000
0100
0001
0100
0000
0001
0000
1000
0000
0100
0000
1000
0000
1000
0000
,
0001
0000
0100
0000
0010
1000
0010
0000
0100
0000
0001
0010
0001
0000
1000
0000
,
0001
0010
0100
1000
0100
0010
0001
0001
,
0100
0000
0010
1000
0010
0000
0100
0000
0001
0000
0010
0000
0100
0000
0100
0000
,
1000
0000
0100
0000
0010
0001
0010
0000
0100
0000
1000
0100
0010
0000
0001
0000
,
1000
0010
0001
0010
1000
0100
0001
0100
,
0010
0001
0100
1000
0100
0010
0001
0010
,
1000
0100
0010
1000
0010
0001
0001
0100
,
0010
0000
1000
0010
0001
0010
0100
0001
,
0100
0000
0001
0010
1000
0010
0100
0000
,
1000
0100
0010
0001
0100
0010
1000
0100
,
0010
0001
0100
1000
0100
0001
1000
0100
,
0001
1000
0001
0100
1000
0010
0001
1000
,
0001
0010
1000
0100
0001
1000
0001
0100
,
1000
0010
0100
1000
0100
0010
1000
0100
,
0010
0100
0001
0100
0010
0001
0100
0010
,
0100
0001
0010
0100
0001
0100
1000
0010
,
0001
1000
0001
0010
1000
0100
0001
1000
,
0001
0100
1000
0010
0001
0010
0001
1000
,
0001
0010
0100
1000
0100
0010
0100
0001
,
0010
0100
0001
1000
0001
0100
1000
0010
,
0001
0010
0100
1000
0100
0010
1000
0100
,
0010
0001
0010
1000
0010
0001
0010
0100
,
1000
0000
0010
0000
0001
0100
0000
0010
,
1000
0000
0100
0010
0001
0000
0001
0000
,
0100
0000
0010
0001
0001
0000
0010
1000
,
1000
0000
0010
0001
0100
0000
0010
0000
,
0010
0000
1000
0100
0001
0000
0010
1000
,
0100
0010
0001
0010
,
0010
0000
1000
0100
1000
0000
1000
0001
,
0000
0001
0010
0100
0010
0000
0010
0000
,
0001
0000
0100
0000
1000
0010
0000
0100
,
0001
0000
0010
0100
1000
0000
1000
0000
,
0010
0000
0100
1000
1000
0000
0100
0001
,
0001
0000
0100
1000
0010
0000
0100
0000
,
0100
0000
0001
0010
1000
0000
0100
0001
,
0010
0100
1000
0100
,
0100
0001
1000
0100
0010
0001
0010
0100
1000
0001
0100
0010
1000
0100
0010
0001
,
0010
0100
1000
0001
0100
0000
0010
0000
0001
0000
0000
0000
1000
0000
0000
0000
,
0001
0000
0001
1000
,
0100
0000
0010
0001
,
1000
0010
0100
0001
,
0010
0000
0001
1000
,
0100
0000
0000
0000
0000
0000
0000
0000
0010
0000
0000
0000
0010
0000
0000
0000
1001
0000
0000
0000
0001
0010
0100
1000
0100
0000
0000
0000
1001
0000
0000
0000
,
0101
0000
0000
0000
1010
0000
0000
0000
0010
1000
0001
0100
0010
0000
1000
0000
0001
0000
0000
0000
0010
0000
0000
0000
1000
0000
0000
0000
0010
0100
1000
0100
,
0010
0000
0001
0000
0010
0000
1000
0000
0010
0000
0000
0000
0001
0000
0000
0000
1000
0000
0000
0000
0010
0000
0100
0000
0001
0000
0000
0000
0010
0100
1000
0100
,
0010
0000
0000
0000
0001
0000
0100
0000
0010
0000
0000
0000
1000
0001
0100
0010
1000
0000
0001
0000
0100
0000
0000
0000
0010
0000
1000
0000
0001
0000
0000
0000
,
1000
0100
0010
0001
1000
0000
0000
0000
0001
0000
0000
0000
0010
0000
0000
0000
0001
0000
1000
0000
0010
0000
0000
0000
1000
0000
0001
0000
0010
0000
0000
0000
,
0001
0010
0100
1000
0001
0000
0000
0000
1000
0000
0000
0000
0010
0000
0000
0000
0100
0000
0000
0000
0101
0000
0000
0000
0010
0000
0000
0000
1001
0000
0000
0000
,
0001
0100
0010
1000
0010
0000
0000
0010
1000
0001
0100
0010
1000
0000
0000
0000
0001
0000
0000
0000
0100
0000
0010
0000
1000
0000
0000
0000
0100
0000
0000
0000
,
0010
0000
0000
0000
0001
0000
1000
0000
0010
0000
0100
0000
0001
0010
0100
1000
0001
0000
0000
0000
0010
0100
1000
0001
0010
0001
1000
0100
0010
0000
0001
0000
,
1000
0000
0000
0000
0100
0000
0000
0000
0010
0000
0001
0000
0010
0000
0000
0000
1001
0000
0000
0000
0001
0010
0100
1000
0100
0010
0001
1000
0100
0000
0000
0000
,
0010
0000
1001
0010
0000
1001
1001
0000
0001
0010
0001
0010
0001
0000
0010
0000
,
0100
0000
1000
0000
0001
0000
0100
0000
0010
0100
0010
0100
0010
0000
1000
0000
,
0100
1000
0100
1000
0100
0000
1000
0000
0001
0100
0010
1000
0001
0000
0100
0000
,
0010
1000
0100
0010
0011
0000
0011
0000
,
0100
1000
0001
0000
1000
0000
0000
0000
0010
0000
0100
0000
0001
0100
0010
0000
,
1000
0010
1000
0000
1001
0000
0000
0000
0101
0000
0110
0000
1001
0000
0000
0000
,
1001
0000
0110
0000
1010
0000
0000
0000
0010
1000
0001
0010
0100
0000
0000
0000
,
0100
0010
0001
1000
0010
0000
0000
0000
0010
0000
0000
0000
1000
0010
0100
0001
,
1000
0000
0001
0000
1000
0100
0010
0001
,
1000
0100
0010
0001
0010
0000
0010
0000
0001
0000
0010
0000
0110
0000
0000
0000
,
0100
1000
0001
0010
0001
0000
0001
0000
1000
0000
0100
0010
0001
0000
0001
0000
,
1000
0100
0010
0000
0001
0000
0010
0000
0100
0000
1000
0000
0010
0000
0001
0000
,
0010
0000
0100
0000
0001
0100
0010
1000
0001
0000
0000
0000
0100
0000
0000
0100
,
0010
0000
1000
0000
0010
0000
0000
0000
0100
0000
0001
0100
0010
0000
1000
0000
,
0001
1000
0100
0010
0001
0000
0000
0000
1000
0000
0100
0000
1001
0000
0000
0000
,
0001
0100
1001
0000
1000
0100
1001
0000
,
0001
0000
1000
0100
0010
0000
0000
0000
,
0000
0000
0000
0000
,
0000
0000
0000
0000
,
0000
0000
0000
0000
,
0001
0000
0010
0000
0100
0000
1000
0001
0100
0000
0010
1000
0000
1001
0000
0000
,
0001
0000
0010
0000
0100
0000
1000
0000
0001
0000
0100
0000
0010
0000
1000
0010
,
0100
0000
0001
0100
0000
1001
0000
0000
0100
0000
0010
0000
0001
0000
0010
0000
,
0100
0000
1000
0000
0001
0000
0010
0001
0010
0000
0001
1000
0000
1001
0000
0000
,
0001
0000
0010
0000
0100
0000
1000
0000
0001
0000
0100
0000
1010
0000
0100
0001
,
0010
0000
0001
1000
0000
0101
0000
0000
0010
0000
1000
0000
0100
0000
0010
0000
,
0001
0000
0010
0000
0100
0000
1000
0001
0100
0000
0010
1000
0000
1001
0000
0000
,
0001
0000
0010
0000
0100
0000
1000
0000
0001
0000
0100
0000
0010
0000
1000
0010
,
0100
0000
0001
0100
0000
1001
0000
0000
0100
0000
0010
0000
0001
0000
0010
0000
,
0100
0000
1000
0000
0001
0000
0010
0001
0010
0000
0001
1000
0000
1001
0000
0000
,
0001
0010
0100
1000
1001
0000
0000
0000
,
0000
0110
0000
0000
,
0001
0010
1000
0000
0000
0000
0000
0000
,
0010
0100
1000
0010
0001
0010
0100
0000
,
0000
0000
0000
0000
,
1000
0100
0010
0000
0000
0000
0000
0000
,
1000
0100
0001
0100
0010
0001
0010
0000
,
0000
0000
0000
0000
0000
0000
0000
0000
0000
0000
0100
1000
0010
0000
0100
0000
,
0001
0010
1000
0000
0000
0000
0000
0000
,
0010
0100
1000
0010
0001
0010
0100
0000
,
0000
0000
0000
0000
,
1000
0100
0010
0000
0000
0000
0000
0000
,
1000
0100
0001
0100
0010
0001
0010
0000
,
0000
0000
0000
0000
0000
0000
0000
0000
0000
0000
0100
1000
0010
0000
0100
0000
,
0001
0010
0100
0000
,
1000
0100
0010
0001
0010
0100
1000
0001
1000
0000
0000
0000
0100
0000
0000
0000
,
0001
0000
0000
0000
0000
0000
0000
0000
0100
1000
0001
0100
0010
0000
0000
0000
,
1000
0010
0001
0000
,
0010
0000
0000
0000
0100
0000
0000
0000
0001
0000
0000
0000
0010
0001
1000
0010
,
0100
0000
0000
0000
0010
1000
0001
0010
0001
0000
0000
0000
1000
0000
0000
0000
,
0001
0100
0010
0000
,
1000
0000
0010
1000
0100
1000
0010
1000
0001
0000
0000
0000
0100
0001
1000
0010
,
0100
0001
1000
0100
,
0010
0000
0000
0000
0001
0010
0100
1000
0001
0000
0000
0000
0000
0000
0000
0000
,
0100
0001
1000
0000
0100
0000
0000
0000
1000
0000
0000
0000
0010
0000
0000
0000
,
0100
0000
0000
0000
0000
0000
0000
0000
0001
0000
0000
0000
0100
0001
0000
0101
,
0000
0000
0000
0000
0001
0010
0100
1000
0100
0010
0001
0010
0100
0000
1000
0100
,
0010
0000
0001
0000
1000
0100
0010
0001
0010
0100
0000
0100
1000
0010
0100
0001
,
0100
0000
0000
0000
0010
1000
0100
0010
0001
0010
0100
1000
0001
0010
0100
1000
,
0001
0000
1000
0010
1010
0000
0000
0000
0100
0001
0010
0100
1000
0100
0010
0001
,
0100
0010
1000
0100
0010
0000
0001
0010
0001
0000
0010
0000
0100
1000
0001
0010
,
0100
1000
0100
1000
0100
1000
0100
1000
0100
0000
0010
0001
1000
0100
0010
0000
,
0001
0010
0100
0000
1000
0001
0010
0100
1000
0010
0100
0001
1000
0010
0100
0000
,
1001
0000
1001
0000
1000
0100
0010
0001
0010
0100
1000
0100
0010
0000
0001
0010
,
0100
0000
1000
0000
0001
0010
0100
1000
0100
0010
0000
0010
0001
0100
0010
1000
,
0010
0000
0000
0000
0100
0001
0010
0100
1000
0100
0010
0001
1000
0100
0010
0001
,
1000
0000
0000
0000
0101
0000
0000
0000
0010
1000
0100
0010
0001
0010
0100
1000
,
0010
0100
0001
0010
0100
0000
1000
0100
1000
0000
0100
0000
0010
0001
1000
0100
,
0010
0001
0100
0010
1000
0001
0010
0001
0010
0000
0100
1000
0001
0010
0100
0000
,
1000
0100
0010
0001
0001
0010
0100
1000
0001
0100
0010
1000
0001
0000
0000
0000
,
1001
1001
0002
0003
2000
3000
0200
0300
,
0000
0000
0000
0000
0000
0000
0000
0000
0000
0000
0000
0000
0000
0000
0000
0000
0000
0000
0000
0000
0000
0000
0000
0000
2200
0000
0000
3300
0000
0000
0000
0000
0000
0000
0000
0000
0000
0000
0000
0000
0000
0000
0000
0000
0000
0000
0000
0000
0022
0000
0000
0033
0000
0000
0000
0000
0000
0000
0000
0000
0000
0000
0000
0000
0000
0000
0000
0000
0000
0000
0000
0000
0000
0000
0000
0000
0000
0000
0000
0000
0000
0000
0000
0000
0000
0000
0000
0000
0000
0000
0000
0000
0000
0000
0000
0000
0001
0000
0000
0000
0000
0000
0000
0000
0010
0000
0000
0000
0000
0000
0000
0000
0001
0000
0000
0000
0000
0000
0000
0000
0010
0000
0000
0000
0000
0000
0000
0000
0001
0000
0000
0000
0000
0000
0000
0010
0000
0000
0000
0000
0000
0000
0000
0000
1000
0000
0000
0000
0000
0000
0000
0000
0000
0000
0000
0000
1000
0000
0000
0000
0000
0000
0000
0000
0000
0000
0000
0000
0100
0000
0000
0000
0000
0000
0000
0000
0000
0000
0000
0000
0010
0000
0000
0000
0000
0000
0000
0000
0000
0000
0000
0000
,
0002
0003
0000
0000
1000
0000
0000
0000
0010
0000
0000
0000
0100
0000
0000
0000
0002
0003
0000
0000
0000
0000
0000
0000
0000
0000
0000
0000
0000
0000
0000
0000
2000
3000
0000
0000
0100
0000
0000
0000
0010
0000
0000
0001
0000
0000
0000
0000
2000
3000
0000
0000
0010
0000
0000
0000
0100
0000
0000
0000
0001
0000
0000
0000
,
0020
0030
0000
0000
0000
0000
0000
0000
0000
0000
0000
0000
0000
0000
0000
0000
0001
0000
0000
0000
0001
0000
0000
0000
1000
0000
0000
0000
0100
0000
0000
0000
0020
0030
0000
0000
0001
0000
0000
0000
1000
0000
0000
0000
0000
0000
0000
0000
0002
0003
0000
0000
0010
0000
0000
0000
0100
0000
0000
0000
1000
0000
0000
0000
,
0002
0003
0000
0000
0000
0000
0000
0000
0100
0000
0000
0000
0010
0000
0000
0000
2000
3000
0000
0000
0001
0000
0000
0000
0010
0000
0000
0100
0000
0000
0000
0000
1000
0000
0000
0000
1000
0000
0000
0000
0100
0000
0000
0000
0010
0000
0000
0000
0002
0003
0000
0000
0000
0000
0000
1000
0000
0000
0000
0000
0000
0000
0000
0000
,
0002
0000
0000
0003
0000
0000
0000
0000
0000
0000
0000
0000
1000
0000
0000
0000
0000
0000
0000
0000
0000
0000
0000
0000
0001
0000
0000
0000
0000
0000
0000
0000
0000
0000
0000
0000
1000
0000
0000
0000
0000
0000
0000
0000
0000
0000
0000
0000
0002
0000
0000
0000
0003
0000
0000
0000
0200
0000
0000
0000
0300
0000
0000
0000
0002
0000
0000
0000
0003
0000
0000
0000
0200
0000
0000
0000
0300
0000
0000
0000
0002
0000
0000
0000
0003
0000
0000
0100
0000
0000
0000
0000
0000
0000
0000
0000
0002
0000
0000
0000
0003
0000
0000
0000
0000
0000
0000
0000
0100
0000
0000
0000
0000
0000
0000
0000
0000
0000
0000
0000
0001
0000
0000
0000
0000
0000
0000
0000
0000
0000
0000
0000
0100
0000
0000
0000
0000
0000
0000
0000
0000
0000
0000
0000
0000
0000
0000
0000
0000
0000
0000
0000
0000
0000
0000
0000
0000
0000
0000
0000
0000
0000
0000
0000
0000
0000
0000
0000
0000
0000
0000
0000
0000
0000
0000
0000
0000
0000
0000
0000
0010
0000
0000
0000
0000
0000
0000
0000
0000
0000
0000
0000
,
1000
0000
0000
0000
0100
0010
0001
1000
0100
0010
0001
1000
0100
0000
0000
0000
,
1000
0000
0000
0000
0001
0000
0010
0000
0000
0100
0000
0100
1000
0000
0000
0000
,
0001
0000
0000
0100
0000
0000
0010
0000
0000
1000
0000
0000
0002
0003
0000
0000
0000
0000
0000
0000
0000
0000
0000
0000
0002
0003
0000
0010
0000
0000
0100
0000
0000
0000
0000
0000
2000
3000
0000
0100
0000
0000
0010
0000
0000
0001
0000
0000
,
1000
0010
0100
0001
0010
0000
0001
0000
0100
0010
1000
0100
1000
0010
0100
0001
,
0010
0001
0100
0010
1000
0000
0100
0000
1000
0001
0010
0000
0001
0100
0000
0010
,
1000
0010
0100
0010
1000
0000
0010
0000
0100
0001
0100
0010
1000
0100
1000
0010
,
0100
0010
0100
0001
0010
0100
1000
0000
1000
0100
0010
0000
0001
0010
0100
1000
,
0001
0100
0010
1000
0100
0000
1000
0000
0010
0100
0001
0010
0001
0100
0010
1000
,
0100
1000
0010
0100
0001
0000
0010
0000
0001
1000
0100
0000
1000
0010
0000
0100
,
0001
0100
0010
0100
0001
0000
0100
0000
0010
1000
0010
0100
0001
0010
0001
0100
,
0010
0100
0010
1000
0100
0010
0001
0000
1000
0100
0010
0000
0100
1000
0001
0010
,
0100
0010
0001
1000
0010
0000
0100
0000
0010
0100
0010
1000
0100
1000
0010
0100
,
0010
0100
0001
0010
0001
0100
0010
0000
1000
0100
1000
0000
0001
0010
0000
0001
,
0100
0010
1000
0100
1000
0000
0010
0000
0100
0000
0000
0000
0100
0010
1000
0010
,
1010
0000
0000
0000
0101
0000
0000
0000
0001
0010
0001
0000
0100
0001
0000
0100
,
0010
0100
0010
1000
0100
0000
1000
0000
0001
0010
0001
0100
0010
1000
0100
1000
,
0010
0100
0001
0010
0100
1000
0001
0000
1000
0100
0001
0000
0100
0010
0000
0100
,
0010
0001
0010
1000
0010
0000
0100
0000
1000
0000
0010
0000
0100
0010
0100
0001
,
0100
0010
0001
0010
0100
1000
0100
0010
1000
0010
0100
0000
0001
0100
0000
0010
,
1000
0010
0100
0001
0100
0000
0010
0000
1000
0000
0000
0000
0100
1000
0100
0001
,
0100
0010
0001
0100
0010
1000
0010
0100
0001
0100
0010
1000
1000
0010
0100
0001
,
0001
0010
0001
0100
0100
0000
0100
0000
0010
1000
0001
0100
0010
1000
0100
0010
,
0001
0010
0100
1000
0001
0000
0000
0000
1000
0100
0010
0000
0001
0010
0000
0100
,
1000
0001
0010
0001
1000
0000
0010
0000
0100
0001
0100
0000
0010
1000
0010
0000
,
1000
0010
0100
0001
0010
0100
1000
0001
1001
0000
0000
1001
0000
0000
0000
0001
,
0100
0010
1000
0100
0010
0001
0010
0000
0010
0000
0001
0010
0100
1000
0100
1000
,
0010
0100
0001
0010
0100
1000
0010
0100
0000
0000
0000
0000
0000
0000
0000
0000
,
0000
0000
0000
0000
,
0000
0000
0000
1001
,
0000
0010
0000
0000
0000
0000
1001
0000
,
0000
0100
0000
0000
0101
0000
0110
0000
,
0000
1001
0000
0000
0110
0000
0010
1000
,
0100
0010
0001
0010
1000
0000
0110
0000
,
0000
0011
0000
0000
0000
0000
1100
0000
,
0000
1001
0000
0000
0110
0000
1010
0000
,
0000
0101
0000
0000
0001
0000
0010
1000
,
0010
0100
1000
0000
1001
0000
0001
0000
,
0010
0000
0100
0000
1000
0000
0000
0000
0010
0100
0010
0100
0001
0000
0000
0000
,
0100
0000
0000
0000
0010
1000
0010
0100
0001
0000
0000
0000
1100
0000
0000
0000
,
0010
0101
0010
1001
,
0010
0000
0000
0000
1011
0000
0000
0000
0001
0100
0001
0100
0010
1000
0010
0000
,
0100
0000
0000
0000
0101
0000
0000
0000
0010
0000
0000
0000
1000
0010
0100
0001
,
0010
0000
0000
0000
0100
0000
0000
0000
1000
0001
1000
0001
0100
0000
0000
0000
,
0010
0000
1000
0100
1000
0000
0001
0000
0010
0000
0000
0000
1001
0000
0000
0000
,
0010
0000
0000
0000
1001
0000
0001
1000
0100
0010
0001
0000
1100
0000
0000
0000
,
0010
0001
1000
0100
0010
0000
0000
0000
0100
1000
0001
0010
0100
0000
0000
0000
,
1000
0000
1000
0000
0010
0000
0010
0000
0100
0001
0100
0010
1000
0000
0010
0000
,
0100
0000
0001
0000
0010
0100
1000
0001
0010
0000
0100
0000
1000
0000
0000
0000
,
0011
1001
0010
0101
,
1000
0000
0000
0000
1010
0000
0000
0000
0001
0010
0001
0000
1000
0000
0100
0000
,
0001
0100
1000
0000
0010
0010
0100
0000
,
0001
0100
0010
1000
0001
0000
0000
0000
0010
0000
0000
0000
0000
0000
1001
0000
,
0010
0110
0001
0100
1000
0100
0001
0010
,
0100
1000
0010
0100
1000
0100
0010
1000
,
0100
0001
0100
1000
0010
0100
1000
0100
,
0010
1000
0100
0001
0100
0010
0001
0010
,
1000
0010
1000
0010
0100
1000
0010
0100
,
1000
0001
1000
0100
0010
0100
1000
0100
,
0010
1000
0100
0001
0100
0010
0001
0010
,
1000
0010
0100
0001
0100
1000
0010
0100
,
1000
0001
0010
0100
1000
0100
0010
1000
,
0100
0001
1000
0010
0100
0010
0001
0010
,
0100
1000
0010
0100
1000
0100
0010
0100
,
1000
0100
0010
1000
0010
0001
1000
0001
,
0010
0100
1000
0100
0010
0100
0010
1000
,
0100
0001
0100
1000
0001
1000
0100
0001
,
0100
1000
0010
0100
1000
0100
0010
1000
,
0100
0001
0100
0010
0001
0010
1000
0010
,
0001
0010
0110
0000
1100
0011
0000
0011
,
1001
1010
0101
0000
0011
1100
0000
1100
,
1010
0000
0001
0100
0101
0000
0000
0000
0010
0000
1000
0000
0010
0000
0000
0000
,
0100
0000
1000
0000
0010
0000
0000
0000
0100
0000
0000
0001
0010
0000
0000
0000
,
0001
0000
0000
0010
0000
0000
0100
0000
0000
1000
0000
0000
0001
0000
0010
0000
0001
0000
0010
0000
0001
0000
0010
0000
0001
0000
0000
0000
0000
0000
0000
0000
0000
0000
0000
0000
0010
0000
0000
0000
0000
0000
0000
0000
0000
0000
0000
0000
,
1000
0100
0010
0001
0011
0000
0000
0000
0101
0000
1001
0000
0000
0000
1001
0000
,
0101
0000
0010
1000
1010
0000
0000
0000
1010
0000
0101
0000
0000
0000
0101
0000
,
0011
0000
0000
0001
0010
0000
0010
0000
0100
0000
0010
0000
1000
0000
0000
0000
,
0010
1000
0001
0100
0101
0000
0000
0000
1001
0000
1010
0000
0000
0000
1010
0000
,
1001
0000
0101
0000
0010
1000
0010
0000
,
0001
0010
0001
0010
0100
0000
0000
0000
1000
0000
0010
0000
0001
0000
0000
0000
,
0001
0000
0000
0000
0000
0000
0010
0000
0000
0000
0000
0000
0001
0010
0001
0010
0001
0010
0001
0000
0000
0000
0000
0000
,
0010
0000
0100
0000
1000
1000
0001
1000
1000
0000
0001
0000
0010
0000
0100
0100
,
0100
0000
0000
0000
0000
0000
0101
0000
0000
0000
0000
0000
0010
0001
0010
0001
0010
0001
1000
0000
0000
0100
0000
0000
,
0010
0000
0001
0010
0100
1000
1000
0001
1000
0000
0100
0000
0001
0000
0100
0000
,
1000
0000
0100
0000
0110
0000
1001
0000
0000
0000
1001
0000
0100
0010
1000
0001
,
0010
1000
0010
0001
2002
0000
0000
0000
0000
0000
0000
0000
0000
0000
0000
0000
,
0000
0000
0000
0000
,
0000
0000
0000
0000
,
3003
0000
0000
0000
0000
0000
0000
0000
0000
0000
0000
0000
0000
0000
0000
0000
0000
0000
0000
0000
0000
0000
0000
0000
0000
0000
0000
0000
0000
0000
0000
0000
0000
0000
0000
0000
0000
0000
0000
0000
2M00
0000
0000
0000
00M0
3200
0000
0000
000M
0000
0320
0000
M000
0000
0000
0000
0M0M
0000
0000
0000
M000
0000
0032
0000
,
0M00
0000
20M3
0000
0M00
3020
000M
0000
M230
0000
00M0
0302
M000
0000
0M23
0000
M00M
0230
M000
0000
000M
0000
23M0
0000
000M
3020
0M00
0000
023M
0000
M000
0302
,
00M0
0000
2M00
0000
00M0
0000
0M00
0000
0000
0000
0000
3003
0000
0000
0000
0000
0000
0000
0000
0000
0000
0000
0000
0000
0000
0000
0000
0000
0000
0000
0000
0000
;
