#TITLE:The Call;
#SUBTITLE:;
#ARTIST:Gammer;
#TITLETRANSLIT:;
#SUBTITLETRANSLIT:;
#ARTISTTRANSLIT:;
#CRChallenge:;
#BANNER:call-banner.avi;
#BACKGROUND:call-bg.jpg;
#LYRICSPATH:;
#CDTITLE:;
#MUSIC:call.ogg;
#OFFSET:0.020;
#SAMPLESTART:33.855;
#SAMPLELENGTH:12.000;
#SELECTABLE:YES;
#DISPLAYBPM:170.000;
#BPMS:0.000=169.935,93.000=339.870,95.000=169.935,151.000=339.870,153.000=679.740,155.000=339.870,156.000=169.935,185.000=339.870,186.000=679.740,186.500=339.870,189.000=169.935,245.000=84.967,248.000=339.874,250.000=169.935;
#STOPS:0.000=0.020
,92.000=0.706
,151.000=1.765
,185.000=0.088
,185.500=0.088
,186.000=0.066
,186.250=0.066
,186.500=0.088
,187.000=0.088
,187.500=0.088
,188.000=0.088
,188.500=0.088
,245.000=0.353
,278.000=0.353
;
#BGCHANGES:;
#NOTES:
     dance-single:
     Renard:
     Medium:
     9:
     0.647,0.675,0.436,0.145,0.150:
0000
0000
0000
0000
,
0000
0000
0000
0000
,
0000
0000
0000
0000
,
0000
0000
0000
0000
,
2000
3002
0203
0000
,
0310
0000
1000
0100
0010
0000
0011
0000
,
0002
0023
0230
0000
,
2000
0000
0000
0022
0000
0000
3333
0000
,
1000
1000
0010
0100
0001
0000
0010
0000
,
0001
0001
0010
0001
0100
0001
1000
0000
,
1000
1000
0100
1000
0010
0000
1000
0000
,
0001
0001
0100
0010
1000
1000
0100
0000
,
1000
0001
0100
0010
0010
0000
1000
0000
,
0100
0010
0001
0010
0100
0000
1100
0000
,
1000
1000
0010
0100
0001
0000
0001
0000
,
0010
0010
0001
0010
0100
1000
0010
0000
,
1000
0000
0000
0000
1000
0000
0000
0001
0100
0000
0010
0000
1000
0000
0100
0000
,
0000
0010
0000
0001
0010
0100
1000
0001
,
0100
0000
0000
0000
0100
0000
0000
0010
1000
0000
0100
0000
0010
0000
0001
0000
,
0000
0010
0100
1000
0001
0100
0010
1000
,
0100
0000
0000
0000
1000
0000
0000
1000
0001
0000
0010
0000
0100
0000
1000
0000
,
0000
1000
0000
0001
0100
0010
1000
0000
,
0010
0000
0000
0000
0010
0000
0000
1000
0100
0000
0010
0000
0001
0000
1000
0000
,
0020
0000
0000
0130
,
0101
0000
0000
0100
0010
0000
1000
0000
0100
0000
0010
0000
0001
0000
0010
0000
,
0100
1000
0001
0100
0010
1000
0100
0000
,
1100
0000
0000
1000
0100
0000
0010
0000
0001
0000
1000
0000
0010
0000
0100
0000
,
0001
0000
1000
0000
0100
1000
0100
1000
0100
0000
1000
0000
0100
0000
0000
0000
,
0110
0000
0000
0010
0001
0000
1000
0000
0010
0000
0100
0000
0001
0000
0001
0000
,
0010
0010
0100
0100
1000
1000
0010
0000
,
1010
0000
0000
1000
0010
0000
0100
0000
0001
0000
0010
0000
0100
0000
1000
0000
,
0001
0000
0100
0000
0010
1000
0010
1000
0010
0000
1000
0000
0100
0000
0000
0000
,
0110
0000
0000
0010
0001
0000
1000
0000
0010
0000
0100
0000
0001
0000
1000
0000
,
0001
1000
0100
1000
0100
1000
0001
0000
,
0011
0000
0000
0001
0010
0000
0100
0000
1000
0000
0001
0000
0100
0000
0010
0000
,
1000
0000
0100
0000
0010
0001
0010
0001
0010
0000
0100
0000
1000
0000
0000
0000
,
1000
0000
0000
0001
0100
0000
0010
0000
1000
0000
0100
0000
0110
0000
0000
0000
,
0010
0001
2001
0000
0200
0000
0022
0000
,
0000
0000
0000
3333
,
MMMM
0000
0000
1001
0000
0110
0000
1001
,
0000
0110
0000
1001
0000
0110
0000
1010
,
0000
0101
0000
0011
0000
0110
0000
1100
,
0000
1010
0000
0101
0000
0110
0000
1100
,
0000
1010
0100
0010
0100
1000
0100
0010
,
0100
0001
0000
0011
0000
0110
0000
1100
,
0000
1001
0100
0010
0100
1000
0100
0010
,
0100
0000
0001
0000
0010
0000
0010
0000
0100
0010
0100
0000
1000
0000
1000
0000
,
0010
0000
0100
0000
0110
0000
0000
0000
0101
0000
0000
0001
0100
0000
0010
0000
,
1000
0100
0010
0010
0001
0001
1000
1000
,
0100
0000
0100
0000
0110
0000
0000
0000
0011
0000
0000
1000
0010
0000
0100
0000
,
0001
0000
0100
0000
0010
0000
1000
0000
0100
0000
0010
0000
0001
0010
0001
0010
,
0001
0000
0010
0000
0100
0000
0000
0000
1100
0000
0000
1000
0010
0000
0100
0000
,
0001
0100
0010
0010
1000
1000
0100
0100
,
0010
0000
0010
0000
0001
0000
0000
0000
0011
0000
0000
0010
0100
0000
1000
0000
,
0001
0000
0100
0000
0010
0000
1000
0000
0001
0000
0100
0000
0010
0100
0010
0100
,
0010
0000
0100
0000
0010
0000
0000
0000
1010
0000
0000
1000
0100
0000
0010
0000
,
0001
1000
0100
1000
0001
1000
0010
1000
,
0100
0000
1000
0000
0001
0000
0000
0000
1001
0000
0000
0001
0010
0000
0001
0000
,
1000
0000
0001
0000
0100
0000
0010
0000
1000
0000
0100
0000
0010
0001
0010
0001
,
0010
0000
0100
0000
1000
0000
0000
0000
1100
0000
0000
1000
0010
0000
0100
0000
,
0001
0010
0100
1000
0001
0100
0010
1000
,
0100
0010
0000
0000
0000
0000
0000
0000
,
0000
MMMM
0001
0001
,
0100
0000
0000
0000
0010
0000
1000
0100
,
0010
0011
0010
0010
,
0100
0000
0000
0000
1000
1000
0010
0010
,
0100
0100
0001
0000
0010
0000
0011
0000
,
0110
0000
0000
0000
0100
0000
1000
0010
,
0100
0110
0100
0001
,
0010
0000
0000
0000
0002
1003
0000
0000
;
#NOTES:
     dance-single:
     Renard:
     Easy:
     6:
     0.402,0.574,0.000,0.058,0.000:
0000
0000
0000
0000
,
0000
0000
0000
0000
,
0000
0000
0000
0000
,
0000
0000
0000
0000
,
1000
1000
1000
0000
,
0001
0000
0001
0001
0001
0000
0001
0000
,
1000
1000
1000
0000
,
0002
0000
0000
1003
0000
0000
0000
0000
,
1000
1000
1000
0000
,
0001
0000
1000
0001
1000
0000
1000
0000
,
0001
0001
0001
0000
,
1000
0000
0001
1000
0001
0000
1000
0000
,
0001
0001
0001
0000
,
1000
0000
0001
1000
0001
0000
0001
0000
,
1000
1000
0001
0000
,
1000
0001
1000
0000
,
0010
0000
0010
0000
0010
0000
0000
0010
,
0000
0000
0010
0010
,
0100
0000
0100
0000
0100
0000
0000
0100
,
0000
0100
0100
0100
,
0001
0000
0001
0000
0001
0000
0000
0001
,
0000
0000
0001
0001
,
1000
1000
1000
0000
,
2000
0000
0000
3001
,
0001
0000
0100
0000
0100
0000
0010
1000
,
0010
1000
0010
1000
0010
1000
0010
0000
,
0010
0000
0100
0000
0100
0000
0001
1000
,
0001
1000
0001
1000
0001
1000
0001
0000
,
0001
0000
0010
0000
0010
0000
0100
1000
,
0100
1000
0100
1000
0100
1000
0010
0000
,
0010
0000
1000
0000
1000
0000
0001
0100
,
0001
0100
0001
0100
0001
0100
0001
0000
,
0001
0000
0010
0000
0010
0000
0100
1000
,
0100
1000
0100
1000
0100
1000
0100
0000
,
0100
0000
1000
0000
1000
0000
0010
1000
,
0010
1000
0010
1000
0010
1000
0001
0000
,
0001
0000
0010
0000
0010
0000
0001
1000
,
0001
1000
0001
1000
0001
2000
0000
0000
,
0000
0000
0000
0000
,
0000
3100
0100
1000
,
1000
0100
0100
1000
,
0100
0010
0010
0001
,
0001
0010
0001
0010
,
0001
0000
1000
0001
1000
0001
1000
0001
,
1000
0001
1000
0001
1000
0001
1000
0001
,
1000
0001
1000
0001
1000
0001
1000
0001
,
1000
0001
2000
0000
0000
0000
0000
0000
,
0000
3001
0001
1000
,
1000
0000
0001
1000
0001
0000
1000
0000
,
0001
0100
0100
0010
,
0010
0000
1000
0001
1000
0001
1000
0000
,
0001
1000
1000
0100
,
0100
0000
1000
0001
1000
0000
0001
1000
,
0001
0010
0010
0001
,
0001
0000
0100
0001
0100
0001
0100
0000
,
0100
0010
0010
0010
,
0010
1000
1000
0010
,
0010
0100
0100
0100
,
0100
0001
0001
0100
,
0100
0010
0010
0010
,
0010
1000
1000
0001
,
0001
2000
0000
0000
,
0000
0000
3100
0100
,
0100
0000
0000
0000
0010
0000
0010
0010
,
0010
0010
0001
0001
,
0001
0000
0000
0000
1000
0000
1000
1000
,
1000
1000
0001
0001
,
0001
0000
0000
0000
0100
0000
0100
0100
,
0100
0100
0010
0010
,
0010
0000
0000
0000
2000
3001
0000
0000
;
#NOTES:
     dance-single:
     Renard:
     Beginner:
     3:
     0.255,0.270,0.000,0.058,0.000:
0000
0000
0000
0000
,
0000
0000
0000
0000
,
0000
0000
0000
0000
,
0000
0000
0000
0000
,
1000
1000
1000
0000
,
0001
1000
0001
1000
,
0001
0001
0001
0000
,
2000
0000
0000
0000
,
3010
0010
0010
0000
,
1000
0010
1000
0000
,
0001
0001
0001
0000
,
0100
0001
0100
0000
,
0001
0001
0001
0000
,
1000
0100
1000
0000
,
0001
0001
0001
0000
,
1000
0000
0010
0000
,
1000
1000
1000
0000
,
1000
0000
1000
0000
,
1000
1000
1000
0000
,
1000
0000
1000
0000
,
0001
0001
0001
0000
,
0001
0000
0001
0000
,
0001
0001
0001
0000
,
2000
0000
0000
3001
,
0001
1000
0000
0010
,
1000
0001
0000
1000
,
1000
0001
0000
1000
,
0100
1000
0000
0001
,
0001
0010
0000
0001
,
1000
0010
0000
1000
,
1000
1000
0000
0001
,
0100
0001
1000
0100
,
0000
0100
0000
0010
,
0010
0001
0000
1000
,
0000
0010
0000
0100
,
0001
1000
0000
0100
,
0000
1000
0000
0100
,
1000
0001
0000
0020
,
0000
0000
0000
0000
,
0000
0031
0001
0010
,
0000
0001
0001
0010
,
0000
0100
0100
1000
,
0000
0010
0010
1000
,
0000
0001
0001
0100
,
0000
0010
0010
1000
,
0000
0010
1000
0010
,
1000
0020
0000
0000
,
0000
1030
0000
1000
,
0000
0010
0000
0010
,
0000
1000
0010
1000
,
0000
0001
0000
0100
,
0000
0001
0000
0001
,
0000
1000
0000
0010
,
0000
1000
1000
0010
,
0000
0010
1000
0001
,
0100
0001
0000
0001
,
0000
1000
1000
1000
,
1000
0001
0000
0001
,
0000
1000
1000
1000
,
1000
0001
0000
0001
,
0000
1000
0000
0001
,
0000
2000
0000
0000
,
0000
0000
3001
0001
,
0001
0000
1000
0001
,
1000
1000
0001
0001
,
0001
0000
1000
0001
,
1000
0001
0100
0100
,
0100
0000
0010
0100
,
0010
0100
0010
0000
,
1000
0000
0000
0000
0002
0003
0000
0000
;
