#TITLE:The Big Orange Love;
#SUBTITLE:;
#ARTIST:The Flashbulb;
#TITLETRANSLIT:;
#SUBTITLETRANSLIT:;
#ARTISTTRANSLIT:;
#CRChallenge:;
#BANNER:orange-banner.avi;
#BACKGROUND:orange-bg.png;
#LYRICSPATH:;
#CDTITLE:!cdtitle.png;
#MUSIC:orange.ogg;
#OFFSET:0.020;
#SAMPLESTART:4.680;
#SAMPLELENGTH:11.960;
#SELECTABLE:YES;
#DISPLAYBPM:100.000;
#BPMS:0.000=100.000,72.000=6.250,74.000=99.995,112.000=300.000,118.000=100.000,134.000=12.500,136.000=25.000;
#STOPS:0.000=0.020
;
#BGCHANGES:;
#NOTES:
     dance-single:
     Renard:
     Hard:
     9:
     0.528,0.788,0.259,0.324,0.612:
0000
0000
0000
0000
,
0000
0000
0000
0000
,
1000
0000
1000
0100
1000
0000
0001
0010
0000
0001
1000
0000
0110
0000
0000
0000
,
0010
0000
1000
0001
0100
0000
0001
0010
0000
0100
1000
0000
0101
0000
0000
0000
,
0110
0000
0010
1000
1000
0000
0001
0100
0010
1000
0010
1000
0010
1000
0010
0000
,
1000
0000
0010
0100
0001
0000
0010
0100
0000
1000
0001
0000
0110
0000
1001
0000
,
0210
0000
0000
0000
,
0002
0300
0020
0003
,
0130
0100
0000
1000
1000
0000
0001
0001
0000
0100
0010
1000
0001
0000
0100
0000
,
0010
0010
0000
1000
1000
0000
0001
0001
0000
0010
0010
0000
0100
0000
1000
0000
,
0001
0000
0000
0000
1000
0010
1000
0001
0100
0000
0001
0010
0001
0000
1000
0000
,
0100
0000
0000
0000
1000
0010
1000
0010
0100
0000
0001
0000
0010
0000
0001
0000
,
1000
0000
0000
0000
0010
1000
0010
1000
0001
0000
0100
0000
0001
0000
1000
0000
,
0100
0000
0000
0000
1000
0001
1000
0001
0010
0000
0001
0000
1000
0000
0010
0000
,
0110
0000
0000
0000
0010
1000
0001
0100
0110
0000
0010
0000
1010
0000
0000
0000
,
1010
0000
0000
0000
1000
0100
0010
0001
0011
0000
0001
0010
0100
1000
0001
0000
,
0101
0000
0000
0000
0001
0100
0010
1000
1010
0000
1010
0000
1001
0000
0000
0000
,
2000
0000
0000
0000
3001
0100
0010
1000
0100
0010
0001
0010
0100
1000
0001
0000
,
2001
0000
0000
0000
3020
0000
0230
0000
0302
2000
0010
0000
3010
1003
0001
1000
0020
0000
0230
0000
0302
0000
0200
0020
2000
0000
0000
0000
0000
3333
0000
0000
1100
0000
0000
0000
0000
0000
0000
0000
1000
0000
0000
0000
0000
0000
0000
0000
0011
0000
0000
0000
0000
0000
0000
0000
0001
0000
0000
0000
0010
0000
0000
0000
,
0001
0000
1000
0000
0001
0000
0000
0000
0011
0000
0000
0000
0011
0000
0000
0000
1000
0000
0000
1000
0000
0000
1000
0000
0010
0000
0000
0000
0100
0000
0000
0000
,
0001
0000
1000
0000
0100
1000
0100
0000
1000
0000
0101
0000
0001
1000
0100
1000
,
0001
0000
0000
0000
1010
0000
0000
0000
0201
0000
0000
0010
0000
0000
1000
0000
0310
0000
0000
0000
1000
0000
0010
1000
0010
0000
1000
0000
0010
0000
0100
0000
,
0001
0000
0000
0000
1000
0000
0100
0000
1000
0000
0001
0000
0100
0000
0001
0000
1000
0000
0000
0000
0001
0000
0000
0000
1001
0000
0000
0000
0001
0100
0001
0100
,
0001
0000
1000
1000
1000
0000
0010
0000
0100
0000
0001
1000
0100
0000
1000
0000
,
0001
0010
0001
1000
0010
0100
0001
0100
0010
0000
0010
0000
1000
0000
0100
0000
,
0010
0000
0001
0010
0001
0000
1000
0100
1000
0000
0001
0000
0100
0000
0010
0000
1000
0000
0000
0000
0010
0000
0100
0000
0001
0000
0100
0000
0010
0000
1000
0000
,
0100
0000
1000
0000
0001
0000
0100
0010
0100
0000
0010
0000
1000
0000
0000
0000
0002
0000
0000
0000
0000
0000
0000
0000
0103
0000
0100
0000
0100
0000
0100
0000
,
0002
0000
0000
0000
0103
0100
0100
0100
0002
0000
0000
0000
0103
0100
0100
0100
,
M002
0M00
00M0
0M00
M000
0M00
00M0
0M00
,
M000
0000
0M00
0000
00M0
0000
0M00
0000
1003
0000
1000
0100
0010
0001
0010
0100
,
1000
0000
0001
0000
0101
0000
0001
0010
0100
1000
0001
0100
0110
0000
0010
1000
,
0000
0100
1000
0001
0010
0000
0001
0000
1000
0000
0010
0100
0110
0000
0010
0000
,
1000
0000
0001
1000
0001
0000
1000
0001
1000
0000
0001
1000
0002
0000
0000
0000
1003
0000
0000
0000
0010
0000
0000
0000
1010
0000
0000
0000
0010
0000
0100
0000
,
0000
0000
0000
0000
0001
0000
0000
0000
0010
0000
0000
0000
0000
0000
0000
0000
0100
0000
0000
0000
0100
0000
0000
0000
0100
0000
0000
0000
0000
0000
0000
0000
2M00
3000
20M0
0000
320M
0300
02M0
0000
M320
0030
0M20
0000
M032
0000
00M0
0000
2M03
3000
20M0
0000
320M
0300
02M0
0000
M320
0030
0M20
0000
M032
0000
00M0
0000
,
0003
0000
0000
0000
;
#NOTES:
     dance-single:
     Renard:
     Medium:
     6:
     0.311,0.409,0.037,0.334,0.051:
0000
0000
0000
0000
,
0000
0000
0000
0000
,
0001
1000
0100
1000
0000
0001
0101
0000
,
0001
1000
0100
0100
1000
0000
0101
0000
,
0001
1000
0010
0010
1000
1000
1000
1000
,
0001
0000
0101
0001
0000
1000
0100
0010
,
0012
0000
0000
0000
,
0203
0000
0320
0000
,
2030
0000
0100
0000
0010
0010
0010
0000
,
0001
0000
0001
0000
0010
0010
3010
0000
,
0020
0000
1030
0100
0020
0000
0031
0100
,
0020
0000
0130
0001
0020
0000
0130
1000
,
0020
0000
1030
0001
0020
0000
0031
0100
,
0020
0000
1030
0100
0020
0000
0031
1000
,
0002
0000
0103
0010
2000
0000
3010
0100
,
0002
0000
0013
0100
2000
0000
3100
0010
,
0002
0000
0103
0010
2000
0000
3010
0100
,
0020
0000
1030
0010
0200
0000
0310
1000
,
0200
0000
2300
0000
3002
0000
0000
0000
2003
3200
0320
0032
2003
0000
0000
0000
3001
0000
0000
0000
0000
0000
0000
0000
0100
0000
0000
0000
0010
0000
0000
0000
,
1000
0000
0001
0000
1000
0000
0100
0010
,
0001
0000
0001
1000
0010
0000
0010
0100
,
0001
0000
0001
0100
0010
0010
1000
1000
,
0010
0010
1000
0001
0100
0000
0100
0001
,
1000
0000
1000
0100
0010
0000
0010
0001
,
1000
1000
0001
0001
0100
0000
0100
0010
,
1000
0000
1000
0010
0100
0000
0100
0001
,
1000
0100
0010
0001
2000
0000
0010
3010
,
2000
0000
0100
3100
2000
0000
0001
3001
,
2M00
00M0
000M
00M0
0M00
000M
00M0
0M00
,
00M0
000M
0M00
00M0
3001
0000
0100
0010
,
1000
0100
0010
0010
0001
0000
1000
0010
,
0100
0100
0001
0010
0001
0000
1000
0001
,
0010
0010
0001
1000
0010
0000
0100
0100
,
0001
0000
0000
0000
1000
0000
0000
0000
0100
0000
0000
0000
0010
0000
0000
0000
0002
0000
2003
0000
3200
0000
0320
0000
0031
1000
0100
0010
0001
1000
0100
0000
;
#NOTES:
     dance-single:
     WinDEU:
     Easy:
     5:
     0.255,0.362,0.111,0.296,0.023:
0000
0000
0000
0000
,
0000
0000
0000
0000
,
1000
0100
0010
0001
0000
0100
0110
0000
,
0000
1000
0010
1000
0000
0010
0110
0000
,
0001
0100
0020
0030
1000
0001
1000
0001
,
0010
0000
0100
0000
0010
0010
0001
0100
,
0020
0000
0000
0000
,
2030
0000
3200
0000
,
0310
0000
0001
0000
0100
0010
1000
0000
,
0000
0010
0100
0001
1000
0100
0010
0000
,
0001
0000
0100
0001
0010
0000
0100
1000
,
0010
0000
0100
0001
0010
0000
0100
1000
,
0100
0000
1000
0010
0100
0000
0001
0010
,
0100
0000
1000
0010
0100
0000
0001
0000
,
0102
0003
2100
3000
,
0210
0300
0102
0003
,
2000
0100
3100
0000
0020
0001
0031
0000
,
0200
0010
0310
0000
2000
0001
3001
0000
,
1000
0000
0001
0000
0100
0000
0010
0000
1000
0000
0001
0000
2002
0000
0000
3003
2000
0000
0000
0000
0000
0000
0000
0000
3010
0000
0000
0000
0100
0000
0000
0000
,
0002
0000
0013
0100
2000
0000
3010
0100
,
0002
0000
0013
0100
0010
0001
0100
0000
,
0010
1000
0020
0000
0130
0000
0001
0000
,
0010
0100
2200
0000
,
0000
3300
0022
0000
,
0000
0000
0033
0000
0002
0000
0103
0010
,
2000
0000
3100
0010
0002
0000
0013
0100
,
2000
0000
3010
0100
0002
0000
0003
0000
,
2000
3000
0200
0300
,
2002
0000
0000
0000
,
3003
0000
0001
1000
,
0010
0100
0001
0000
0010
0000
0100
0000
,
0010
0001
1000
0000
0010
0000
0100
0000
,
0010
1000
0100
0000
0010
0000
0001
0000
,
0100
0000
0001
0000
1000
0000
0001
0000
0100
0000
0000
0101
0010
0000
0000
1100
;
#NOTES:
     dance-single:
     WinDEU:
     Beginner:
     2:
     0.144,0.157,0.019,0.250,0.009:
0000
0000
0000
0000
,
0000
0000
0000
0000
,
2000
0000
0000
3000
,
0010
0000
0100
0000
,
0001
0000
0000
0000
,
0000
0000
0000
0000
,
0010
0010
0010
0010
,
0100
0100
1000
1000
,
0001
0100
0001
0010
,
0100
0100
0100
0100
,
2000
3000
0020
0030
,
0200
0300
0002
0003
,
0020
0030
0200
0300
,
2000
3000
0020
0030
,
0200
0300
0002
0003
,
0020
0030
0200
0300
,
0020
0000
0032
0000
,
2003
0000
3020
0000
,
0130
0001
1000
1001
0001
0000
0000
0000
,
0100
0000
0010
0000
,
1000
0000
0200
0300
,
0200
0300
0200
1300
,
0010
0100
0002
0000
,
0000
0000
0023
0000
,
0000
0000
0130
0000
,
0100
0000
0100
0000
,
0100
0000
0200
0300
,
0200
0300
0200
0300
,
2002
0000
0000
0000
,
3003
0000
0001
0100
,
0010
1000
0100
0010
,
0001
0100
0010
1000
,
0100
1000
0010
0100
,
0001
0000
0000
0000
0010
0000
0000
0000
0100
0000
0000
1000
0001
0000
0000
0100
;
