#TITLE:The Beast and the Harlot;
#SUBTITLE:;
#ARTIST:Avenged Svenfold;
#TITLETRANSLIT:;
#SUBTITLETRANSLIT:;
#ARTISTTRANSLIT:;
#CRChallenge:;
#BANNER:beast.png;
#BACKGROUND:beast-bg.png;
#LYRICSPATH:;
#CDTITLE:;
#MUSIC:beast.ogg;
#OFFSET:-0.017;
#SAMPLESTART:64.949;
#SAMPLELENGTH:12.000;
#SELECTABLE:YES;
#DISPLAYBPM:155.000;
#BPMS:0.000=155.150,329.000=137.850,329.296=128.750,329.546=118.230,329.796=110.390,330.046=101.930,330.296=94.730,330.546=87.910,330.796=78.890,331.046=72.070,331.296=62.850,331.546=56.630,331.796=45.210,332.000=34.450,332.046=33.370,332.250=22.810,332.500=9.310;
#STOPS:;
#BGCHANGES:;
#NOTES:
     dance-single:
     Appleman2900:
     Medium:
     9:
     0.649,0.774,0.409,0.297,0.011:
0000
0000
0000
0000
,
0000
0000
0000
0000
,
0000
0000
0000
0000
,
0000
0000
0000
0000
,
0000
0000
0000
0000
,
0000
0000
0000
0000
0001
0000
0010
0100
,
1000
0100
0010
0000
0010
0100
1000
0001
,
0100
0000
0100
0010
1000
0100
0010
0000
,
0010
0000
0100
0000
1001
0000
0100
0001
,
1000
0100
0010
0001
0010
0100
1000
0000
,
2002
0000
0000
0000
,
0000
0000
0000
0000
,
0000
0000
0000
3003
,
1000
0100
0010
0001
0100
0010
0100
0001
,
1000
0100
0001
0100
1000
0010
0100
0000
,
0001
1000
0100
0010
0001
0100
0010
0100
,
0001
1000
0100
0010
0001
0100
0010
0000
,
0010
0100
0001
1000
0100
0001
0100
1000
,
0001
0100
0010
0100
0001
1000
1100
0000
,
0001
0100
0010
1000
0001
1000
0100
0010
,
0001
0000
0100
0010
0100
0000
0001
1000
0001
0000
0100
0010
0100
0000
0000
0000
,
0001
1000
0100
0010
0001
1000
0010
0100
,
0001
1000
0100
0010
0001
0100
0010
0100
,
0001
1000
0100
0001
0100
1000
0010
1000
,
0100
1000
0010
1000
0100
1000
0010
0001
,
0010
1000
0001
0100
0001
0010
1000
0010
,
0001
0100
0010
1000
0100
0010
0100
0001
,
0100
1000
0010
0100
0001
1000
0010
0100
,
0001
1000
0100
0010
0001
0100
0010
1000
,
2002
0000
0000
0000
0000
3003
1100
0000
,
0011
0101
1010
1100
,
1000
0100
0011
0001
0100
0010
0110
0100
,
0001
1000
1100
0100
0010
0001
1001
0100
,
0010
0100
0101
0001
1000
0100
0110
0010
,
0001
0100
0110
0000
1001
0000
1100
0000
,
1000
0100
0010
0001
0100
0010
0101
0000
,
0100
0001
1000
0010
1000
0100
0110
0000
,
0010
0001
0100
0010
0100
0001
1000
0100
,
0010
0001
1000
0001
0100
0010
1000
0001
,
2002
0000
0000
0000
0000
3003
2200
0000
,
3311
0202
1313
0220
,
1331
2002
3113
1111
,
1000
0100
0001
0100
1000
0010
0100
0001
,
0100
1000
0100
0001
1000
0100
0001
0100
,
1000
0010
0001
1000
0100
0001
1000
0100
,
0001
0100
1000
0010
0100
0001
1000
0010
,
0100
0001
1000
0100
0010
0001
0100
0010
,
0100
0001
1000
0100
0001
0100
1000
0010
,
0100
0001
0100
0010
0100
0001
1000
0100
,
0001
0100
1000
0010
1000
0100
1000
0001
,
0100
0001
0010
0001
1000
0010
1000
0100
,
1000
0100
0001
0100
1000
1000
0100
0010
,
0001
0100
1000
0100
0001
1000
0100
1000
,
0100
0010
0001
0010
0001
0100
0010
0100
,
0001
1000
0100
0010
0001
0100
0010
0100
,
0001
0100
1000
0100
0001
1000
0100
0010
,
0100
0001
0100
1000
0010
0100
0001
0010
,
0001
1000
0010
0100
0001
1000
0010
0100
,
1000
0100
0001
0100
1000
0100
0001
1000
,
0100
0010
0001
1000
1000
0100
0010
0001
,
0100
0010
0100
0001
0100
1000
0100
0001
,
1000
0100
0001
0100
1000
0100
0010
0001
,
0100
0010
0100
0001
1000
0010
1000
0100
,
0010
0001
0100
1000
0100
0001
1000
0100
,
0001
1000
0010
0001
0100
0010
0100
0001
,
1000
0100
1000
0010
1000
0100
0010
0001
,
0100
0001
0010
0001
0100
0010
1000
0100
,
0001
0100
1000
0010
1000
0001
1000
0100
,
0010
0001
0010
0100
1000
0010
0100
0001
,
1000
0100
0001
0100
1000
0010
0100
0001
,
0100
0001
0100
0001
0100
0010
0100
0010
,
0100
1000
0100
1000
0100
0001
0100
0001
,
1000
0001
1000
0001
1000
0100
1000
0100
,
1000
0010
1000
0010
1000
0001
1000
0001
,
1100
0000
2200
3311
,
0202
1313
1100
0000
,
0220
1331
0000
0000
,
2200
3311
0202
1313
,
0000
0220
1331
0000
,
0000
2002
3113
0220
,
1331
0000
2200
3311
,
0000
0220
1331
2200
,
3311
2222
0000
0000
,
0000
3333
0000
0000
;
#NOTES:
     dance-single:
     Renard & Appleman290:
     Hard:
     12:
     0.872,1.000,0.431,0.312,0.758:
0000
0000
0000
0000
,
0000
0000
0000
0000
,
0000
0000
0000
0000
,
0000
0000
0000
0000
,
0000
0000
0000
0000
,
0000
0000
0000
0000
0001
0000
0010
0100
,
1000
0100
0010
0000
0010
0100
1000
0001
,
0100
0000
0100
0010
1000
0100
0010
0000
,
0010
0000
0100
0000
1001
0000
0100
0001
,
1000
0100
0010
0001
0010
0100
1000
0000
,
2002
0000
0000
0000
,
0000
0000
0000
0000
,
0000
0000
0000
3003
,
0001
0010
0100
1000
0001
0000
1000
0100
0010
0001
1000
0000
0001
0010
0100
1000
,
0001
0000
1000
0100
0010
0001
1000
0000
0001
0010
0100
1000
0001
0000
0000
0000
,
1000
0010
0100
0001
1000
0000
0001
0100
0010
1000
0001
0000
1000
0010
0100
0001
,
1000
0000
0001
0100
0010
1000
0001
0000
1000
0100
0010
0001
1000
0000
0000
0000
,
0001
0100
0001
0100
0001
0000
1000
0010
1000
0010
1000
0000
0001
0010
0001
0010
,
0001
0000
1000
0100
1000
0100
1000
0000
0001
1000
0001
1000
0001
0000
0000
0000
,
1000
0010
1000
0010
1000
0000
0001
0100
0001
0100
0001
0000
1000
0100
1000
0100
,
1000
0000
0001
0010
0001
0010
0001
0000
1000
0100
0010
0001
0010
0100
1000
0001
,
1000
0100
0010
0100
1000
0000
0001
0010
0100
0010
0001
0000
1000
0100
0010
0100
,
1000
0000
0001
0010
0100
0010
0001
0000
1000
0100
0010
0001
1000
0000
0001
0000
,
1000
0001
0100
0001
1000
0000
0001
1000
0100
1000
0001
0000
1000
0001
1000
0000
,
0001
1000
0010
0000
1001
0000
1000
0100
0010
0001
0010
0100
1000
0000
1001
0000
,
0001
0010
0100
1000
0001
0000
1000
0100
0010
0001
1000
0000
0001
0010
0100
1000
,
0001
0000
1000
0100
0010
0001
1000
0000
0001
0100
0010
1000
0001
0000
1001
0000
,
0010
1000
0010
1000
0010
0000
0100
0001
0100
0001
0100
0000
0001
0100
0010
0000
,
1000
0010
0100
0000
1001
0000
0001
0010
0100
1000
0100
0010
0001
0000
0000
0000
,
2002
0000
0000
3003
,
2002
3113
2002
3113
,
0100
0010
1000
0001
0100
0000
0001
1000
0010
0100
0001
0000
1000
0100
0010
0001
,
1000
0000
0100
0010
0001
0010
0100
0000
1000
0001
1000
0001
1000
0000
0101
0000
,
0010
1000
0010
1000
0010
0000
0100
0001
0100
0001
0100
0000
0001
1000
0010
0000
,
0100
0010
1000
0000
0101
0000
0100
0010
1000
0001
1000
0010
0100
0000
0101
0000
,
0010
1000
0001
0100
0010
0000
0100
0001
1000
0010
0100
0000
0001
0010
0100
1000
,
0001
0000
1000
0001
0100
0001
1000
0000
0001
1000
0010
1000
0001
0000
0110
0000
,
1000
0001
1000
0001
1000
0000
0010
0100
0010
0100
0010
0000
0100
0001
1000
0000
,
0010
1000
0001
0000
0110
0000
0010
1000
0001
0100
0001
1000
0010
0000
0110
0000
,
2002
0000
3003
2002
,
3113
0220
1331
2200
,
3311
0202
1313
1111
,
1000
0100
1000
0000
0001
0100
0001
0000
1000
0100
1000
0000
0001
0100
0001
0000
,
1000
0010
1000
0000
0001
0010
0001
0000
1000
0010
1000
0000
0001
0010
0001
0000
,
1000
0100
0010
0000
0001
0010
0100
0000
1000
0100
0010
0000
0001
0010
0100
0000
,
1000
0001
1000
0000
0001
0100
0001
0000
1000
0001
1000
0000
0100
0000
1001
0000
,
0001
0010
0001
0000
1000
0010
1000
0000
0001
0010
0001
0000
1000
0010
1000
0000
,
0001
0100
0001
0000
1000
0100
1000
0000
0001
0100
0001
0000
1000
0100
1000
0000
,
0001
0010
0100
0000
1000
0100
0010
0000
0001
0010
0100
0000
1000
0100
0010
0000
,
0001
1000
0001
0000
1000
0010
1000
0000
0001
1000
0001
0000
0010
0000
1001
0000
,
0100
0000
0001
0000
0010
0001
0010
0000
0001
0000
0100
0000
0010
1000
0010
0000
,
1000
0000
0100
0000
0010
0001
0010
0000
0100
0000
1000
0000
0010
1000
0010
0000
,
0100
0000
0001
0000
1000
0100
1000
0000
0001
0000
0100
0000
0001
0010
0001
0000
,
0010
0100
1000
0001
0100
0010
1000
0001
,
0010
0001
0010
0000
0100
0000
1000
0000
0010
1000
0010
0000
0100
0000
0001
0000
,
0100
0001
0100
0000
0001
0000
0010
0000
0100
0010
0100
0000
1000
0000
0010
0000
,
1000
0010
1000
0000
0001
0000
0100
0000
0010
0000
1000
0000
0001
0000
0010
0000
,
0100
0000
1000
0000
0010
1000
0010
0000
0100
0000
0001
0000
1000
0000
0001
0000
,
0010
0001
0010
0000
0100
0000
1000
0000
0010
1000
0010
0000
0100
0000
0001
0000
,
1000
0001
1000
0000
0001
0000
0010
0000
0100
1000
0100
0000
1000
0000
0010
0000
,
0100
0010
0100
0000
0010
0000
1000
0000
0001
0010
0001
0000
0010
0000
0100
0000
,
1000
0010
1000
0000
0001
0000
0001
0000
0001
0010
0001
0000
1000
0000
1000
0000
,
1000
0001
1000
0000
0010
0000
0100
0000
0001
0000
0010
0000
0001
0000
0010
0000
,
0100
1000
0100
0000
1000
0000
0010
0000
0100
0000
0001
0000
1000
0000
0010
0000
,
1000
0010
1000
0000
0010
0000
0100
0000
0001
0000
0010
0000
0001
0000
0100
0000
,
0010
0100
0001
0000
1000
0000
0001
0000
1000
0100
0010
0000
0001
0000
1000
0000
,
0010
0100
0010
0000
0100
0000
0001
0000
1000
0100
1000
0000
0100
0000
0010
0000
,
0001
0010
0001
0000
0100
0000
0001
0000
0100
0010
0100
0000
0010
0000
0100
0000
,
0001
0010
0100
0000
1000
0000
0001
0000
1000
0100
0010
0000
0001
0000
0100
0000
,
0010
0100
0001
0000
1000
0000
0100
0000
0010
0001
0100
0000
0010
0000
1000
0000
,
0001
1000
0001
1000
0001
0000
1001
0000
0010
0100
0010
0100
0010
0000
0110
0000
,
0001
0100
0001
0100
0001
0000
1001
0000
0100
1000
0100
1000
0100
0000
1001
0000
,
0001
0100
0001
0100
0001
0100
0001
0100
0010
0100
0010
0100
0010
0100
0010
0100
,
1000
0100
1000
0100
1000
0100
1000
0100
0010
0100
0010
0100
0010
0100
0010
0000
,
1001
M00M
M2M2
1313
,
22MM
3311
1MM1
M00M
,
2MM2
3113
M00M
0M0M
,
M2M2
1313
22MM
3311
,
M00M
2MM2
3113
M00M
,
0MM0
M22M
1331
2MM2
,
3113
0MM0
M2M2
1313
,
0M0M
2MM2
3113
M2M2
,
1313
1212
0000
0000
,
0000
0303
0000
0000
;
#NOTES:
     dance-single:
     Renard:
     Easy:
     5:
     0.328,0.557,0.112,0.164,0.000:
0000
0000
0000
0000
,
0000
0000
0000
0000
,
0000
0000
0000
0000
,
0000
0000
0000
0000
,
0000
0000
0000
0000
,
0000
0000
0000
0000
,
0000
0000
0000
0000
,
0000
0000
0000
0000
,
0000
0000
0000
0000
,
0000
0000
0000
0000
,
0000
0000
0000
0000
,
0000
0000
0000
0000
,
0000
0000
0000
0000
,
0001
0000
1000
0000
0100
1000
0100
0000
,
1000
0000
0001
0000
0100
0001
0100
0000
,
0001
0000
1000
0000
0100
1000
0100
0000
,
1000
0100
0010
0001
0010
0100
1000
0000
,
0001
0000
0100
0000
0001
0100
0001
0000
,
1000
0000
0001
0000
1000
0001
1000
0000
,
0100
1000
0100
1000
,
0001
0000
0010
0000
0100
1000
0100
0010
,
0001
1000
0001
1000
,
0010
0000
0100
0000
0010
0100
0010
0000
,
1000
0010
0100
0001
,
1000
0100
0000
0010
0000
0001
0000
1000
,
0100
1000
0001
0100
,
0010
0000
1000
0000
0001
0100
0001
0000
,
1000
0100
0010
0001
,
0010
0100
1000
0001
,
0100
0001
1000
0100
0000
1000
0000
0000
,
0001
0101
1000
1100
,
1000
0001
0100
0010
,
1000
0000
0001
0000
0100
0010
0100
0000
,
0010
1000
0100
0010
,
0001
0010
0000
0100
0000
1000
0000
0100
,
0010
0001
1000
0010
,
0100
0001
0100
0010
,
1000
0000
0010
0000
0100
0001
0100
0000
,
0001
1000
0100
0010
,
0001
0010
0100
1000
0000
0001
1000
0000
,
1001
1001
0110
0110
,
1001
0110
1001
0110
,
1002
0000
0000
0003
0100
0000
0010
0000
,
1000
0100
1000
0000
0010
1000
0010
0000
,
2000
0000
0000
3000
0002
0000
0000
0000
,
0000
0003
0100
0010
,
1000
0000
0010
0100
0010
0000
0100
0000
,
0001
0000
1000
0100
1000
0000
0001
0000
,
0010
0000
0001
1000
0001
0000
1000
0010
,
1000
0001
0100
0010
,
1001
0000
1000
0100
,
0010
0010
0001
0100
,
0010
0010
1000
0100
,
0020
0000
0000
0030
0002
0000
0000
0003
,
2000
0000
3020
0000
,
0230
0000
0302
0000
,
2003
0000
3200
0000
,
0320
0000
0032
0000
,
1003
0000
0010
0100
,
0001
0001
1000
0100
,
0020
0000
0032
0000
,
0000
0000
1003
1000
,
0010
0000
0100
0001
,
1000
0100
1000
0001
,
0010
0010
0001
0001
,
1000
0010
0100
0001
,
1100
0000
1000
0001
,
0100
0100
0010
0010
,
1000
1000
0010
0100
,
0002
0000
2003
0000
,
3100
0000
1000
0100
1000
0100
1000
0000
,
0001
0000
0100
0001
0100
0000
0001
0000
,
1000
0000
0100
1000
0100
0000
1000
0000
,
0001
0010
0001
1000
,
0210
0000
0001
0001
,
0010
0010
0301
0000
,
0001
2000
0000
0000
,
3100
0100
0010
0001
,
0000
1000
0020
0000
,
0000
0130
0100
0001
,
1000
0000
0100
0010
,
0000
0000
0010
0001
,
1000
0220
0000
0000
,
0000
0330
0000
0000
;
#NOTES:
     dance-single:
     Renard:
     Beginner:
     3:
     0.258,0.275,0.000,0.000,0.000:
0000
0000
0000
0000
,
0000
0000
0000
0000
,
0000
0000
0000
0000
,
0000
0000
0000
0000
,
0000
0000
0000
0000
,
0000
0000
0000
0000
,
0000
0000
0000
0000
,
0000
0000
0000
0000
,
0000
0000
0000
0000
,
0000
0000
0000
0000
,
0000
0000
0000
0000
,
0000
0000
0000
0000
,
0000
0000
0000
0000
,
0001
1000
0100
0100
,
1000
0001
0100
0001
,
0001
1000
0100
0100
,
1000
0010
0001
0100
,
0001
0100
0001
0001
,
1000
0001
1000
0001
,
0100
1000
0100
1000
,
0001
0010
0100
0100
,
0001
1000
0001
1000
,
0010
0100
0010
0010
,
1000
0010
0100
0001
,
1000
0100
0010
0001
,
0100
1000
0001
0100
,
0010
1000
0001
0001
,
1000
0100
0010
0001
,
0010
0100
1000
0001
,
0100
0001
0100
1000
,
0001
0001
1000
0100
,
1000
0001
0100
0010
,
1000
0001
0100
0010
,
0010
1000
0100
0010
,
0001
0010
0100
1000
,
0010
0001
1000
0010
,
0100
0001
0100
0010
,
1000
0010
0100
0001
,
0001
1000
0100
0010
,
0001
0010
1000
0001
,
0001
0001
0010
0010
,
0001
0010
0001
0010
,
0001
0000
0100
0010
,
1000
0100
0010
0010
,
1000
0000
0001
0000
,
0000
0000
0100
0010
,
1000
0010
0010
0100
,
0001
1000
0100
0001
,
0010
0001
0001
1000
,
0010
0001
0100
0010
,
0001
0000
1000
0100
,
0010
0010
0001
0100
,
0010
0010
1000
0100
,
0010
0000
0001
0000
,
1000
0000
0010
0000
,
0100
0000
0001
0000
,
1000
0000
0100
0000
,
0010
0000
0001
0000
,
1000
0000
0010
0100
,
0001
0001
1000
0100
,
0010
0000
0001
0000
,
0000
0000
1000
1000
,
0010
0000
0100
0001
,
1000
0100
1000
0001
,
0010
0010
0001
0001
,
1000
0010
0100
0001
,
0100
0000
1000
0001
,
0100
0100
0010
0010
,
1000
1000
0010
0100
,
0001
0000
1000
0000
,
0100
1000
0100
0100
,
0001
0100
0001
0001
,
1000
0100
0100
1000
,
0001
0010
0001
1000
,
0010
0000
0001
0001
,
0010
0010
0001
0000
,
0001
1000
0000
0000
,
0100
0100
0010
0001
,
0000
1000
0010
0000
,
0000
0100
0100
0001
,
1000
0000
0100
0010
,
0000
0000
0010
0001
,
1000
0010
0000
0000
;
