#TITLE:The April Sunshine Shed;
#SUBTITLE:;
#ARTIST:The Flashbulb;
#TITLETRANSLIT:;
#SUBTITLETRANSLIT:;
#ARTISTTRANSLIT:;
#CRChallenge:;
#BANNER:april-banner.avi;
#BACKGROUND:april-bg.png;
#LYRICSPATH:;
#CDTITLE:!cdtitle.png;
#MUSIC:april.ogg;
#OFFSET:0.000;
#SAMPLESTART:21.395;
#SAMPLELENGTH:12.000;
#SELECTABLE:YES;
#BPMS:0.000=25.006,5.000=50.013,13.000=100.025,93.000=50.013,109.000=100.025;
#STOPS:;
#BGCHANGES:;
#NOTES:
     dance-single:
     Renard:
     Hard:
     9:
     0.509,0.490,0.283,0.294,0.436:
0000
0000
0000
0000
,
0000
0000
0000
0000
2000
0000
0100
0010
3002
0000
0010
0100
2003
0000
3020
0000
,
0230
0000
0302
0000
0023
0000
0100
0001
0032
0000
1000
0100
0203
0000
0010
1000
,
0320
0000
2030
0000
3100
0000
0010
0000
0011
0000
0001
0010
0100
0000
1000
0000
,
0010
0000
0010
0000
0100
0000
0001
0000
0101
0000
0001
0000
1000
0000
0100
0010
,
0001
0000
0011
0000
0010
0000
0100
1000
0001
0000
0100
0010
1000
0000
0010
0100
,
0001
0000
0101
0000
0001
0000
1000
0100
1000
0000
1100
0000
1000
0000
0001
0010
,
0001
0000
0011
0000
0001
0000
1000
0000
1010
0000
0001
0100
0010
1000
0100
0010
,
0001
0000
0011
0000
0001
0000
0010
0000
0100
0000
1000
0001
0100
0010
1000
0100
,
0010
0001
0000
0011
0000
0000
0001
0000
0011
0000
0100
1000
0001
0100
0000
0100
,
0010
0000
1010
0000
1000
0000
0100
0010
0001
0000
0011
0000
0001
0001
0010
0010
,
0100
0000
1100
0000
1000
0000
0100
0000
0010
0001
0010
0000
0001
0000
0100
0000
,
0010
1000
0010
0000
1000
0000
0100
0000
0010
0001
0010
0000
0001
0000
0100
0000
,
0010
1000
0010
0000
1000
0000
0010
0000
0100
0001
0100
0000
0001
0000
0010
0000
,
0100
1000
0100
0000
1000
0000
0010
0000
0100
0001
0100
0000
0001
0000
0010
0000
,
0100
1000
0100
0000
1000
0000
0100
0000
0011
0000
0100
1000
0001
0100
0010
1000
,
0010
0000
1010
0000
1000
0010
0100
0001
0100
0000
0010
0000
1000
0100
0010
0001
,
0010
0000
0100
0000
1000
0100
0010
0001
0010
0000
0011
0000
0001
0100
0010
1000
,
0100
0010
0001
0001
1000
1000
0010
0010
0100
0000
0010
1000
0010
1000
0000
1010
,
0000
1010
0000
0010
1000
0000
0100
0010
0001
0000
0010
0100
1000
0001
0100
0000
,
0101
0000
0001
0000
0100
0010
1000
0000
1100
0000
1100
0000
0011
0000
0011
0000
,
1001
0000
0010
0000
1001
0000
0001
0010
0100
0000
1000
0000
0100
1000
0010
0100
,
0001
0000
0101
0000
0001
1000
0100
0010
0001
0000
0010
0100
1000
0001
0000
1000
,
0000
0001
0000
1000
0002
0000
0100
0100
0203
0010
0010
0010
0320
0000
0000
0000
,
2030
0000
3100
0010
0001
0010
0200
0000
2300
0000
3002
0000
0023
0000
0032
0000
,
2003
0000
3200
0000
1300
0001
0020
0000
0130
1000
0002
0000
0103
0010
1000
0100
,
0010
0001
2000
0000
3100
0010
0001
0100
0020
0000
0000
0000
2030
0000
0000
0000
,
0000
3000
0000
0000
;
#NOTES:
     dance-single:
     Renard:
     Medium:
     7:
     0.413,0.460,0.011,0.229,0.300:
0000
0000
0000
0000
,
0000
0000
0000
0000
,
0200
0000
0302
0000
0023
0000
0031
0010
0200
0000
1300
0010
0200
0000
0310
1000
,
0100
0000
0010
0000
0001
0000
0010
0000
0001
0000
0010
0001
0010
0000
0100
1000
,
0100
0000
1000
0000
0010
0000
1000
0000
0001
0000
0100
0000
0001
0000
1000
0100
,
1000
0000
0001
0000
0010
0000
0001
0000
1000
0001
1000
0000
0001
0000
0100
0001
,
0100
0000
0001
0000
1000
0000
0010
1000
0010
0000
1000
0000
0100
0000
0010
0001
,
0010
0000
0100
0000
1000
0000
0001
0100
0010
0000
1000
0010
0100
0001
1000
0100
,
0010
0000
0001
0000
0010
0000
0001
0000
1000
0000
0100
0000
1000
0001
0100
0010
,
1000
0010
0000
0010
0000
0000
1000
0000
0010
0000
0100
0001
0100
0000
0001
1000
,
0100
0000
1000
0000
0001
0000
0010
0001
0010
0000
0001
0000
1000
0000
0100
0000
,
0010
0000
0001
0000
1000
0000
0100
0000
0010
0000
0001
1000
0001
0000
0100
0010
,
0100
0000
0010
0000
1000
0000
0001
0000
0100
0000
0001
1000
0001
0000
1000
0100
,
1000
0000
0001
0000
0010
0000
0100
0000
1000
0000
0001
0100
0001
0000
1000
0010
,
1000
0000
0100
0000
1000
0000
0001
0000
0010
0000
0100
1000
0100
0000
1000
0001
,
1000
0000
0001
0000
0100
0000
0010
0000
1000
0000
0010
0000
1000
0001
0100
0000
,
0001
0000
1000
0000
0100
0000
0010
0000
0001
0000
1000
0000
0100
1000
0001
0000
,
0100
0000
0001
0000
1000
0000
0001
0000
0010
0000
0001
0000
1000
0000
0100
1000
,
0001
0000
0100
0000
0001
0000
1000
0010
1000
0000
0001
0100
0001
0100
0000
0001
,
0000
0001
0000
0001
0100
0000
0010
0000
1000
0000
0100
1000
0001
0100
0001
0000
,
1000
0100
1000
0001
0010
0001
1000
0001
,
1000
0000
0010
0000
1000
0000
0001
0000
0100
0000
0001
0000
1000
0100
1000
0001
,
0010
0000
0001
0000
1000
0000
0001
0000
0100
0000
0001
0000
1000
0001
0000
1000
,
0000
0001
0000
1000
0002
0000
0100
0100
0203
0000
0010
0010
0320
0000
0000
0000
,
2030
0000
3100
0010
0001
0010
0200
0000
2300
0000
3002
0000
0203
0000
0320
0000
,
2030
0000
0000
0000
3010
0100
0002
0000
1003
0010
0200
0000
0310
1000
0001
0100
,
0010
1000
0020
0000
0230
0000
0301
0000
1000
0000
0000
0000
2200
0000
0000
0000
,
0000
3300
0000
0000
;
#NOTES:
     dance-single:
     Renard:
     Easy:
     5:
     0.285,0.341,0.098,0.196,0.033:
0000
0000
0000
0000
,
0000
0000
2000
3100
0002
0103
1000
0001
,
1000
0001
2000
3010
0002
0013
1000
0010
,
0001
0010
1000
0000
1100
0000
1000
0001
,
0100
0000
0001
0000
0011
0000
0001
0100
,
0010
0000
1000
0000
1010
0000
1000
0100
,
0010
0001
0000
1000
0100
0010
0000
0001
,
0010
0100
1000
0000
1100
0000
1000
0000
,
0001
0100
0001
0000
0011
0000
1000
0000
,
1100
0000
1000
0000
0001
0100
0010
0000
,
1000
0010
1000
0000
0001
0100
0010
0000
,
1000
0000
0010
0000
1000
0000
0100
0010
,
0001
1000
0000
0001
0010
0100
0000
1000
,
0100
0010
0001
0000
1000
0000
0010
1000
,
0001
0100
0000
0001
0100
0001
0000
1000
,
0100
1000
0001
0000
0101
0000
1000
0100
,
1000
0000
0001
0000
0011
0000
1000
0010
,
0010
0010
1000
0000
0010
0100
0001
0000
,
1000
1000
0100
0000
0010
0001
1000
0000
,
0010
0010
0010
0000
0100
0000
0001
1000
,
0100
0000
0010
0000
0001
0001
0001
0001
,
0001
0000
1001
0000
1000
0100
1000
0000
,
0001
0000
0100
0000
0001
0000
0010
0000
0100
0000
1000
0000
0100
0000
0000
1000
,
0000
1000
0000
1000
0002
0000
0000
0000
0203
0000
0010
0010
0320
0000
0000
0000
,
2030
0000
0000
0000
3100
0010
0001
0000
0020
0000
0000
0000
0230
0000
2300
0000
,
3020
0000
0000
0000
2030
0000
3001
0000
0200
0000
0301
0000
0010
0000
0001
0010
,
0200
1300
0020
1030
0002
0000
0203
0000
,
0000
0300
0000
0000
;
#NOTES:
     dance-single:
     Renard:
     Beginner:
     2:
     0.232,0.341,0.109,0.338,0.000:
0000
0000
0000
0000
,
0000
0000
2000
0000
3200
0000
0320
0032
,
0023
0032
0023
0000
0032
0000
2003
0000
,
3200
1300
0100
1000
,
0001
1000
0010
1000
,
0001
0100
0001
0010
,
0001
0100
0001
1000
,
0001
1000
1100
0001
,
0101
1000
1100
0001
,
0010
0001
0010
0000
0011
0000
1000
0000
,
1010
0001
0011
1000
,
1010
1000
1000
0001
,
0000
0001
0001
1000
,
0000
0010
1000
1010
,
0000
0001
0100
0101
,
0000
0001
1000
0100
,
0010
0001
1000
0001
,
0200
0310
1000
0010
,
0100
0010
1000
0001
,
0010
0001
0010
0000
0001
0000
1000
0000
,
0100
0000
0010
0000
0001
0000
1000
1000
,
1000
0001
1000
0100
,
1000
0001
0100
1001
,
0000
2000
3200
0320
,
0032
2003
3200
0320
,
0032
0000
2003
3200
0320
0032
2003
3200
,
0320
0032
2003
3200
0320
0000
0032
0000
,
0000
0003
0000
0000
;
