#TITLE:Teardrop;
#SUBTITLE:;
#ARTIST:Massive Attack;
#TITLETRANSLIT:;
#SUBTITLETRANSLIT:;
#ARTISTTRANSLIT:;
#CRChallenge:;
#BANNER:teardrop.png;
#BACKGROUND:teardrop-bg.png;
#LYRICSPATH:;
#CDTITLE:;
#MUSIC:teardrop.ogg;
#OFFSET:0.000;
#SAMPLESTART:12.390;
#SAMPLELENGTH:12.000;
#SELECTABLE:YES;
#BPMS:0.000=76.987,16.000=38.493,16.500=76.987,19.500=38.493,20.000=76.987,23.000=38.493,23.500=76.987,26.500=38.493,27.000=76.987,30.000=38.493,30.500=76.987,33.500=38.493,34.000=76.987,37.000=38.493,37.500=76.987,40.500=38.493,41.000=76.987,44.000=38.493,44.500=76.987,47.500=38.493,48.000=76.987,51.000=38.493,51.500=76.987,54.500=38.493,55.000=76.987,58.000=38.493,58.500=76.987,61.500=38.493,62.000=76.987,65.000=38.493,65.500=76.987,76.500=38.493,77.000=76.987,80.000=38.493,80.500=76.987,83.500=38.493,84.000=76.987,87.000=38.493,87.500=76.987,90.500=38.493,91.000=76.987,94.000=38.493,94.500=76.987;
#STOPS:;
#BGCHANGES:;
#NOTES:
     dance-single:
     Renard:
     Medium:
     7:
     0.392,0.379,0.288,0.177,0.481:
0000
0000
0000
0000
,
0000
0000
0000
0000
,
1000
0001
0000
1000
0001
0000
0000
0000
0100
0010
0000
0100
0010
0000
0000
0000
,
1000
0100
0000
1000
0100
0000
0000
0000
0010
0001
0000
0010
0001
0000
0000
0000
,
1001
0000
0000
0001
0100
0000
0000
0000
0000
0000
0000
0000
0010
0000
1000
0000
0000
0000
0100
0000
0010
0000
0000
0000
0000
0000
0000
0000
0011
0000
0000
0010
,
0100
0000
0000
0000
0000
0000
0000
0000
1000
0000
0001
0000
0000
0000
0001
0000
0100
0000
0000
0000
0000
0000
0000
0000
0110
0000
0000
0010
1000
0000
0000
0000
,
0000
0000
0000
0000
0001
0000
0100
0000
0000
0000
1000
0000
0100
0000
0000
0000
0000
0000
0000
0000
0101
0000
0000
0100
1000
0000
0000
0000
0000
0000
0000
0000
,
1000
0000
0010
0000
0000
0000
0001
0000
0010
0000
0000
0000
0000
0000
0000
0000
0011
0000
0000
0010
0100
0000
0000
0000
0000
0000
0000
0000
1000
0000
0100
0000
,
0000
0000
0001
0000
0100
0000
0000
0000
0000
0000
0000
0000
1010
0000
0000
0001
0010
0000
0000
0000
0000
0000
0000
0000
1000
0000
0010
0000
0000
0000
0100
0000
,
0001
0000
0000
0000
2002
0000
3013
0000
0000
0000
1000
0001
0000
0100
0020
0000
,
0000
0000
1030
0000
1001
0000
0000
0000
0001
0010
0100
1000
0001
0000
0000
0000
,
0100
0010
0000
0100
0010
0000
0000
0000
0000
0000
0000
0000
1000
0000
0010
0000
0000
0000
0100
0000
0001
0000
0000
0000
0000
0000
0000
0000
1000
0100
0010
0000
,
0011
0000
0000
0000
0000
0000
0000
0000
0010
0000
0100
0000
0000
0000
0100
0000
1000
0000
0000
0000
0000
0000
0000
0000
0002
0100
0000
0100
0203
0000
0000
0000
,
0000
0000
0000
0000
0310
0000
2000
0000
0000
0000
0010
0000
3020
0000
0000
0000
0100
0000
0000
0000
2030
0001
0000
0010
3020
0000
0000
0000
0000
0000
0000
0000
,
0130
0000
0020
0000
0000
0000
1000
0000
1030
0000
0000
0000
0000
0000
0000
0000
0001
0020
0000
0100
0130
0000
0000
0000
0000
0000
0000
0000
1000
0000
0020
0000
,
0000
0000
0100
0000
0130
0000
0000
0000
0000
0000
0000
0000
0001
0100
0010
0000
0110
0000
0000
0000
0000
0000
0000
0000
0010
0000
1000
0000
0100
0000
0000
0000
,
1100
0000
0000
0000
0000
0000
0000
0000
1000
0100
0000
0010
0011
0000
0000
0000
0000
0000
0000
0000
0001
0000
0100
0000
0000
0000
0010
0000
1010
0000
0000
0000
,
0000
0000
1000
0010
0000
0100
0101
0000
0000
0000
0001
0010
0000
0010
0011
0000
,
0000
0000
1000
0100
0010
0001
1000
0000
0000
0000
0001
0010
0100
1000
0001
0000
,
0000
0000
0110
0000
0010
1000
0001
0000
0101
0000
0000
0000
0001
0010
0100
0000
,
1100
0000
0000
0000
1000
0000
0010
0000
0100
0000
0000
0000
0110
0000
0000
0000
0000
0000
0000
0000
0100
0000
0001
0000
0010
0000
0000
0000
0110
0000
0000
0100
,
1000
0000
0000
0000
0010
0000
0000
0000
0110
0000
0000
0000
0000
0000
0100
0000
0001
0000
0000
0000
0011
0000
0000
0000
1001
0000
0000
0001
0100
0000
0010
0000
,
1000
0000
0000
0000
1001
0000
0000
0000
0000
0000
1000
0000
0100
0000
0010
0000
0001
0000
0000
0000
1001
0000
0000
0100
0010
0000
1000
0000
0001
0000
0000
0000
,
0011
0000
0000
0000
0000
0000
0010
0000
0100
0000
1000
0000
0001
0000
0000
0000
0100
0010
0000
0100
0020
0000
0000
0000
0000
0000
0000
0000
1030
0000
0010
0000
,
0000
1000
0020
0000
0000
0000
0130
0001
0000
0100
0002
0000
0000
0000
0013
0100
,
0000
1000
2000
0000
0000
0000
3000
0000
0000
0000
0000
0000
0000
0000
0000
0000
;
#NOTES:
     dance-single:
     Renard:
     Easy:
     4:
     0.250,0.281,0.000,0.321,0.000:
0000
0000
0000
0000
,
0000
0000
0000
0000
,
0000
0000
0000
0000
,
0000
0000
0000
0000
,
2000
3100
0010
0001
0010
0100
1000
0002
,
0013
0100
1000
0100
0010
0001
2000
3100
,
0010
0001
0010
0100
1000
0002
0013
0001
,
1000
0100
1000
0001
0020
0031
1000
0100
,
1000
0001
0100
0020
1030
0010
0100
0001
,
1000
0100
0020
0031
0000
0001
0010
0200
,
0000
2300
3010
0000
0100
0001
0100
0000
,
0002
1003
0000
0100
1000
0100
0000
2000
,
3001
0000
0100
0000
0010
0000
2000
3001
,
0000
0010
0001
0010
0000
0002
1003
0000
,
0010
0100
0010
0000
2000
3001
0000
0010
,
0001
0010
0000
0002
1003
0000
0010
1000
,
0001
0000
0200
0320
0000
2030
0000
3200
,
0000
0320
0000
0032
0000
2003
0000
3010
,
0000
0010
1000
0001
0000
0100
0000
0001
,
0000
2000
3100
0000
1000
0100
1000
0000
,
0002
0013
0000
0001
0010
0001
0000
2000
,
3010
0000
1000
0010
1000
0000
0002
0103
,
0000
0001
0100
0001
0000
2000
3100
0000
,
1000
0001
1000
0000
0020
0130
0000
0001
,
0010
0001
0000
1000
0000
0100
0000
1000
,
0001
0200
0000
0300
0000
0000
0000
0000
;
#NOTES:
     dance-single:
     Renard:
     Beginner:
     2:
     0.164,0.183,0.000,0.255,0.000:
0000
0000
0000
0000
,
0000
0000
0000
0000
,
0000
0000
0000
0000
,
0000
0000
0000
0000
,
2000
3001
0000
0000
0000
0100
0000
0020
,
1030
0000
0000
0000
0001
0000
0020
0130
,
0000
0000
0000
1000
0000
0020
0130
0000
,
0000
0000
0001
0000
0020
0031
0000
0000
,
0000
1000
0000
0020
0130
0000
0000
0000
,
0001
0000
2000
3100
0000
0000
0000
0010
,
0000
0002
1003
0000
0000
0000
0010
0000
,
0200
0301
0000
0000
0000
0010
0000
0200
,
0310
0000
0000
0000
0100
0000
2000
3001
,
0000
0000
0000
0100
0000
0020
1030
0000
,
0000
0000
0100
0000
0020
0031
0000
0000
,
0000
1000
0000
0020
1030
0000
0000
0000
,
0001
0000
0200
0301
0000
0000
0000
0010
,
0000
0200
0000
1300
0000
0000
0000
0010
,
0000
0100
0000
0010
0000
0100
0000
0001
,
1000
0002
1003
0000
0100
0000
1000
0000
,
0002
0103
0000
0010
0000
1000
0000
0200
,
0310
0000
0001
0000
1000
0000
0020
0130
,
0000
0001
0000
1000
0000
0200
0310
0000
,
0001
0000
1000
0000
0020
1030
0000
0010
,
0000
1000
0000
0001
0000
0100
0000
0010
,
0000
2000
0000
3000
0000
0000
0000
0000
;
