#TITLE:Taotao Teknoversio;
#SUBTITLE:;
#ARTIST:Lastenlaulut;
#TITLETRANSLIT:;
#SUBTITLETRANSLIT:;
#ARTISTTRANSLIT:;
#CRChallenge:;
#BANNER:tekno.png;
#BACKGROUND:tekno-bg.png;
#LYRICSPATH:;
#CDTITLE:;
#MUSIC:tekno.ogg;
#OFFSET:0.010;
#SAMPLESTART:10.863;
#SAMPLELENGTH:12.000;
#SELECTABLE:YES;
#BPMS:0.000=180.000,28.000=160.000,29.000=150.000,30.000=130.000,31.000=180.000,254.000=158.000,256.000=148.000;
#STOPS:;
#BGCHANGES:;
#NOTES:
     dance-single:
     Renard:
     Medium:
     12:
     0.761,1.000,0.229,0.339,0.438:
0000
0000
0000
0000
,
0000
0000
0000
0000
,
0000
0000
0000
0000
,
0000
0000
0000
0000
,
0000
0000
0000
0000
,
0000
0000
0000
0000
,
0000
0000
0000
0000
,
0001
0100
0010
1000
0100
0010
0001
1000
,
0002
0000
0103
0010
2000
0000
3100
0010
,
0001
0001
1000
1000
0010
0000
0100
0001
,
2000
0000
3100
0010
0002
0000
0013
0100
,
1000
1000
0001
0001
0100
0000
0010
1000
,
0100
0000
1100
0000
0100
0010
0001
0100
,
0001
0000
0101
0000
0100
0001
0010
0100
,
1000
0000
1100
0000
1000
0010
0100
0000
,
0010
0100
0001
0010
0100
1000
0001
0100
,
1000
0100
1000
0100
0001
0100
0001
0100
,
0001
0010
0100
1000
0010
0001
0010
0100
,
1000
0100
1000
0100
0001
0100
0001
0100
,
0010
1000
0100
0001
0100
1000
0001
0010
,
1000
0010
1000
0010
0001
0010
0001
0010
,
0100
1000
0001
0100
0010
1000
0100
0010
,
0001
0100
0001
0100
1000
0100
1000
0100
,
0010
1000
0100
0010
0001
1000
0010
0100
,
0001
0000
0001
0100
0000
0100
1000
0001
,
0010
0000
0010
1000
0000
1000
0100
0001
,
1000
0000
1000
0010
0000
0010
0001
1000
,
0100
0000
0100
1000
0000
1000
0010
0001
,
1000
0000
1000
0200
0000
0000
0000
0301
,
0010
0100
1000
0100
0001
0000
0200
0000
,
2000
0000
0000
0000
,
0020
0000
0000
3330
,
1000
0100
1000
0100
1000
0100
1000
0100
0010
0001
0010
0001
0010
0001
0010
0001
,
1000
0010
1000
0010
0100
0001
0100
0001
1000
0100
1000
0100
1000
0100
0010
0001
,
1000
0010
1000
0010
1000
0010
1000
0010
0100
0001
0100
0001
0100
0001
0100
0001
,
1000
0001
1000
0001
0010
0001
0010
0001
1000
0100
1000
0100
1000
0100
0010
0001
,
1000
0010
1000
0010
1000
0010
1000
0010
1000
0010
1000
0010
0100
0001
1000
0100
,
0010
0001
0010
0001
0010
0001
0010
0001
0010
0001
0010
0001
0100
0001
0100
0001
,
1000
0010
1000
0010
1000
0010
1000
0010
1000
0010
1000
0010
0100
0001
0100
0001
,
1000
0100
0010
0001
1000
0100
1000
0100
0010
0001
0010
0001
1000
0100
0010
0001
,
1000
0000
0000
1100
0000
0000
0100
0000
0010
0000
0000
0110
0000
0000
0010
0000
,
0001
0000
0000
0011
0000
0000
0001
0000
0100
0000
0000
0101
0000
0000
0100
0000
,
0010
0000
0000
0110
0000
0000
0010
0000
1000
0000
0000
1010
0000
0000
1000
0000
,
0100
0000
0000
1100
0000
0000
0100
0000
0010
0000
0000
0110
0000
0000
0010
0000
,
0001
0000
0000
0011
0000
0000
0001
0000
1000
0000
0000
1001
0000
0000
1000
0000
,
0010
0000
0000
1010
0000
0000
0010
0000
0100
0000
0000
0110
0000
0000
0100
0000
,
0001
0000
0000
0101
0000
0000
0001
0000
1000
0000
0000
1001
0000
0000
1000
0000
,
0100
0000
0000
0010
0000
0000
0001
0000
0000
0010
0000
0000
0100
1000
0100
1000
0100
1000
0100
1000
0100
1000
0100
1000
,
0200
0000
0300
1000
0020
0000
0000
0130
,
0001
0010
0100
1000
0001
0000
0101
0000
,
0020
0000
0000
1030
0200
0000
0000
0310
,
0001
0100
0010
1000
0100
0000
1100
0000
,
1002
0000
0103
0001
0010
0100
1000
0001
,
2000
0000
3100
1000
0010
0100
0001
0010
,
0002
0000
1003
0010
2000
0000
3100
0010
,
0002
0000
0013
0100
1000
0001
0100
0010
,
2000
0000
3000
0100
0020
0000
0000
0031
,
0010
0100
1000
0010
0001
0010
0100
1000
,
0200
0000
0301
1000
0200
0000
0301
0100
,
1000
0010
0100
0001
0010
1000
0010
0100
,
0002
0000
0103
1000
0010
0100
0001
0010
,
0200
0000
1300
0010
0100
1000
0100
0010
,
0100
0000
0100
0001
0010
0000
0010
0100
,
1000
0010
0100
0001
0010
0100
1000
0001
,
0100
0000
0200
0002
0000
0000
0000
2000
,
0000
0000
0000
3313
,
1000
0000
2000
0200
0000
0000
0000
0002
,
0000
0000
0000
3303
,
1000
0000
2000
0200
0000
0000
3300
0100
,
1000
0001
0100
0010
1000
0000
0101
0000
,
2002
0000
0000
0000
0000
0000
0000
3000
,
0100
0000
0103
0000
0001
1000
0200
0000
1000
0000
0010
0000
0310
0100
1000
0000
,
1110
0000
0000
0000
;
#NOTES:
     dance-single:
     Renard:
     Hard:
     13:
     0.926,1.000,0.578,0.239,0.981:
0000
0000
0000
0000
,
0000
0000
0000
0000
,
0000
0000
0000
0000
,
0000
0000
0000
0000
,
0000
0000
0000
0000
,
0000
0000
0000
0000
,
0000
0000
0000
0000
,
0001
0000
0100
0000
0010
1000
0010
0000
1000
0000
0100
0000
0010
0001
1000
0000
,
0001
0000
0000
0101
0000
0010
1000
0000
0100
0000
0000
1100
0000
0010
0001
0000
,
0100
0000
0000
0101
0000
0010
1000
0000
0100
0000
0000
1100
0000
0010
0001
0000
,
1000
0000
0000
1010
0000
0010
0100
0000
0001
0000
0000
0011
0000
0100
1000
0000
,
0010
0000
0000
1010
0000
0100
0001
0000
1000
0000
0100
0000
0010
0000
0000
0000
,
1010
0000
0000
0101
0000
0010
1000
0000
1100
0000
0000
0011
0000
0100
1000
0000
,
1001
0000
0000
0101
0000
0010
1000
0000
1100
0000
0000
0011
0000
1000
0100
0000
,
1001
0000
0000
0101
0000
0010
1000
0000
1100
0000
0000
0011
0000
0001
0100
0000
,
0110
0000
0000
0101
0000
0010
1000
0000
1010
0000
0000
0110
0000
0010
1000
0000
,
0010
0000
1000
0001
0100
0000
0001
1000
0200
0000
0000
0000
0320
0000
0000
0000
,
0031
0000
1000
0010
1000
0000
0001
0100
0002
0000
0000
0000
2003
0000
0000
0000
,
3010
0000
1000
0100
0010
0000
0001
0100
0020
0000
0000
0000
2030
0000
0000
0000
,
3100
0000
1000
0001
0100
0000
0001
1000
0200
0000
0000
0000
2300
0000
0000
0000
,
3002
0000
0100
1000
0013
0000
0011
0000
,
2010
0000
0100
0001
3010
0000
1010
0000
,
1010
0100
0001
0010
1100
0010
0001
0100
,
1010
0100
1001
0100
0011
0100
1001
0000
,
1000
0000
0100
0000
1000
0100
1000
0000
0001
0000
0010
0000
0001
0010
0001
0000
,
1000
0000
0010
0000
1000
0010
1000
0000
0001
0000
0100
0000
0001
0100
0001
0000
,
1000
0000
0100
0000
1000
0100
1000
0000
0001
0000
0010
0000
0001
0010
0001
0000
,
1000
0000
0010
0000
1000
0010
1000
0000
0001
0000
0100
0000
0001
0100
0001
0000
,
1000
0000
0100
0000
0010
0001
0010
0000
0001
0000
0100
0000
0010
1000
0010
0000
,
1000
0000
0001
0000
0100
0010
0100
0000
0010
0000
1000
0000
0200
0000
0000
0000
,
2000
0000
0000
0000
,
0020
0000
0000
0000
0001
0001
3331
0000
,
1000
0100
1000
0100
1000
0100
1000
0100
0010
0001
0010
0001
0010
0001
0010
0001
,
1000
0010
1000
0010
0100
0001
0100
0001
1000
0100
1000
0100
1000
0100
0010
0001
,
1000
0010
1000
0010
1000
0010
1000
0010
0100
0001
0100
0001
0100
0001
0100
0001
,
1000
0001
1000
0001
0010
0001
0010
0001
1000
0100
1000
0100
1000
0100
0010
0001
,
1000
0010
1000
0010
1000
0010
1000
0010
1000
0010
1000
0010
0100
0001
1000
0100
,
0010
0001
0010
0001
0010
0001
0010
0001
0010
0001
0010
0001
0100
0001
0100
0001
,
1000
0010
1000
0010
1000
0010
1000
0010
1000
0010
1000
0010
0100
0001
0100
0001
,
1000
0100
0010
0001
1000
0100
1000
0100
0010
0001
0010
0001
1000
0100
0010
0001
,
1000
0000
0000
1100
0000
1000
0100
0000
0010
0000
0000
0110
0000
0100
0010
0000
,
0001
0000
0000
0011
0000
0010
0001
0000
0100
0000
0000
0101
0000
0001
0100
0000
,
0010
0000
0000
0110
0000
0100
0010
0000
1000
0000
0000
1010
0000
0010
1000
0000
,
0100
0000
0000
1100
0000
1000
0100
0000
0010
0000
0000
0110
0000
0100
0010
0000
,
0001
0000
0000
0011
0000
0010
0001
0000
1000
0000
0000
1001
0000
0001
1000
0000
,
0010
0000
0000
1010
0000
1000
0010
0000
0100
0000
0000
0110
0000
0010
0100
0000
,
0001
0000
0000
0101
0000
0100
0001
0000
1000
0000
0000
1001
0000
0001
1000
0000
,
0100
0000
0000
0010
0000
0000
0001
0000
0000
0010
0000
0000
0100
1000
0001
0010
0100
1000
0001
0010
0100
1000
0001
0010
,
0100
0000
0000
0100
0000
1000
0010
0000
0100
0000
0000
0001
0000
0010
0001
0000
,
0100
0000
0000
0010
0000
1000
0100
0000
1000
0000
0000
0001
0000
0100
0001
0000
,
0010
0000
0000
0100
0000
1000
0001
0000
0100
0000
0000
0010
0000
1000
0100
0000
,
0010
0000
0000
0001
0000
0010
0100
0000
1000
0000
0000
0001
0000
0100
0010
0000
,
1000
0000
0000
0100
0000
0001
0100
0000
1000
0000
0000
0010
0000
0001
0010
0000
,
1000
0000
0000
0100
0000
0010
0001
0000
0010
0000
0000
1000
0000
0010
0100
0000
,
0001
0000
0000
0100
0000
1000
0010
0000
0100
0000
0000
1000
0000
0100
0010
0000
,
1000
0000
0100
0000
0001
0000
0100
0000
1000
0000
0010
0000
0100
0001
0100
0001
,
0100
0010
1000
0100
0010
0001
0010
0100
,
1000
0001
1000
0001
1000
0000
0001
0000
0100
0010
0100
0010
0100
0000
0010
0000
,
1000
0000
0100
0000
0010
0001
0010
0000
0001
0000
1000
0000
0010
1000
0010
0000
,
0100
0010
0100
0010
0100
0000
0010
0000
1000
0010
1000
0010
1000
0000
0010
0000
,
1000
0000
0100
0000
0010
0000
0001
0000
1000
0000
0001
0000
0100
0001
0100
0000
,
0010
0000
1000
0000
0100
0000
0010
0000
0001
0000
0010
0000
0100
1000
0100
0000
,
1001
0000
1000
0001
0100
0000
0001
0000
1010
0000
0100
0001
0100
0000
0010
0000
,
1001
0100
1010
0100
0011
1100
1010
0101
,
1001
0000
0200
0002
0000
0000
0000
2000
,
0000
0000
0000
3313
,
1000
0000
2000
0200
0000
0000
0000
0002
,
0000
0000
0000
3303
,
1000
0000
2000
0200
0000
0000
3300
0100
,
1000
0001
0100
0010
1000
0000
0101
0000
,
2002
0000
0000
0000
0000
0000
0000
3000
,
0100
0000
0103
0000
0001
1000
0200
0000
1000
0000
0010
0000
0310
0100
1000
0000
,
1110
0000
0000
0000
;
#NOTES:
     dance-single:
     Renard:
     Easy:
     9:
     0.627,0.645,0.209,0.100,0.000:
0000
0000
0000
0000
,
0000
0000
0000
0000
,
0000
0000
0000
0000
,
0000
0000
0000
0000
,
0000
0000
0000
0000
,
0000
0000
0000
0000
,
0000
0000
0000
0000
,
0001
0001
1000
1000
,
0001
0100
0010
1000
0100
0000
0100
0000
,
1000
0010
0100
0001
0010
0000
0010
0000
,
0001
0100
0010
1000
0100
0000
0100
0000
,
1000
0010
0100
0001
0010
0000
0010
0000
,
0001
1000
0100
0010
0001
0000
1001
0000
,
0001
0100
0010
1000
0001
0000
1001
0000
,
1000
0100
0010
0100
1000
0100
0010
0100
,
0010
0001
0010
0100
0010
0001
0010
0000
,
0001
1000
0010
0100
0001
0010
0100
1000
,
0001
0100
0010
1000
0100
0000
1100
0000
,
1000
0010
0100
0001
0010
0100
1000
0100
,
0010
0001
0100
0010
1000
0000
1010
0000
,
1000
0100
1000
0100
0010
0100
0010
0100
,
0010
0001
0010
0001
0100
0001
0100
0001
,
0100
0010
1000
0100
0010
0001
0010
0100
,
1000
0000
0001
0000
1000
0001
0100
0010
,
1000
0000
1000
0010
0100
0000
0100
0001
,
0010
0000
0010
0001
1000
0000
0100
0000
,
1000
0000
1000
0001
0010
0000
0010
0100
,
1000
0000
1000
0001
0100
0000
0010
0000
,
1000
0000
1000
0010
0000
0000
0000
0010
,
0100
0001
1000
0100
0010
0000
0001
0000
,
2000
0000
0002
0000
,
0010
0010
0010
3013
,
1000
0001
0100
0010
1000
0100
0010
0001
,
1000
1000
0001
0001
1000
1000
0001
0001
,
1000
0100
0010
0001
0100
0010
1000
0001
,
0010
0010
0001
0001
1000
1000
0001
0001
,
0100
0100
0010
1000
0100
0010
0001
0100
,
0010
0010
1000
0100
0010
0001
0010
0100
,
1000
1000
0010
0100
0001
0010
0100
0010
,
0001
0001
0100
0010
1000
0100
0010
0001
,
1000
1000
0100
0010
0001
0001
0010
0100
,
1000
1000
0100
0010
0001
0001
0010
0100
,
1000
1000
0010
0100
0001
0001
0100
0010
,
1000
1000
0010
0100
0001
0001
0100
0010
,
1000
1000
0100
0010
0010
0100
0100
1000
,
0010
0100
0100
0010
0100
0001
0010
0010
,
0001
1000
1000
0010
0010
0100
0100
0001
,
0010
0100
1000
1000
0001
0100
0010
0000
,
1000
0010
1000
0010
1000
0001
1000
0001
,
1000
0100
0010
0001
0010
0000
0011
0000
,
0001
0010
0001
0010
0100
0010
0100
0010
,
0100
1000
0001
0100
0010
0000
1010
0000
,
1000
0100
0010
0001
0100
0010
1000
0100
,
0010
0001
0010
0100
1000
0001
0100
0010
,
1000
0000
1000
0100
0010
0000
0001
0010
,
0100
1000
0001
0100
0010
0000
1001
0000
,
1000
0100
0010
0100
1000
0001
0100
0010
,
1000
0100
0010
0001
0010
0000
0011
0000
,
0001
0010
0100
1000
0001
0100
0010
1000
,
0100
0010
0001
0010
0100
0000
0110
0000
,
0010
0100
1000
0010
0100
0001
0010
0100
,
0010
0001
0100
0010
1000
0100
0010
0001
,
0011
0110
1100
0110
,
0011
0110
1100
0110
,
2002
0000
0000
0000
,
0020
0000
0000
3033
,
2002
0000
0000
0000
,
0200
0000
0000
3303
,
1000
0000
1000
0001
0000
0000
0000
0001
,
0100
0010
1000
0100
0010
0000
0001
0000
,
2002
0000
0000
0000
,
0100
0100
0100
0000
0010
0010
3013
0000
,
1111
0000
0000
0000
;
#NOTES:
     dance-single:
     Renard:
     Beginner:
     7:
     0.403,0.502,0.169,0.100,0.000:
0000
0000
0000
0000
,
0000
0000
0000
0000
,
0000
0000
0000
0000
,
0000
0000
0000
0000
,
0000
0000
0000
0000
,
0000
0000
0000
0000
,
0000
0000
0000
0000
,
1000
1000
0001
0001
,
1000
0000
0100
0000
,
0010
0001
0010
0001
0010
0000
0001
0000
,
0100
0000
0010
0000
,
1000
0100
0010
0100
1000
0000
0001
0000
,
1000
0000
0000
0000
0000
0000
0001
0100
,
0010
0000
0000
1000
,
0010
0000
0000
0000
0000
0000
1000
0100
,
0010
0000
0000
0000
0000
0000
0001
1000
,
0001
0000
0000
0001
0100
0000
0000
0100
,
0010
1000
0100
0010
0001
0000
1000
0000
,
0100
0000
0000
0100
0010
0000
0000
0010
,
0001
1000
0010
0100
0001
0000
1000
0000
,
0100
0000
0000
0000
0000
0000
0100
1000
,
0001
0000
0000
0100
,
0001
0000
0000
0000
0000
0000
0010
0001
,
1000
0000
0000
0000
0010
1000
0001
0100
,
0001
0000
0001
1000
0000
0000
0000
1100
,
0000
0000
0000
0000
0000
0000
1000
0001
,
0100
0000
0100
0010
0000
0000
0000
1010
,
0000
0000
0000
0000
0000
0000
0000
1000
,
0010
0000
0010
0100
0000
0000
0000
0100
,
0001
1000
0100
0010
0001
0000
2000
0000
,
0002
0000
0000
0000
,
0010
0010
3013
0000
,
1000
0000
0000
1000
0001
0000
0000
0001
,
0100
0010
1000
0100
0010
0001
1000
0000
,
0001
0000
0000
0001
1000
0000
0000
1000
,
0100
0010
0001
1000
0010
0100
0001
0000
,
1000
0000
0000
1000
0001
0000
0000
0001
,
0010
0100
1000
0001
0100
0010
1000
0000
,
0001
0000
0000
0001
1000
0000
0000
1000
,
0100
0100
1000
1000
0100
0100
1000
0000
,
0001
0000
0000
0001
0010
0000
0000
0010
,
0001
0000
0000
0001
0010
0000
0001
0010
,
0100
0000
0000
0100
1000
0000
0000
1000
,
0100
0000
0000
0100
1000
0000
1000
0010
,
0100
0000
0000
0100
0010
0000
0000
0010
,
0100
0000
0000
0100
0001
0000
0000
0001
,
1000
0000
0000
1000
0100
0000
0000
0100
,
0010
0000
0001
0000
0010
0100
1000
0000
,
0001
0000
0000
0001
1000
0000
0000
1000
,
0100
0010
0001
1000
0001
0000
1001
0000
,
1000
0000
0000
0001
0100
0000
0000
0001
,
0100
0010
1000
0001
1000
0000
1001
0000
,
1100
0000
0000
0000
0000
0000
1000
0100
,
0010
0000
0000
0000
0000
0000
0010
0001
,
0100
0000
0000
0000
0000
0000
0001
0100
,
0010
0000
1000
0000
0100
0010
0001
1000
,
0100
0000
0000
0100
1000
0000
0000
1000
,
0001
0100
0010
1000
0001
0000
1001
0000
,
1100
0000
0000
1000
0100
0000
0000
0100
,
0010
0001
1000
0010
0100
0000
0110
0000
,
0101
0000
0000
0000
0000
0000
0001
1000
,
0100
0000
0000
1100
,
1001
0000
0000
1010
,
1001
1001
1100
1100
,
1000
0000
2000
0200
0000
0000
0000
0020
,
0000
0000
0000
3330
,
0001
0000
0002
0200
0000
0000
0000
0020
,
0000
0000
0000
0333
,
0001
0000
0001
1000
0000
0000
0000
1000
,
0100
0010
0001
0010
0100
0000
2000
0000
,
0002
0000
0000
0000
,
0100
0000
3013
0000
,
1001
0000
0000
0000
;
