#TITLE:Taito No Suika;
#SUBTITLE:;
#ARTIST:bermei.inazawa feat Shimoduki Haruka;
#TITLETRANSLIT:;
#SUBTITLETRANSLIT:;
#ARTISTTRANSLIT:;
#CRChallenge:;
#BANNER:taito-banner.avi;
#BACKGROUND:taito-bg.png;
#LYRICSPATH:;
#CDTITLE:!cdtitle.png;
#MUSIC:taito.ogg;
#OFFSET:0.000;
#SAMPLESTART:31.860;
#SAMPLELENGTH:11.940;
#SELECTABLE:YES;
#BPMS:0.000=180.000,13.499=90.000,153.999=180.000;
#STOPS:13.000=0.500
;
#BGCHANGES:;
#NOTES:
     dance-single:
     Renard:
     Medium:
     12:
     0.692,1.000,0.000,0.438,1.000:
0000
0000
0000
0000
,
0000
0000
0000
0000
,
0000
0000
0000
0000
,
0000
0000
0000
2000
0000
0000
0100
0000
,
0000
0000
0000
0000
0001
0000
0000
0000
0000
0000
0000
0000
0010
0000
0000
0000
0000
0000
0000
0000
3100
1000
0100
0010
0002
0000
0000
0000
0000
0000
0000
0000
,
0010
0000
0000
0000
0000
0010
1003
0000
0002
0000
0000
0000
0200
0000
0003
0000
,
0020
0000
0000
0300
,
2000
0030
0200
3000
0020
0000
0000
0300
,
0001
0000
0002
0030
1000
0000
1003
0000
,
0000
0000
0000
0000
0000
0000
0000
0000
0001
0000
1000
0100
0010
0001
1000
0000
0001
0000
0000
0000
1000
0001
0100
0000
0000
0000
0000
0000
0000
0000
0000
0000
,
0000
0000
0001
0000
,
0000
0000
0000
0000
0000
0100
0100
0001
1000
0000
0001
1000
0000
0000
0010
0000
,
0000
0000
0000
0000
0000
0000
0000
0000
0000
0000
0010
0000
0010
0000
1000
0000
0001
0000
0000
0000
0000
0000
0000
0000
0000
0000
0100
0000
0001
0010
0001
0010
,
0001
0000
1000
0100
1000
0000
0001
1000
0001
0000
0100
0001
0100
0001
0100
0000
0001
0000
0000
0000
0001
0000
0010
0000
0100
0000
0000
0000
0100
0000
1000
0000
,
0010
0000
0000
0000
0010
0000
0000
0000
0100
0000
0100
0001
0010
0000
0010
0001
,
0100
0000
0000
0000
0100
0000
0000
0000
0010
0000
0010
1000
0100
0000
0100
1000
,
0010
0000
0000
0000
0010
0000
0000
0000
0100
0000
0100
0001
0010
0000
0010
0100
,
1000
0000
0000
0000
1000
0000
0010
0000
0100
0000
0000
0000
0100
0001
0100
0000
0001
0000
0000
0000
0001
0000
1000
0000
0100
0000
0000
0000
0100
0000
1000
0000
,
0001
0000
0001
1000
0100
0000
0100
1000
0001
0000
0001
0100
0010
0000
0010
0100
,
0001
0000
0001
0100
0010
0000
0010
1000
0100
0000
0100
0010
0001
0000
0001
0010
,
0100
0000
0000
0000
0100
0000
1000
0000
0010
0000
0000
0000
0010
0000
0100
0000
0001
0000
0100
0001
0100
0000
0001
0100
0001
0000
1000
0010
1000
0000
0010
1000
,
0010
0000
0100
0001
0100
0000
0001
1000
0001
0000
1000
0100
1000
0000
0001
1000
0001
0100
0001
0100
0010
1000
0010
1000
0001
1000
0001
1000
0100
1000
0100
1000
,
0001
0010
0001
0010
0100
1000
0100
1000
0001
1000
0001
1000
0010
1000
0010
1000
0001
0000
0001
0000
0100
0000
0100
0000
0010
0000
0010
0000
1000
0000
1000
0000
,
0100
0100
0010
0010
0001
0001
1000
1000
0010
0010
1000
1000
0100
0100
0010
0010
,
0001
0001
0100
0100
0010
0010
1000
1000
0100
0100
0010
0010
0100
0100
1000
1000
,
0001
0001
0100
0100
0010
0010
1000
1000
0001
0001
0100
0100
0010
0010
1000
1000
,
0100
0000
0100
0000
0010
0000
0010
0000
0001
0000
0001
0000
1000
0000
1000
0000
0100
1000
0100
1000
0001
1000
0001
1000
0010
1000
0010
1000
0001
1000
0001
1000
,
0001
0100
0001
0100
0010
0100
0010
0100
0001
0100
0001
0100
0001
0010
0001
0010
0001
1000
0001
1000
0010
1000
0010
1000
0100
1000
0100
1000
0100
0000
0100
0000
,
1000
1000
0001
0001
0100
0100
0010
0010
1000
1000
0100
0100
0010
0010
0001
0001
,
0010
0010
0100
0100
1000
1000
0001
0001
0100
0000
0000
0000
0002
0000
0000
0000
,
0200
0000
0020
0333
0020
0000
0000
0000
,
2030
0000
3002
0000
,
0203
0000
0320
0000
,
2030
0000
3200
0000
,
0320
0000
0032
0023
,
0230
0000
0000
2300
3020
0000
0230
0000
,
0302
0000
0203
0000
,
0320
0000
2030
3200
,
0320
0000
0000
0000
0000
0000
0000
0000
0031
0010
0001
0010
0001
0010
0001
0010
,
0100
1000
0100
1000
0100
1000
0100
1000
0001
0100
0001
0100
0001
0100
0001
0100
,
0010
1000
0010
1000
0010
1000
0010
1000
0100
1000
0100
1000
0100
1000
0100
1000
,
0001
0010
0001
0010
0001
0010
0001
0010
0001
0100
0001
0100
0001
0100
0001
0100
,
0010
1000
0010
1000
0010
1000
0010
1000
0001
0100
0001
0100
0010
1000
0010
1000
,
0001
0100
0001
0100
0010
1000
0010
1000
0100
1000
0100
1000
0001
0010
0001
0010
,
0100
1000
0100
1000
0001
1000
0001
1000
0001
0100
0001
0100
0010
1000
0010
1000
,
0100
1000
0100
1000
0001
0010
0001
0010
0100
1000
0100
1000
0001
1000
0001
1000
,
0001
0100
0001
0100
0010
1000
0010
1000
0001
0100
0001
0100
0001
0100
0010
1000
,
0001
0100
0001
0100
0001
0100
0010
1000
0100
1000
0100
1000
0100
1000
0001
0010
,
0100
1000
0100
1000
0100
1000
0001
0010
0100
1000
0100
1000
0100
1000
0001
0100
,
0010
1000
0010
1000
0010
1000
0001
0010
0100
1000
0100
1000
0100
1000
0001
0100
,
0010
1000
0010
1000
0010
1000
0001
0010
0200
0000
2300
0000
3020
0000
0032
0000
,
0023
0230
2300
3200
0302
0023
2030
3002
,
0203
2300
3020
0230
0302
0023
0230
2300
,
3002
0203
2300
0002
0000
0000
0000
0000
,
0000
0000
3003
0000
;
#NOTES:
     dance-single:
     WinDEU:
     Beginner:
     2:
     0.171,0.298,0.016,0.297,0.000:
0000
0000
0000
0000
,
0000
0000
0000
0000
,
0000
0000
0000
0000
,
0000
0000
0000
2000
0000
0000
0000
0000
,
0000
0000
0000
0000
,
0000
0000
0000
3000
0100
0000
0010
0000
,
0002
0000
0000
0003
,
0100
0010
2000
0000
,
3100
0010
0001
0100
,
0010
1000
2200
0000
,
0000
0000
3300
0000
,
0000
1000
0002
0000
,
0000
0000
0103
0000
,
0000
0000
0010
1000
,
2200
0000
0000
3300
,
0010
0001
0200
0000
,
0310
1000
0001
0010
,
0100
0010
0002
0000
,
0000
0000
0003
0000
,
0000
0100
0020
0000
,
0000
0000
2030
0000
,
0000
3000
1000
0100
,
0010
0001
1000
0100
,
0010
0001
1000
0100
,
0010
0010
0010
0001
,
0100
0100
0010
0010
,
0010
0010
0010
1000
,
0100
0010
0100
1000
,
1000
1000
1000
1000
,
1000
1000
0000
0001
,
0100
0020
2000
0030
,
0200
3000
0020
0300
,
0032
0000
0103
0020
,
2030
3002
0023
0230
,
2300
0000
3000
0020
,
0230
0000
0302
0023
,
0230
0000
0300
2000
,
3020
0230
0302
0023
,
0230
0300
0000
0000
,
1000
0000
0010
0000
,
0100
0000
0001
0000
,
0010
0000
0200
0000
,
0000
0000
0300
0000
,
1000
0000
0001
0000
,
0000
0010
0100
0000
,
1000
0010
0020
0000
,
0000
0000
0030
0000
,
0100
0000
0001
0000
,
0010
0000
0100
0000
,
0010
0000
0002
0000
,
0000
0000
0003
0100
,
0000
0010
0000
1000
,
0000
0200
0000
0000
,
0000
0000
0000
0000
,
0000
0000
0300
0000
;
#NOTES:
     dance-single:
     WinDEU:
     Easy:
     7:
     0.330,0.376,0.289,0.391,0.000:
0000
0000
0000
0000
,
0000
0000
0000
0000
,
0000
0000
0000
0000
,
0000
0000
0000
0002
0000
0000
0000
0000
,
0000
0000
0000
0000
,
0000
0000
0000
0003
0100
0000
0010
0000
,
2020
0000
3030
0000
,
2000
0000
3001
0010
0200
0000
0000
0000
,
1300
0001
0100
0010
,
1000
0100
0022
0000
,
0000
0033
1000
0000
,
0000
0010
0202
0000
,
0303
1000
2200
0000
,
0000
0000
3300
0000
0010
0001
0100
0010
,
2000
0000
0000
3000
,
0020
0000
0130
0001
0020
0000
0000
0000
,
0130
1000
0010
0100
,
0001
0010
2200
0000
,
0000
3300
0002
0000
,
0003
0200
0320
0000
,
0000
2030
3200
0000
,
0000
0300
1100
1010
,
0101
0011
0110
1100
,
1010
0110
1010
1001
,
0011
0110
0011
1001
,
1010
0110
0101
0110
,
1010
1001
0011
0110
,
1100
0110
0011
0101
,
0101
0101
0101
0101
,
0101
0101
0000
1000
,
0010
0000
0200
0000
0302
0000
0003
0010
,
0200
0000
0000
0000
0000
0000
1300
0001
,
0020
0000
0030
0100
0010
0000
0002
0000
,
0203
0320
2030
3002
,
0023
0000
0030
0200
,
2300
0000
3000
0001
0200
0000
0320
0000
,
2030
0000
3000
0100
0010
0000
0002
0000
,
0203
0320
2030
3200
,
0320
0000
0030
0000
0001
0010
0001
0010
,
0100
1000
0010
0100
0001
0010
0001
0100
,
0010
1000
0001
0010
0100
0010
0001
1000
,
0010
0100
0010
1000
0001
0010
0100
0010
,
0100
1000
0001
0100
0010
1000
0010
0100
,
0001
0010
0100
1000
0010
0100
0001
0010
,
0100
0010
0001
1000
0010
0100
0001
0010
,
0100
1000
0010
0100
0010
1000
0001
0010
,
0001
0100
0010
1000
0100
1000
0001
0100
,
0001
0010
0100
0010
0001
1000
0010
0100
,
0001
0100
0001
0010
0100
0010
0001
1000
,
0100
0010
0100
1000
0001
0100
0010
0100
,
0001
1000
0010
0100
0010
0000
2000
0020
,
0000
3030
0200
0002
0000
0303
0020
0002
,
0000
0033
0200
0020
0000
0000
0000
0000
,
0000
0000
0330
0000
;
