#TITLE:Taito No Suika EX;
#SUBTITLE:;
#ARTIST:bermei.inazawa feat Shimoduki Haruka;
#TITLETRANSLIT:;
#SUBTITLETRANSLIT:;
#ARTISTTRANSLIT:;
#CRChallenge:;
#BANNER:taito.png;
#BACKGROUND:taito-bg.png;
#LYRICSPATH:;
#CDTITLE:;
#MUSIC:taito.ogg;
#OFFSET:0.000;
#SAMPLESTART:29.780;
#SAMPLELENGTH:12.000;
#SELECTABLE:NO;
#BPMS:0.000=180.000,114.000=90.000,115.000=180.000;
#STOPS:114.000=0.333
;
#BGCHANGES:;
#NOTES:
     dance-single:
     Renard:
     Hard:
     14:
     1.000,1.000,0.051,0.423,1.000:
0000
0000
0000
0000
,
0000
0000
0000
0000
,
0000
0000
0000
0000
,
1110
0000
0000
0000
,
1011
0000
0000
0000
,
0111
0000
0000
0000
,
0001
0000
0000
0000
0000
0000
0000
0000
1000
0000
0000
0000
0000
0000
0001
1000
,
0100
0000
1000
0000
0010
0000
0100
0000
0000
0000
0100
0000
0001
0000
0010
0001
,
0010
0000
0010
0000
0100
0000
0100
0000
1000
0000
0001
1000
0100
0000
1000
0000
,
0010
0100
0000
0100
0001
0010
0100
0100
,
1000
1000
0001
0001
0101
0000
0100
0110
,
0000
0010
1010
0100
0001
0010
0100
1000
,
0001
0100
0010
1000
0100
0000
1000
0000
0010
0000
0100
0000
0000
0000
0100
0000
,
0001
0000
1000
0000
0001
0010
0100
1000
0100
0010
0001
0010
0000
0000
0000
0000
,
0100
1000
0100
1000
0100
1000
0100
1000
0100
0000
1000
0000
0001
0100
0001
0100
,
0001
0100
0001
0100
0001
0000
1000
0000
0100
0000
0010
0000
0001
0000
1000
0000
,
0001
0100
0001
0100
0001
1000
0100
1000
0100
0000
1000
0000
0001
0000
0100
0000
,
0010
0000
1000
0000
0001
0000
0010
0000
0100
0000
0000
0000
0100
1000
0100
1000
,
0100
1000
0100
1000
0100
0000
1000
0000
0001
0100
0001
0100
0001
0100
0001
0100
,
0001
0000
1000
0000
0100
0000
0010
0001
0010
0000
0100
0000
1000
0000
0100
0000
,
0010
0000
0001
1000
0001
1000
0001
1000
0001
0000
0100
0000
0010
0000
1000
0001
,
1000
0000
0000
0000
0001
0100
0001
0100
0001
0100
0001
0100
0001
0000
0100
0000
,
0010
1000
0010
1000
0010
1000
0010
1000
0010
0000
1000
0000
0100
0000
0010
0000
,
0001
0000
1000
0000
0010
0000
0100
0000
0001
1000
0100
0010
0001
0010
0100
2000
,
0002
0000
0000
0000
,
0000
0000
0000
0000
,
0000
0000
0000
0000
,
0000
0000
0000
0000
,
0000
0000
0000
0000
0000
0000
0000
0000
3003
0000
0000
0000
0001
1000
0100
0010
,
0001
0010
0100
1000
0001
0000
0000
0000
0001
0000
0100
0000
0000
0000
0100
0000
,
0010
1000
0100
1000
0010
0100
0001
1000
,
0100
0010
0001
0000
0001
0010
0100
1000
,
0001
0100
0010
1000
0100
1000
0010
0100
,
0001
1000
0100
0000
0100
1000
0000
0001
,
0010
0000
0000
0001
1000
0010
0100
0001
,
1000
0100
0010
0000
0010
0100
0000
1000
,
0001
0100
0010
1000
0100
1000
0001
0100
,
0010
1000
0200
0300
0200
0300
0020
0030
,
0020
0030
0002
0003
0002
0003
2000
3000
,
2000
3000
0020
0030
2000
3000
0002
0003
,
0002
0003
0200
0300
0020
0030
2000
3000
,
2000
3000
0002
0000
2003
0000
3200
0000
,
0320
0032
2003
3200
,
0320
0000
0032
2003
3002
2003
3002
2003
,
3002
1003
0001
0000
0000
0000
1000
0000
,
0000
0000
0000
0000
0001
0100
0001
0100
0010
1000
0010
1000
0001
0100
0001
0100
,
0010
1000
0010
1000
0001
1000
0001
1000
0001
1000
0001
1000
0010
1000
0010
1000
,
0010
1000
0010
1000
0001
0100
0001
0100
0010
1000
0010
1000
0001
0100
0001
0100
,
0010
1000
0010
1000
0001
1000
0001
1000
0001
1000
0001
1000
0010
1000
0010
1000
,
0010
1000
0010
1000
0100
1000
0100
1000
0001
0010
0001
0010
0100
1000
0100
1000
,
0001
0010
0001
0010
0100
1000
0100
1000
0100
1000
0100
1000
0001
1000
0001
1000
,
0001
0100
0001
0100
0010
0100
0010
0100
0010
1000
0010
1000
0001
1000
0001
1000
,
0010
1000
0010
1000
0010
0100
0010
0100
0010
0100
0010
0100
0001
1000
0001
1000
,
0001
1000
0001
1000
0001
0100
0001
0100
0010
1000
0010
1000
0001
1000
0001
1000
,
0100
1000
0100
1000
0001
0010
0001
0010
0100
1000
0100
1000
0010
1000
0010
1000
,
0001
0100
0001
0100
0001
0010
0001
0010
0100
1000
0100
1000
0010
1000
0010
1000
,
0001
0100
0001
0100
0001
1000
0001
1000
0100
1000
0100
1000
0001
0010
0001
0010
,
0001
0100
0001
0100
0010
1000
0010
1000
0100
1000
0100
1000
0001
0010
0001
0010
,
0100
1000
0100
1000
0001
0100
0001
0100
0010
1000
0010
1000
0100
1000
0100
1000
,
0100
0010
0100
0010
0001
0010
0001
0010
0001
1000
0001
1000
0010
1000
0010
1000
,
0001
0100
0001
0100
0010
1000
0010
1000
0100
1000
0100
1000
0001
0010
0001
0010
,
0100
1000
0100
1000
0001
0010
0001
0010
0001
0010
0100
1000
0001
0010
0001
0010
,
0001
0010
0100
1000
0001
0100
0001
0100
0001
0100
0010
1000
0001
0100
0001
0100
,
0001
0100
0010
1000
0001
1000
0001
1000
0001
1000
0100
0010
0001
1000
0001
1000
,
0001
1000
0100
0010
0001
0010
0001
0010
0001
1000
0100
0010
0001
0010
0001
0010
,
0001
1000
0100
0010
0100
1000
0100
1000
0001
0010
0001
1000
0100
1000
0100
1000
,
0001
0010
0001
1000
0100
1000
0100
1000
0001
1000
0001
1000
0100
1000
0100
1000
,
0001
1000
0001
1000
0001
0010
0001
0010
0001
0100
0001
0100
0001
0010
0001
0010
,
0001
0100
0001
0100
0001
1000
0001
1000
0100
1000
0010
1000
0001
1000
0001
1000
,
0100
1000
0010
1000
0001
1000
0001
1000
0001
0100
0001
0010
0001
1000
0001
1000
,
0001
0100
0001
0010
0001
0100
0001
0100
0001
0010
0001
1000
0001
1000
0001
1000
,
0010
1000
0100
1000
0001
1000
0001
1000
0100
1000
0010
1000
0001
0100
0001
0100
,
0010
1000
0001
0010
0100
1000
0100
0010
0001
0100
0010
1000
0001
0100
0001
0100
,
0010
1000
0100
0010
0001
0010
0001
0010
0001
0010
0100
1000
0001
0010
0001
0010
,
0001
0010
0100
1000
0001
0100
0001
0100
0001
0100
0010
1000
0001
0100
0001
0100
,
0001
0100
0010
1000
0001
1000
0001
1000
0001
1000
0100
0010
0001
1000
0001
1000
,
0001
1000
0100
0010
0001
0010
0001
0010
0001
1000
0100
0010
0001
0010
0001
0010
,
0001
1000
0100
0010
0002
0000
0000
0000
2003
0000
0000
0000
3200
0000
0000
0000
,
0320
0032
2003
3200
,
2300
3002
0023
0230
,
2300
3002
0023
0032
,
2003
0200
0000
0000
,
0000
0000
0000
0000
,
3300
0000
0000
0000
;
