#TITLE:Szamar Madar;
#SUBTITLE:;
#ARTIST:Venetian Snares;
#TITLETRANSLIT:;
#SUBTITLETRANSLIT:;
#ARTISTTRANSLIT:;
#CRChallenge:;
#BANNER:madar-banner.avi;
#BACKGROUND:madar-bg.png;
#LYRICSPATH:;
#CDTITLE:!cdtitle.png;
#MUSIC:madar.ogg;
#OFFSET:0.060;
#SAMPLESTART:55.197;
#SAMPLELENGTH:11.920;
#SELECTABLE:YES;
#BPMS:0.000=174.000;
#STOPS:0.000=0.060
,7.000=4.138
,9.000=1.724
,11.000=3.103
,16.000=2.069
,20.000=1.379
,27.000=1.724
,29.000=2.414
,44.000=1.379
,67.000=4.138
;
#BGCHANGES:;
#NOTES:
     dance-single:
     Renard:
     Medium:
     9:
     0.516,0.672,0.313,0.245,0.216:
0000
0000
0000
0000
,
0000
0000
0000
1001
,
0000
0101
0000
1010
,
0000
0000
1000
0100
0010
0001
1000
0100
,
0011
0000
0000
0000
0000
0000
0000
0000
1100
0000
0000
0000
0000
0000
0100
1000
,
0100
0000
2000
0000
,
0000
0000
3000
0101
,
0000
0000
0000
0000
0000
0000
1010
0000
0000
0000
0000
0000
0000
0000
0000
0000
0000
2000
0000
0000
0000
0000
0000
0000
,
0000
0000
0000
0000
,
3200
0000
0000
0000
0000
0320
0000
0000
,
0000
0000
0000
0000
0032
0000
0000
2003
0000
0000
3020
0000
0000
0000
0000
0000
0000
0000
0000
0000
0000
0000
0000
0030
,
0000
0000
0000
0000
1001
0010
1000
0100
,
0010
0001
0100
0010
1000
0100
0010
0001
,
0100
0010
1001
0010
1000
0100
0010
0001
,
0100
0010
1000
0100
0010
0001
0100
0010
,
1001
0010
1000
0100
0010
0001
0100
0010
,
1000
0100
0010
0001
0100
0010
1001
0000
,
0000
0000
0000
0000
1001
0000
0000
0000
0010
0000
1000
0100
1000
0100
1000
0000
,
0100
0010
0001
0000
0000
1001
0110
0000
,
1001
0000
0000
0000
0100
0000
0001
0010
0001
0010
0001
0000
0010
0000
0100
0000
,
1000
0000
0000
0000
0000
0000
0000
0000
0000
0000
0000
0000
1000
0000
0000
0001
0010
0001
0010
0000
0000
0000
0000
0000
,
0001
0000
1000
0010
1000
0010
1000
0000
0100
0000
0010
0000
0000
0000
0000
0000
,
0110
0000
0000
0000
1001
0000
0000
0000
0010
0000
0000
0010
1000
0000
0010
0000
,
0010
0000
1000
0010
1000
0000
0001
0000
0101
0000
0000
0000
0000
0000
0000
0000
,
0000
0000
0001
1000
0001
0000
0100
0000
0010
0000
1000
0100
1000
0000
0100
0000
,
0010
0000
0001
0000
0100
0000
0000
0000
0010
1000
0010
1000
0010
0000
0100
0000
,
0001
0000
0010
0001
0011
0000
1000
0100
,
0010
0000
0001
0001
1000
0001
0100
0010
,
1000
0000
0100
0000
0010
0001
0010
0001
0010
0000
0000
0001
0010
0000
0000
0000
,
1100
0000
0000
0000
1000
0000
0010
0000
0100
0000
0001
0010
0001
0000
0100
0000
,
0001
0011
1001
0101
,
0000
0000
0000
0010
1000
0010
1000
0000
0000
0000
0000
0000
1000
0000
0000
0001
0000
0000
0000
0000
0000
0100
0000
0000
,
0000
0010
1000
0000
1010
0100
0001
0011
,
0100
0000
0000
0000
1001
0000
0000
0000
0001
0100
0001
0000
0100
0000
0010
0000
,
1000
0000
0000
0001
0000
0000
0100
0000
0000
0001
0000
0000
0100
0000
0000
0010
1000
0010
1000
0000
0000
0000
0000
0000
,
0100
0000
0010
0000
0000
0000
0001
0010
0001
0000
0010
0000
0100
0000
1000
0000
,
1000
0101
2010
0000
,
0001
0000
0000
0000
0010
0010
0010
0010
,
0010
3010
1010
0000
0100
0001
0010
0001
,
0100
0000
0001
0000
0011
0000
0000
0000
1001
0000
0000
0000
0001
0100
0001
0000
,
1000
0000
0000
0000
1100
0000
0000
0000
0010
0001
0010
0000
0011
0000
0100
0000
,
1000
0000
0000
0000
0000
0000
0010
0000
0000
1000
0000
0000
0010
0000
0000
1000
0000
0000
0010
0000
0000
1000
0000
0000
0010
0000
0000
0000
0000
0000
1000
0000
0010
0000
1000
0000
0010
0000
0000
0000
0000
0000
0100
0000
0000
0001
0000
0000
,
0100
0000
0001
0000
0000
0000
0010
0000
0000
0000
0001
0100
0010
0000
1000
0000
,
1000
0000
0001
0001
2010
0000
0000
0000
,
0100
0000
0001
0000
,
3010
0000
0000
0000
1000
0000
0010
0000
0100
0000
0001
0010
0001
0000
0010
0000
,
0100
0000
1000
0000
0010
0000
0000
0000
0100
0001
0100
0001
0100
0000
0010
0000
,
1000
0000
1100
1000
0100
0010
0011
0000
,
0100
0000
1000
1000
0001
1000
0010
0000
,
1000
0000
0001
0010
0000
0000
1000
0100
0000
0000
0001
0010
0100
0000
1000
0000
,
1000
0000
0001
0001
1010
0100
0001
0100
,
0001
0100
0001
0100
0001
0100
0001
0100
,
0001
0000
0100
0000
0001
0000
0000
0001
0100
0000
0010
0000
0000
0010
1000
0000
,
0100
0000
0000
0100
0010
0000
0001
0000
1000
0100
1000
0100
1000
0000
0100
0000
,
0010
0100
1000
0100
0100
1000
0001
0100
,
0200
0000
0000
0000
0000
0000
0300
0000
0001
0010
0100
1000
0002
0000
0000
0000
,
0000
0000
0000
0000
,
0000
0003
0000
0000
,
0000
0000
0000
0000
,
0000
2000
0000
3200
,
0320
0000
0032
0203
,
0000
0320
2030
0000
,
3200
0320
0000
0000
,
0032
0023
0230
0000
,
2300
3020
0000
0230
,
0302
0000
0023
0230
,
0000
0300
0000
0000
;
#NOTES:
     dance-single:
     WinDEU:
     Easy:
     6:
     0.306,0.387,0.101,0.220,0.017:
0000
0000
0000
0000
,
0000
0000
0000
1001
,
0000
1001
0000
1001
,
0000
0000
0000
0000
,
1001
0000
0000
0000
,
0000
0000
0000
0000
,
0000
0000
0000
0200
,
0000
0000
0000
0000
0000
0000
0310
0000
0000
0000
0000
0000
0000
0000
0000
0000
0000
0002
0000
0000
0000
0000
0000
0000
,
0000
0000
0000
0000
,
0023
0000
0000
0000
0000
0230
0000
0000
,
0000
0000
0000
0000
2300
0000
0000
3002
0000
0000
0203
0000
0000
0000
0000
0000
0000
0000
0000
0000
0000
0000
0000
0300
,
0000
0000
0000
0000
1001
0000
0100
0010
,
0001
0010
0100
1000
0100
0010
0001
0010
,
0100
0000
1100
0000
0100
1000
0100
0010
,
0001
0010
0100
1000
0100
0010
0001
0000
,
0011
0000
0010
0100
1000
0100
0010
0001
,
0010
0100
1000
0100
0010
0001
0011
0000
,
0000
0000
1000
0000
0010
0000
0000
0100
,
0000
0001
0100
0000
0000
0100
0010
0000
,
1000
0000
0100
0000
0000
1000
0100
0000
,
2000
0000
3010
0100
,
0001
0000
0000
0010
0000
0100
0000
0000
,
1000
0000
1001
0000
0001
0000
0100
0010
,
0100
0010
2020
0000
,
3030
0000
1000
0000
0001
0000
0010
0100
,
1000
0000
0001
0000
0100
0010
2000
0000
,
0000
3200
0320
0000
,
0031
0000
0100
0001
0000
0001
0100
0000
,
0010
1000
0001
0000
0010
0000
0100
0000
,
1000
0000
0010
0100
0001
0000
0010
0100
,
1000
1000
1000
1000
,
0000
0000
0001
0000
0100
0010
0000
1000
,
0000
0001
0010
0000
0100
0010
0000
0001
,
0010
0000
0100
0000
0000
1000
0100
0000
,
1000
0000
0010
0200
,
0001
0001
0000
0001
0000
0001
0301
0100
,
0001
0101
2000
0000
,
3200
0000
0000
0000
0310
0001
0010
0001
,
0010
0001
1000
0000
0010
1000
0000
0010
,
0000
0100
0001
0000
0010
0100
0000
1000
,
0100
0000
0010
0000
0000
0001
1000
0000
,
0001
0000
0100
0010
,
1000
0010
0000
0010
0000
0010
0100
0001
,
0001
0000
1000
1000
0200
0000
0000
0000
,
0320
0000
0032
0000
,
2003
0000
3010
0000
0100
0001
0000
1000
,
0000
0010
0100
0000
0010
1000
0000
0001
,
0010
0000
0100
0000
0000
1000
0100
0000
,
0010
0000
0001
0100
,
0001
0010
0000
0010
0000
0010
0001
1000
,
1000
0000
0010
0010
0200
0000
0000
0000
,
0302
0000
0023
0230
,
0000
0000
1300
0000
0010
0000
0000
0010
,
0000
0000
0010
0100
0010
0100
0010
0100
,
0001
0100
0001
1000
0100
1000
0100
1000
,
0100
0000
0000
2002
,
0000
0000
0000
0000
,
0000
3003
0000
0000
;
#NOTES:
     dance-single:
     WinDEU:
     Beginner:
     1:
     0.126,0.194,0.076,0.279,0.000:
0000
0000
0000
0000
,
0000
0000
0000
0001
,
0000
0100
0000
0010
,
0000
0000
0000
0000
,
1000
0000
0000
0000
,
0000
0000
0000
0000
,
0000
0000
0000
2002
,
0000
3003
0000
0000
,
0000
0000
0000
0000
,
0000
0000
0000
0000
,
0000
0000
0000
0000
,
0000
0000
1001
0000
,
0000
0000
0000
0000
,
0000
0110
0000
0000
,
0000
0000
0000
0000
,
1001
0000
0000
0000
,
0000
0000
0000
1001
,
0000
2000
0000
0000
,
0000
0000
0000
3000
,
0200
0000
0000
0000
,
0000
0000
0300
0010
,
0002
0000
0000
0000
,
0000
0003
0100
0000
,
0010
0000
1010
0000
,
0000
0020
0000
0130
,
0020
0000
0130
0002
,
0000
0013
0200
0000
,
1300
0001
0000
0200
,
0000
0310
0200
0000
,
0310
2000
0000
3100
,
0010
0001
1000
0001
,
0000
0200
0000
0000
,
0000
0000
0000
0300
,
0020
0000
0000
0000
,
0000
0000
0030
2000
,
0000
0000
0000
0000
,
0000
3000
0100
0000
,
0010
0000
0001
0100
,
0000
0020
0000
0000
,
0000
0000
0000
0030
,
2000
0000
0000
0000
,
0000
0000
3000
0100
,
0020
0000
0000
0000
,
0000
0030
0012
0000
,
0203
0000
0320
0000
,
1030
0200
0000
0000
,
0000
0000
0000
0300
,
0020
0000
0000
0000
,
0000
0000
0030
0002
,
0000
0000
0000
0000
,
0000
0003
0012
0000
,
2003
0000
3010
0200
,
0000
0302
0000
0000
,
0000
0000
0000
0003
,
2000
0000
3200
0000
,
0320
0000
0030
2002
,
0000
0000
0000
0000
,
0000
3003
0000
0000
;
