#TITLE:Sweet Dreams;
#SUBTITLE:;
#ARTIST:Noisia;
#TITLETRANSLIT:;
#SUBTITLETRANSLIT:;
#ARTISTTRANSLIT:;
#CRChallenge:;
#BANNER:dreams.png;
#BACKGROUND:dreams-bg.png;
#LYRICSPATH:;
#CDTITLE:;
#MUSIC:dreams.ogg;
#OFFSET:0.000;
#SAMPLESTART:27.827;
#SAMPLELENGTH:12.000;
#SELECTABLE:YES;
#BPMS:0.000=172.000;
#STOPS:;
#BGCHANGES:;
#NOTES:
     dance-single:
     Renard:
     Hard:
     11:
     0.734,1.000,0.791,0.028,0.345:
0000
0000
0000
0000
,
0000
0000
0000
0000
,
0000
0000
0000
0000
,
0000
0000
0000
0000
,
0001
0010
0100
1000
0001
0001
1000
1000
,
0010
0010
0100
0001
0010
0010
0100
1000
,
0001
0010
0100
1000
0001
0001
1000
1000
,
0010
0010
0100
0001
0010
0010
0100
1000
,
0001
0100
1000
0001
0000
0011
0000
1010
,
0000
1000
0100
0001
0100
0010
0001
0010
,
1000
0010
0001
1000
0000
1100
0000
0101
,
0000
0001
0100
1000
0010
0001
0010
0000
,
0001
0010
1000
0010
0000
1010
0000
0011
,
0000
0001
0010
1000
0000
1000
0010
0001
,
0010
1000
0001
0100
0000
1100
0000
0101
,
0000
0001
1000
0100
0001
0100
1000
0010
,
0100
0000
0000
0000
0100
0000
0000
0000
0001
0000
0000
0001
0000
0000
0001
0000
,
0000
0001
0000
0000
0001
0000
0000
0001
0000
0000
0001
0000
0000
0001
0000
0000
,
1000
2000
0000
0000
,
0000
0000
0000
0000
,
3001
0000
0100
0000
0101
0000
0000
0100
0000
0010
1000
0000
1010
0000
0000
0000
,
1000
0000
0100
0000
1100
0000
0000
1000
0000
0001
0010
0000
0011
0000
0000
0000
,
0001
0000
0100
0000
0110
0000
0000
0010
0000
1000
0001
0000
1001
0000
0000
0000
,
1000
0000
0100
0000
0110
0000
0000
0010
0000
0001
1000
0000
1001
0000
0000
0000
,
0001
0000
0100
0000
0110
0000
0000
0010
0000
1000
0001
0000
1001
0000
0000
0000
,
1000
0000
0100
0000
0110
0000
0000
0010
0000
0001
1000
0000
1001
0000
0000
0000
,
0001
0000
0100
0000
0101
0000
0000
0100
0000
0010
1000
0000
1010
0000
0000
0000
,
1000
0000
0100
0000
1100
0000
0000
1000
0000
0100
0010
0000
0011
0000
0000
0000
,
1100
0000
0000
0000
0011
0000
0000
0000
0001
0000
0000
0001
0000
0000
0001
0000
,
0000
0001
0000
0000
0001
0000
0000
0001
0000
0000
0001
0000
0000
0001
0000
0000
,
0011
2200
0000
0000
,
0000
0000
0000
3300
,
1100
0000
1100
0000
0010
1100
0000
1001
,
0000
0000
0010
0000
0100
0001
0100
0001
0100
0000
0001
0100
0001
0100
0001
0000
,
1100
0000
1100
0000
0010
1100
0000
1001
,
0000
0000
0010
0000
0100
0001
0100
0001
0100
0000
0001
0100
0001
0100
0001
0000
,
0011
0000
0011
0000
0100
0011
0000
1001
,
0000
0000
0100
0000
0010
1000
0010
1000
0010
0000
1000
0010
1000
0010
1000
0000
,
0011
0000
0011
0000
0100
0011
0000
1001
,
0000
0000
0100
0000
0010
1000
0010
1000
0010
0000
1000
0010
1000
0010
1000
0000
,
0101
0010
1100
0000
0000
0000
0000
0000
,
0100
0010
1000
0100
0010
0001
0010
0000
,
0011
0100
1010
0000
0000
0000
0000
0000
,
1000
0010
0100
0001
0010
0100
1000
0000
,
1100
0010
0101
0000
0000
0000
0000
0000
,
0001
0100
0010
1000
0100
0010
0001
0000
,
0011
0100
1010
0000
0000
0000
0000
0000
,
1000
0010
0100
0001
0010
0001
1000
0000
,
0010
0010
0010
0010
0010
0010
0010
0010
,
0010
0010
0010
0010
0010
0010
0010
0010
,
1001
0000
0000
1000
0001
1000
0001
1000
0001
1000
0001
1000
0001
1000
0001
1000
,
0001
1000
0010
1000
0010
1000
0001
1000
0001
1000
0010
1000
0001
1000
0001
0000
,
0101
0000
0000
0000
1010
0000
0000
0000
0101
0000
0010
0000
0000
1000
0010
0000
,
0100
0001
0010
0000
0011
0100
0000
1100
,
1010
0000
0000
0000
0101
0000
0000
0000
1010
0000
0100
0000
0000
0001
0100
0000
,
0010
1000
0100
0000
1100
0010
0000
0011
,
0101
0000
0000
0000
1010
0000
0000
0000
0101
0000
0010
0000
0000
1000
0010
0000
,
0100
0001
0010
0000
0011
0100
0000
1100
,
1001
0000
1001
0000
0110
1001
0000
0110
,
0000
0000
0001
0000
1000
0100
0010
0000
0001
0000
0010
0100
1000
0000
0001
0000
,
1100
0000
1100
0000
0011
1100
0000
0011
,
0000
0000
1000
0000
0100
0010
0001
0000
1000
0000
0001
0010
0100
0000
1000
0000
,
0110
0000
0110
0000
1001
0110
0000
1001
,
0000
0000
0100
0000
0010
0001
1000
0000
0100
0000
1000
0001
0010
0000
0100
0000
,
1100
0000
0100
0000
0000
0011
0000
0011
,
0000
0000
0000
0000
0001
1000
0001
1000
,
0001
0000
0001
0000
0100
0000
0010
0000
1000
0000
0001
1000
0001
0000
1000
0000
,
0100
0000
0010
0000
0001
0000
0010
0000
0100
0000
1000
0100
1000
0000
0001
0000
,
1000
0010
0100
0000
0001
0100
0010
1000
,
0001
0000
1000
0000
0100
0000
1000
0000
0001
0000
0010
0001
0010
0001
0010
0000
,
0100
1000
0001
0100
0010
1000
0001
0100
,
0000
0000
0010
1000
0010
0000
1000
0000
0100
0000
0010
0100
0010
0000
0001
0000
,
0001
0000
1000
0010
0100
0000
0000
0000
0001
0000
0100
0000
0010
1000
0010
0000
,
1000
0100
1000
0100
1000
0000
1000
0000
0001
0010
0001
0010
0001
0000
0001
0000
;
#NOTES:
     dance-single:
     Renard:
     Medium:
     9:
     0.628,1.000,0.772,0.055,0.06:
0000
0000
0000
0000
,
0000
0000
0000
0000
,
0000
0000
0000
0000
,
0000
0000
0000
0000
,
1000
0100
1000
0100
1000
0010
1000
0001
,
0010
0001
0010
0001
0010
0100
0010
0100
,
1000
0100
1000
0100
1000
0010
1000
0001
,
0010
0001
0010
0001
0010
0100
1000
0001
,
0010
0001
1000
0010
0000
1001
0000
1010
,
0000
1001
0000
1010
0000
1000
0010
0100
,
0001
0010
0100
1000
0000
1001
0000
1100
,
0000
1001
0000
1010
0000
1000
0010
0100
,
0001
0010
0001
1000
0000
1001
0000
0101
,
0000
1001
0000
0011
0000
1000
0001
0100
,
0010
1000
0100
1000
0000
1001
0000
1010
,
0000
1100
0000
1001
0000
1000
0100
0010
,
0001
0001
2000
0000
,
0000
0000
0000
0000
,
3010
0010
0200
0000
,
0000
0000
0000
0000
,
0310
0000
0110
0000
0010
1000
1100
0000
,
0010
0000
0011
0000
0001
0100
0101
0000
,
1000
0000
1100
0000
0001
0010
0110
0000
,
0100
0000
1100
0000
1000
0010
0110
0000
,
0100
0000
0101
0000
0001
0010
0110
0000
,
0100
0000
1100
0000
1000
0001
0011
0000
,
0001
0000
1001
0000
1000
0010
1010
0000
,
1000
0000
0110
0000
1000
0001
0101
0000
,
1001
0110
2002
0000
,
0000
0000
0000
3003
,
0110
1001
0220
0000
,
0000
0000
0000
0330
,
1010
0000
0101
0000
0001
0010
0000
1100
,
0000
1000
0010
0100
0001
0010
0100
0000
,
1100
0000
0011
0000
1000
0010
0000
0101
,
0000
0100
0010
1000
0100
0010
0001
0000
,
0011
0000
0110
0000
0100
1000
0000
0011
,
0000
0010
0100
1000
0001
0100
0010
1000
,
0001
0000
0101
0000
1000
0010
0000
0101
,
0000
0001
0010
0100
1000
0001
0010
0000
,
1100
1100
0001
0000
,
0010
0100
1000
0001
0010
0100
1000
0000
,
0011
0011
0100
0000
,
1000
0100
0010
0001
1000
0001
0010
0000
,
0110
0110
1000
0000
,
0001
0010
0100
1000
0100
0010
0001
0000
,
1001
1001
1000
0000
,
0001
0010
0100
1000
0100
0010
0001
0000
,
1000
1000
0001
0001
1000
1000
0001
0001
,
1000
1000
0001
0001
1000
1000
1000
1000
,
0001
1000
0001
1000
0001
1000
0001
1000
0001
1000
0001
1000
0001
1000
0001
1000
,
0001
1000
0001
1000
0001
1000
0001
1000
0001
1000
0001
1000
0001
0000
1000
0000
,
1001
0000
1001
0000
0100
1001
0000
1001
,
0000
0000
1000
0001
0010
0100
1000
0000
,
1001
0000
1001
0000
0010
1001
0000
1001
,
0000
1000
0001
0100
0010
1000
0001
0000
,
1100
0000
1100
0000
0010
0101
0000
0101
,
0000
0001
0100
0010
1000
0000
1001
0000
,
1100
0000
0011
0000
1000
0000
0001
0010
,
0100
1000
0001
0000
1001
0000
0000
0000
,
1100
0000
0011
0000
0100
0000
1000
0100
,
0010
0001
1000
0000
1100
0000
0011
0000
,
1010
0000
0101
0000
0010
0000
1000
0100
,
0010
0001
0010
0000
1100
0000
0011
0000
,
1001
0000
1001
0000
0010
1000
0000
0101
,
0000
0010
0010
0010
,
0010
1000
0100
0010
0001
0010
0100
1000
,
0001
0100
0010
1000
0100
0010
0010
0000
,
0001
0010
0100
1000
0001
0100
0010
1000
,
0100
0010
0100
1000
0001
0100
0100
0000
,
0001
0010
0100
1000
0001
0100
0010
1000
,
0100
0010
0001
1000
0001
0100
0100
0000
,
0001
0010
0100
1000
0001
0100
0010
1000
,
0100
0010
0001
0100
0010
1000
0001
0001
;
#NOTES:
     dance-single:
     Renard:
     Easy:
     6:
     0.387,0.577,0.386,0.000,0.000:
0000
0000
0000
0000
,
0000
0000
0000
0000
,
0000
0000
0000
0000
,
0000
0000
0000
0000
,
0000
0000
0000
0000
,
0000
0000
0000
0000
,
0000
0000
0000
0000
,
0000
0000
0000
0000
,
1000
0001
1000
0001
0000
1000
0000
0010
,
0000
0100
0000
0001
0000
0000
0000
0000
,
1000
0001
1000
0001
0000
1000
0000
0010
,
0000
0100
0000
0001
0000
0000
0000
0000
,
1000
0001
1000
0001
0000
1000
0000
0100
,
0000
0010
0000
0001
0000
0000
0000
0000
,
1000
0001
1000
0001
0000
1000
0000
0100
,
0000
0010
0000
0001
0000
0000
0000
0000
,
1001
0110
0000
0000
,
0000
0000
0000
0000
,
0110
1001
0000
0000
,
0000
0000
0000
0000
,
0001
1100
0000
1010
,
1000
0010
1000
0000
0001
0100
0001
0000
,
0001
1100
0000
1010
,
1000
0010
1000
0000
0001
0100
0001
0000
,
0001
1100
0000
1010
,
1000
0010
1000
0000
0001
0100
0001
0000
,
0001
1100
0000
1010
,
1000
0010
1000
0000
0001
0100
0001
0000
,
1000
0100
1001
0000
,
0000
0000
0000
0000
,
0001
0100
1001
0000
,
0000
0000
0000
0000
,
1000
0000
1000
0000
0100
0000
1000
0100
,
0000
0100
1000
0000
0010
1000
0010
0000
,
1000
0000
1000
0000
0001
0000
0100
0001
,
0000
0001
0100
0000
0001
0000
1000
0000
,
0100
0000
0100
0000
0010
0100
0000
0100
,
0000
1000
0100
0000
1000
0000
0001
0000
,
0100
0000
0100
0000
0010
0000
0100
0001
,
0000
0001
1000
0000
0100
0000
1000
0000
,
0101
0101
0001
1000
,
0100
0010
0001
0010
,
0110
0110
0010
0100
,
1000
0010
0100
0001
,
1001
1001
1000
0100
,
0010
0001
1000
0010
,
1010
1010
1000
0010
,
0100
0001
0100
0001
,
1000
0001
1000
0001
1000
0001
1000
0001
,
1000
0001
1000
0001
1000
0001
1000
0001
,
1000
0001
0001
0001
,
0001
0001
0001
0001
,
0110
0000
0110
0000
0010
0100
0000
0001
,
0000
1000
0001
0000
1000
0000
0000
0000
,
1100
0000
1100
0000
1000
0000
0001
0100
,
0000
0001
1000
0000
0001
0000
0000
0000
,
1100
0000
1100
0000
1001
0000
0000
1000
,
0000
0010
1000
0000
0001
0000
0100
0000
,
1001
0000
1001
0000
0000
0000
0000
1001
,
0000
0010
0100
0000
,
1001
0000
1001
0000
0000
0000
0000
1001
,
0000
1000
0001
0100
,
0110
0000
0110
0000
0000
0000
0000
0110
,
0000
0000
0010
0000
0100
0001
1000
0000
,
0110
0000
0110
0000
0000
0110
0000
0110
,
0000
0000
0000
0000
,
0010
0100
0010
0100
0010
0000
0000
0000
,
0100
0001
1000
0000
,
0001
1000
0001
1000
0001
0000
0000
0000
,
0001
1000
0100
0000
,
0010
0100
0010
0100
0010
0000
0000
0000
,
0010
0001
1000
0000
,
0001
0100
0001
0000
0100
0000
0010
0000
,
1000
0100
1000
0000
0001
0100
0010
1000
;
#NOTES:
     dance-single:
     Renard:
     Beginner:
     3:
     0.276,0.339,0.257,0.138,0.000:
0000
0000
0000
0000
,
0000
0000
0000
0000
,
0000
0000
0000
0000
,
0000
0000
0000
0000
,
0001
0001
0001
0001
,
1000
0100
0010
0001
,
1000
1000
1000
1000
,
0001
0010
0100
1000
,
0002
0000
0203
0000
,
0310
0010
0010
0000
,
2000
0000
3200
0000
,
0310
0010
0010
0000
,
0002
0000
0203
0000
,
0310
0010
0010
0000
,
2000
0000
3200
0000
,
0310
0010
0010
0000
,
2002
0010
0000
0000
,
0000
0000
0000
3003
,
2002
0010
0000
0000
,
0000
0000
0000
3003
,
0001
1100
0000
1100
,
0000
1010
0000
1010
,
0001
1100
0000
1100
,
0000
1010
0000
1010
,
1000
0101
0000
0101
,
0000
0011
0000
0011
,
1000
0101
0000
0101
,
0000
0011
0000
0011
,
1000
1000
0000
0000
,
0000
0000
0000
0000
,
0001
0001
0000
0000
,
0000
0000
0000
0000
,
1000
0100
0100
0000
,
0010
0001
0100
0000
,
0010
0010
1000
0000
,
0010
0100
0001
0000
,
1000
1000
0001
0000
,
0010
0001
1000
0000
,
0100
0100
0010
0000
,
0001
1000
0100
1000
,
1001
1001
0000
0000
,
0000
0000
0000
0000
,
0110
0110
0000
0000
,
0000
0000
0000
0000
,
1001
1001
0000
0000
,
0000
0000
0000
0000
,
0110
0110
0000
0000
,
0000
0000
0000
0000
,
0010
0010
0010
0010
,
0010
0010
0010
0010
,
2002
0000
0000
0000
,
0000
0010
0000
3013
,
1000
1000
0001
0000
,
0001
0000
1000
0000
,
0010
0010
0100
0000
,
0100
0100
0100
0000
,
0001
0001
1000
0000
,
1000
1000
1000
0000
,
0100
0010
0001
0000
,
0001
0000
0001
0000
,
1000
0100
0010
0000
,
0010
0100
1000
0000
,
0001
0000
0001
0000
,
1000
0010
1000
0000
,
0001
0001
0000
1000
,
1000
0000
0000
0000
,
0020
0000
0130
0000
,
0001
1000
0100
0000
,
1000
1000
0001
0000
,
0010
0000
0001
0001
,
1000
0000
0100
0000
,
1000
0000
0010
0010
,
0000
0100
0001
0000
,
1000
0100
0010
1001
;
