#TITLE:Supadupafly;
#SUBTITLE:;
#ARTIST:666;
#TITLETRANSLIT:;
#SUBTITLETRANSLIT:;
#ARTISTTRANSLIT:;
#CRChallenge:;
#BANNER:fly.png;
#BACKGROUND:fly-bg.png;
#LYRICSPATH:;
#CDTITLE:!cdtitle.png;
#MUSIC:fly.ogg;
#OFFSET:0.000;
#SAMPLESTART:57.403;
#SAMPLELENGTH:12.000;
#SELECTABLE:YES;
#BPMS:0.000=137.875;
#STOPS:;
#BGCHANGES:;
#NOTES:
     dance-single:
     Renard:
     Hard:
     10:
     0.724,0.805,0.156,0.000,0.760:
0000
0000
0000
0000
,
0000
0000
0000
0000
,
0000
0000
0000
0000
,
0000
0000
0000
0000
,
0000
0000
0000
0000
,
1100
0000
0011
0000
0001
0010
1100
0000
,
1000
0010
0000
0100
0001
0000
0010
0000
0100
1000
0001
0010
0100
0000
1000
0000
,
0001
0000
0101
0000
0001
1000
1100
0000
,
1100
0010
1001
0010
1100
0000
1000
0100
,
0011
0000
1100
0000
1000
0100
0011
0000
,
0001
0100
0000
0010
1000
0000
0100
0000
0010
0001
1000
0100
0010
0000
0001
0000
,
1000
0000
1010
0000
1000
0001
0011
0000
,
0011
0100
1001
0100
0011
0000
0001
1000
,
0001
0000
0010
0001
0100
0000
0010
1000
0100
0000
0010
0001
0100
0000
0010
1000
,
0100
0000
0010
0001
0100
0000
0010
0000
1000
0000
0000
0000
1000
0000
0000
0000
,
0010
0000
1000
0100
0010
0000
0001
0100
0010
0000
1000
0100
0010
0000
0001
0100
,
0010
0000
1000
0100
0010
0000
0001
0000
1000
0000
0000
0000
1000
0000
0000
0000
,
0001
0000
1000
0010
1000
0000
0100
1000
0100
0000
1000
0001
1000
0000
0001
0100
,
0001
0000
0010
0001
0010
0000
0001
0000
1000
0000
0000
0000
0001
0000
0000
0000
,
1000
0000
0100
1000
0100
0000
1000
0001
1000
0000
0001
0100
0001
0000
0010
0001
,
0010
0000
0100
0000
1000
1000
0001
0001
,
0100
0000
0000
0010
0000
0000
1000
0000
0100
0000
0010
0000
0001
0000
0010
0000
,
0100
0000
0000
1000
0000
0000
0001
0000
0100
0000
0010
0000
1000
0000
0100
0000
,
0010
0000
0000
0001
0000
0000
0010
0000
0100
0000
1000
0000
0001
0000
0100
0000
,
0010
0000
0000
1000
0000
0000
0010
0000
0100
0000
0001
0000
0010
0000
0100
0000
,
1000
0000
0000
0100
0000
0000
0010
0000
0001
0000
1000
0000
0010
0000
0100
0000
,
0010
0000
0000
0100
0000
0000
0001
0000
0010
0000
0100
0000
0010
0000
0100
0000
,
1000
0000
0000
0010
0000
0000
0100
0000
0010
0000
0100
0000
0010
0000
0100
0000
,
0001
0000
0000
0010
0000
0000
0100
0000
1000
0100
0010
0001
0010
0100
1000
0001
,
0010
0000
0000
0100
0000
0000
1000
0000
0001
0000
0000
0010
0000
0000
0100
0000
,
1000
0000
0000
0100
0000
0000
0010
0000
0001
0000
0010
0000
0100
0000
1000
0000
,
0001
0000
0000
0010
0000
0000
0100
0000
1000
0000
0000
0100
0000
0000
0010
0000
,
0001
0010
0100
1000
0100
0010
0001
0010
0100
1000
0100
0010
0001
0010
0100
1000
,
0001
0000
0001
0010
0000
0000
0010
0000
0100
0000
1000
0000
0010
0000
0100
0000
,
0010
0000
0010
1000
0000
0000
0010
0000
0100
0000
0001
0000
0010
0000
0100
0000
,
1000
0000
1000
0100
0000
0000
0010
0000
0001
0000
1000
0000
0010
0000
0100
0000
,
0010
0000
0010
1000
0000
0000
0010
0000
0100
0000
0001
0000
0010
0000
0100
0000
,
1000
0000
1000
0001
0000
0000
0100
0000
0010
0000
1000
0000
0100
0000
0010
0000
,
0001
0000
0001
1000
0000
0000
0010
0000
0100
0000
0010
0000
1000
0000
0100
0000
,
0010
0000
0010
0001
0000
0000
0010
0000
0100
0000
1000
0000
0001
0000
0100
0000
,
0010
0000
0010
1000
0000
0000
1000
0000
0010
0000
0100
0000
0001
0000
0010
0000
,
0100
1000
0000
1000
0100
0000
0100
1000
0100
0010
0001
0010
0100
1000
0001
0100
,
0010
1000
0000
1000
0010
0000
0100
0010
0100
0001
0010
0100
1000
0100
0010
0001
,
0010
0001
0000
0001
0010
0000
0001
0010
0100
1000
0100
0010
0001
0100
0010
1000
,
0100
0010
0000
0010
0100
0000
1000
0010
0100
0001
0100
0010
1000
0010
0100
0001
,
0010
0100
0000
0100
0010
0000
0001
0100
0010
1000
0100
0010
0001
0010
0100
1000
,
0001
0100
0000
0100
0010
0000
1000
0100
0010
0001
0010
0100
1000
0001
0100
0010
,
1000
0010
0000
0010
0100
0000
0010
0100
0001
0100
0000
0100
0001
0000
1000
0100
,
0010
0000
0001
0100
0001
0000
1000
0100
1000
0000
0001
0100
0001
0000
1000
0000
,
0001
0100
0000
0001
0100
0000
0001
0100
0010
1000
0100
0010
0001
0010
0100
1000
,
0100
0000
1000
0100
1000
0000
0100
0010
0001
0010
0100
1000
0001
0010
0100
1000
,
0001
0000
0100
0001
0100
0000
0001
0100
0010
1000
0100
0010
0001
0010
0100
1000
,
0001
0000
0100
0001
0100
0000
0001
0100
0010
1000
0100
0010
0001
0010
0100
1000
,
0001
0000
0100
0001
0100
0000
0001
0100
0010
1000
0100
0010
0001
0010
0100
1000
,
0001
0000
0100
0001
0100
0000
0001
0100
0001
0100
0010
1000
0100
0010
0001
0010
,
0100
0000
0100
1000
0000
1000
0010
0000
0100
0000
0100
0001
0000
0001
0010
0000
,
0100
1000
0100
0010
0001
0010
0100
1000
0001
0000
0001
0000
1000
0000
1000
0000
,
0010
0000
0000
0000
;
#NOTES:
     dance-single:
     Renard:
     Medium:
     8:
     0.537,0.472,0.195,0.019,0.190:
0000
0000
0000
0000
,
0000
0000
0000
0000
,
0000
0000
0000
0000
,
0000
0000
0000
0000
,
0000
0000
0000
0000
,
1001
0000
0110
0000
0010
1000
0100
0000
,
0010
0001
0000
0001
0010
0000
0100
0000
1000
0000
0001
0000
0100
0000
0010
0000
,
1000
0000
1010
0000
0010
0100
0001
0000
,
0100
0100
0010
0010
1000
0000
0001
1000
,
0100
0000
1100
0000
1000
0100
0010
0000
,
0001
1000
0000
1000
0001
0000
0100
0000
0010
0000
1000
0000
0100
0000
0010
0000
,
0001
0000
0011
0000
0001
0010
0100
0000
,
1000
1000
0010
0010
0100
0000
0001
0100
,
0010
0010
1000
1000
0001
0001
0100
0100
,
0010
0010
1000
1000
1010
0000
0101
0000
,
0001
0001
0010
0010
0100
0100
1000
1000
,
0100
0100
0010
0010
0011
0000
0000
0000
,
0100
0100
1000
1000
0010
0010
0100
0100
,
0001
0001
0100
0100
0110
0000
0101
0000
,
0100
0100
0010
0010
1000
1000
0100
0100
,
0010
0010
0001
0001
1000
1000
0100
0100
,
0010
0000
0000
0001
0000
0000
0010
0000
0001
0000
0010
0000
0001
0000
0010
0000
,
0100
0000
0000
1000
0000
0000
0100
0000
1000
0000
0100
0000
1000
0000
0100
0000
,
1000
0000
0000
0010
0000
0000
1000
0000
0010
0000
1000
0000
0010
0000
1000
0000
,
0001
0000
0000
0100
0000
0000
0001
0000
0100
0000
0001
0000
0100
0000
0001
0000
,
0100
0000
0000
0100
0000
0000
0100
0000
0010
0000
0010
0000
0100
0000
0100
0000
,
0001
0000
0000
0001
0000
0000
1000
0000
0001
0000
0001
0000
1000
0000
1000
0000
,
0010
0000
0000
0010
0000
0000
0100
0000
0010
0000
0010
0000
1000
0000
1000
0000
,
0001
0000
0000
0001
0000
0000
0100
0000
0001
0000
1000
0000
0100
0000
0010
0000
,
0001
0000
0000
0001
0000
0000
0010
0000
0100
0000
1000
0000
0001
0000
0010
0000
,
0100
0000
0000
1000
0000
0000
0001
0000
0010
0000
0100
0000
1000
0000
0001
0000
,
0010
0000
0000
0001
0000
0000
1000
0000
0100
0000
0010
0000
0001
0000
1000
0000
,
2002
0000
0000
0000
0000
0000
0000
3003
,
0001
0000
0000
0101
0000
0000
0001
0000
0100
0000
1000
0000
0100
0000
0001
0000
,
0010
0000
0000
0011
0000
0000
0001
0000
0010
0000
1000
0000
0010
0000
0001
0000
,
0100
0000
0000
0101
0000
0000
0001
0000
0100
0000
1000
0000
0100
0000
0001
0000
,
0010
0000
0000
0011
0000
0000
0001
0000
0010
0000
1000
0000
0010
0000
0001
0000
,
1000
0000
0000
1010
0000
0000
1000
0000
0010
0000
0001
0000
0010
0000
1000
0000
,
0100
0000
0000
1100
0000
0000
1000
0000
0100
0000
0001
0000
0100
0000
1000
0000
,
0010
0000
0000
1010
0000
0000
1000
0000
0010
0000
0001
0000
0010
0000
1000
0000
,
0100
0000
0000
1100
0000
0000
1000
0000
0100
0000
0001
0000
0100
0000
1000
0000
,
0010
0000
0000
0010
0000
0000
0100
0000
0001
0000
0010
0000
0100
0000
1000
0000
,
0010
0000
0000
0010
0000
0000
1000
0000
0100
0000
0010
0000
0001
0000
0100
0000
,
0010
0000
0000
0010
0000
0000
0100
0000
0001
0000
0010
0000
0100
0000
1000
0000
,
0010
0000
0000
0010
0000
0000
1000
0000
0100
0000
0010
0000
0001
0000
0100
0000
,
0001
0000
0000
1000
0000
0000
0100
0000
0001
0000
0100
0000
1000
0000
0010
0000
,
0001
0000
0000
0010
0000
0000
0100
0000
0001
0000
0010
0000
1000
0000
0010
0000
,
0100
0000
0000
0001
0000
0000
0100
0000
1000
0000
0000
0010
0000
0000
0100
0000
,
0001
0100
0010
1000
0100
0010
0001
0000
,
1000
0001
0000
0001
1000
0000
0001
0000
0100
0000
0010
0000
1000
0000
0100
0000
,
0010
0000
0000
0001
0010
0000
0100
0000
1000
0000
0001
0000
0100
0000
0010
0000
,
1000
0000
0000
1000
0010
0000
0100
0000
0001
0000
0100
0000
0010
0000
1000
0000
,
0100
0000
0000
0100
0010
0000
0001
0000
0010
0000
0100
0000
1000
0000
0001
0000
,
1000
0000
0000
1000
0001
0000
0100
0000
0010
0000
1000
0000
0100
0000
0010
0000
,
0001
0000
0000
0001
1000
0000
0010
0000
0100
0000
0001
0000
1000
0000
0100
0000
,
0010
0000
0000
0010
0001
0000
1000
0000
0100
0000
0010
0000
0001
0000
1000
0000
,
0010
0010
0100
0100
0001
0001
1000
1000
,
1001
0000
0000
0000
;
#NOTES:
     dance-single:
     Renard:
     Easy:
     6:
     0.376,0.389,0.088,0.049,0.000:
0000
0000
0000
0000
,
0000
0000
0000
0000
,
0000
0000
0000
0000
,
0000
0000
0000
0000
,
0000
0000
0000
0000
,
1001
0000
0110
0000
0010
0010
0010
0000
,
0100
0001
1000
0100
,
1001
0000
0110
0000
0010
0010
0010
0000
,
0100
0001
1000
0100
,
1001
0110
0010
0010
,
1000
0001
0100
0000
0010
1000
0001
0000
,
0100
1001
0110
0010
,
1000
0000
0001
0100
0001
0000
1000
0000
,
0100
0100
0010
0010
,
0002
2000
0010
3013
,
1000
0001
0100
0010
,
1000
0002
0013
0000
,
0001
0010
0100
1000
,
0002
2000
0010
3013
,
1000
0001
0100
0010
,
1000
0000
0100
0000
0010
0001
0010
0100
,
1000
0000
0000
0000
0100
0000
1000
0100
,
0010
0000
0000
0000
0001
0000
0010
0001
,
0010
0000
0000
0000
0100
0000
1000
0100
,
0010
0000
0000
0000
0001
0010
0100
0000
,
1000
0000
0000
0000
0100
0010
0001
0010
,
0100
0000
0000
0000
0010
0100
1000
0100
,
0010
0000
0000
0000
0001
0010
0100
0010
,
0100
0000
1000
0000
0010
0100
0001
0000
,
0100
0000
0100
0000
0010
0100
0010
0000
,
0100
0000
0100
0000
0010
0100
0010
0000
,
0100
0000
0100
0000
0010
0100
0010
0000
,
0100
0010
0100
0010
0100
0010
0100
0010
,
1000
0000
1000
0000
0010
0000
1000
0010
,
0100
0000
0100
0000
0001
0000
0100
0001
,
0010
0000
0010
0000
0001
0000
0010
0001
,
1000
0000
1000
0100
0001
0000
0001
0100
,
1000
0000
1000
0000
0010
0000
0100
0001
,
0100
0000
0100
0000
0001
0000
0001
0010
,
0100
0100
1000
0100
,
1000
0000
0010
0001
0010
0000
1000
0010
,
1000
0000
0100
0000
0010
0000
0001
0010
,
0100
0000
0100
0000
1000
0000
0010
0100
,
0001
0000
0100
0000
0010
0000
1000
0100
,
0010
0000
0010
0000
0001
1000
0010
0100
,
0001
0000
0001
0000
0100
0010
1000
0100
,
0010
0000
0010
0000
0001
1000
0010
0100
,
0001
0000
0001
0000
1000
0100
0010
0000
,
0001
0010
0100
1000
0010
0100
0001
0000
,
1001
0010
0001
0010
,
0100
0000
1000
0000
0010
0100
0001
1000
,
0100
0010
0001
0010
,
0100
0000
1000
0000
0010
0100
0001
0100
,
0010
0000
1000
0000
0100
0000
0010
0100
,
1000
0000
0010
0000
0100
0000
0001
0100
,
0010
1000
0100
0010
,
0001
0000
0010
0000
0100
0100
1000
1000
,
0001
0000
0000
0000
;
#NOTES:
     dance-single:
     Renard:
     Beginner:
     3:
     0.235,0.305,0.088,0.000,0.000:
0000
0000
0000
0000
,
0000
0000
0000
0000
,
0000
0000
0000
0000
,
0000
0000
0000
0000
,
0000
0000
0000
0000
,
0001
1000
0100
1000
,
0001
0100
0001
1000
,
0001
0100
0001
1000
,
0100
1000
0001
0100
,
0001
1000
0100
1000
,
0001
0100
0001
1000
,
0001
0100
0001
1000
,
0100
1000
0001
1000
,
0001
0000
0001
0000
,
0001
0000
0110
1001
,
1000
0000
0000
0000
,
1000
0000
1000
0000
,
1000
0000
0001
0000
,
1000
0000
0110
1001
,
0001
0000
1000
0000
,
0001
0110
1001
0110
,
1001
0000
0001
0000
,
1000
0000
1000
0000
,
0001
0000
0001
0000
,
1000
0000
1000
0000
,
0010
0000
0010
0000
,
0100
0000
0100
0000
,
0010
0000
0010
0000
,
1000
0001
1000
0001
,
0100
0100
0100
0100
,
0100
0100
0010
0010
,
0100
0100
0100
0100
,
0100
0100
0010
0010
,
1000
0000
1000
0001
,
1000
0000
1000
0000
,
0001
0000
0001
1000
,
0001
0000
0001
0000
,
1000
0000
1000
0001
,
1000
0000
1000
0000
,
0001
0000
0001
1000
,
0001
0000
0001
0000
,
0100
0100
0100
0100
,
0010
0000
0010
0000
,
0100
0000
0100
0100
,
0010
1000
0001
1000
,
0001
0000
0001
0001
,
1000
1000
1000
1000
,
0010
0000
0100
0000
,
0001
0100
0010
1000
,
0001
0000
0001
0000
,
1000
0100
0010
0001
,
1000
0000
1000
0000
,
0001
0010
0100
1000
,
0001
0010
0100
1000
,
0100
0010
0001
1000
,
0010
0100
0001
0100
,
0010
1000
0001
0100
,
1001
0000
0000
0000
;
