#TITLE:Sunrise (Jackal Queenston Mix);
#SUBTITLE:;
#ARTIST:MGD-Crew feat. Kitsune?;
#TITLETRANSLIT:;
#SUBTITLETRANSLIT:;
#ARTISTTRANSLIT:;
#CRChallenge:;
#BANNER:sunrise-banner.avi;
#BACKGROUND:sunrise-bg.jpg;
#LYRICSPATH:;
#CDTITLE:!cdtitle.png;
#MUSIC:sunrise.ogg;
#OFFSET:0.000;
#SAMPLESTART:31.242;
#SAMPLELENGTH:12.000;
#SELECTABLE:YES;
#BPMS:0.000=182.231;
#STOPS:;
#BGCHANGES:;
#NOTES:
     dance-single:
     Renard:
     Medium:
     9:
     0.563,0.553,0.247,0.000,0.026:
0000
0000
0000
0000
,
0000
0000
0000
0000
,
0000
0000
0000
0000
,
0000
0000
0000
0000
,
1000
0100
0010
0001
0010
0000
0110
0000
,
0100
1000
0010
0000
0100
0000
0101
0000
,
0001
0010
0100
0000
0010
0000
0110
0000
,
0100
1000
0000
0110
0000
0001
1000
0000
,
1100
0000
1000
0100
0010
0000
0011
0000
,
0010
0100
1000
0010
0100
0000
0110
0000
,
0100
0001
0010
0100
0010
0000
0110
0000
,
0100
1000
0010
1000
0000
0001
0100
0000
,
0001
0100
0010
1000
0010
0000
1010
0000
,
1000
0100
0010
0001
1000
0000
1001
0000
,
0100
0000
0100
0000
0110
0000
0010
1000
,
0001
0100
0000
0100
1000
0100
0010
0000
,
0100
0010
0100
0010
0001
0000
0001
0010
,
0000
0010
1000
0000
0100
0000
0001
0000
,
0100
0010
0100
0010
0001
0000
0001
0010
,
0000
0010
0000
1000
0010
0000
0100
0000
,
1000
0000
0100
0010
0001
0000
1000
0010
,
0000
0100
0000
0001
0100
0000
0110
0000
,
0010
1000
0100
0010
0001
0000
0001
0010
,
0000
0100
0000
1000
0010
0000
0110
0000
,
0010
1000
0100
0010
0001
0000
0010
0100
,
0000
1000
0000
0010
0100
0000
1001
0000
,
1000
0100
0010
0001
1000
0000
0001
0010
,
0000
1001
0000
0010
0100
0000
1001
0000
,
1000
0100
0010
0001
1000
0000
0001
0100
,
0000
0110
0000
0010
1000
0000
1001
0000
,
1000
0100
0010
0001
1000
0000
0001
0100
,
0000
0010
0000
1000
0001
0000
1001
0000
,
0001
0000
0001
0100
0000
0100
1000
0000
,
1000
0100
0000
0100
0010
0000
0100
0000
,
0010
0000
0010
1000
0000
1000
0100
0000
,
0100
0001
0000
0001
0100
0000
0010
0000
,
0001
0000
0001
0100
0000
0100
1000
0000
,
1000
0100
0000
0100
0010
0000
0100
0000
,
0001
0000
0001
0010
0000
0010
1000
0000
,
1000
0010
0000
0010
0100
0000
1000
0000
,
0100
0000
0100
0001
0000
0001
0100
0000
,
0100
1000
0000
1000
0100
0000
1000
0000
,
0010
0000
0010
0001
0000
0001
0010
0000
,
0010
0100
0000
0100
0001
0000
0001
0000
,
0010
0000
0010
1000
0000
1000
0010
0000
,
0010
0001
0000
0001
0010
0000
0100
0000
,
1000
0000
1000
0100
0000
0100
0001
0000
,
0001
0100
0000
0100
1000
0000
0010
0000
,
0100
0000
0100
0010
0000
1000
0001
0100
,
0010
0000
1000
0000
0010
0100
0001
0000
,
0100
0010
1000
0100
0010
0001
0010
0000
,
0100
0000
1000
0000
0010
0100
0001
0000
,
0100
0010
1000
0100
0010
0001
0010
0000
,
0100
0000
1000
0000
0001
0010
0001
0000
,
1000
0010
0100
0001
0010
0100
1000
0000
,
0100
0000
0010
0000
0001
1000
0010
0000
,
0100
0001
0100
0010
1000
0100
0010
0000
,
0001
0000
0011
0000
0010
0100
1000
0000
,
0010
0100
0001
0100
0010
0000
0110
0000
,
0010
0000
1010
0000
1000
0100
0010
0000
,
0001
0010
0100
1000
0010
0000
1010
0000
,
1000
0001
0100
0000
0001
1000
0100
0000
,
1000
0000
1001
0000
0001
0100
0010
0000
,
1000
0000
1010
0000
1000
0100
0010
0000
,
0001
0000
1000
0000
0001
1000
0001
1000
0001
0000
0000
0000
1001
0000
0000
0000
,
0100
0000
0010
1000
0000
0100
0010
0001
,
0010
0100
0000
1000
0000
0010
0100
0000
,
0001
0000
0100
0010
0000
1000
0100
0010
,
0001
0000
0010
0100
0000
1000
0100
0000
,
0010
0000
0010
0001
0000
1000
0010
0100
,
0001
0000
0100
0010
0000
1000
0010
0000
,
1000
0000
0100
0010
0000
0001
0010
0000
,
0100
1000
0100
0010
0001
1000
0010
0000
,
0100
0000
0001
1000
0000
0100
0010
0001
,
0010
0100
0000
0110
0000
0100
1000
0000
,
0010
0000
0100
0001
0000
0100
0010
1000
,
0100
0000
0100
0010
0000
0010
0001
0000
,
0011
0000
0010
0100
0000
1000
0010
0100
,
0001
0000
0100
0010
0000
1000
0100
0010
,
0001
0000
0010
0001
0010
0000
0100
0000
1000
0000
0010
0000
0100
0000
0001
0000
,
1000
0000
0100
0000
0010
0001
0010
0001
0010
0000
0000
0000
1001
0000
0010
0100
,
0010
0000
0000
0000
;
#NOTES:
     dance-single:
     Renard:
     Easy:
     5:
     0.391,0.380,0.026,0.034,0.000:
0000
0000
0000
0000
,
0000
0000
0000
0000
,
0000
0000
0000
0000
,
0000
0000
0000
0000
,
0000
0000
0000
0000
,
0000
0000
0000
0000
,
0000
0000
0000
0000
,
0000
0000
0000
0000
,
1000
0000
0001
0100
0001
0000
0100
0000
,
0010
1000
0100
0010
,
0001
0010
0100
1000
,
0010
0100
0000
0001
0000
0100
0010
0100
,
0010
1000
0010
1000
0010
0000
1000
0000
,
0100
0010
0001
0010
,
0100
1000
0010
0100
,
0001
0100
0000
0110
0000
0010
1000
0000
,
0010
0000
0010
0000
0010
0000
0000
1000
,
0000
1000
0000
0010
1000
0000
0010
0000
,
0100
0000
0100
0000
0100
0000
0000
0001
,
0000
0010
0000
0001
0010
0000
0001
0000
,
1000
0000
1000
0000
1000
0000
0000
0100
,
0000
0010
0000
0001
1000
0000
0001
0000
,
0100
0000
0100
0000
0100
0000
0000
0010
,
0000
1000
0000
0010
0100
0000
0001
0000
,
1000
0000
0100
0000
0010
0000
0000
0001
,
0000
0010
0000
0100
1000
0000
0001
0000
,
0100
0000
0010
0000
1000
0000
0010
0100
,
0000
0001
0000
0100
0010
0000
1000
0000
,
0100
0000
0010
0000
0001
0000
0000
1000
,
0000
0001
0000
0010
0100
0000
0010
0000
,
0100
0000
1000
0000
0010
0000
0100
0001
,
0000
0100
0000
0010
1000
0000
0010
0000
,
1000
0010
1000
0010
,
0100
0001
0000
0100
0001
0000
0100
0000
,
0001
0010
0001
0010
,
0100
1000
0000
0100
1000
0000
0100
0000
,
1000
0010
1000
0010
,
0100
0001
0000
0100
0001
0000
0100
0000
,
0001
0010
0001
0010
,
0100
1000
0000
0100
1000
0000
0100
0000
,
1000
0100
0010
0001
,
1000
0010
1000
0010
,
0100
0001
0100
0001
,
0010
0001
0010
0001
,
1000
0000
1000
0100
0000
0100
1000
0000
,
1000
0100
0000
0100
1000
0000
1000
0000
,
0001
0000
0001
0010
0000
0010
0001
0000
,
0001
0010
0000
0010
0001
0000
0001
0000
,
1000
0000
0000
0000
0000
0001
0100
0000
,
0001
0000
0100
0000
0000
0010
1000
0000
,
0100
0000
0010
0000
0001
1000
0100
0000
,
1000
0000
0001
0000
0000
0010
0001
0000
,
1000
0000
0010
0000
0100
0010
0100
0000
,
0001
0000
0010
0000
0000
0100
1000
0000
,
0001
0000
0100
0000
0001
1000
0001
0000
,
1000
0000
0100
0000
0000
0010
0001
0000
,
1000
0000
0010
0000
0100
0001
0100
0000
,
0010
0000
1000
0000
0000
0100
0010
0000
,
0001
0000
0010
0000
0100
1000
0100
0000
,
1000
0000
0001
0000
0000
0010
0001
0000
,
1000
0000
0010
0000
0100
0001
0100
0000
,
0001
0000
1000
0000
0000
0100
1000
0000
,
0001
0000
0010
0000
0001
1000
0001
0000
,
0010
0000
0100
0000
0000
1000
0010
0000
,
0100
0000
0001
0000
1000
0100
1000
0000
,
1001
0100
0000
0100
,
0010
1000
0100
0010
,
0001
0010
0000
0010
,
0100
1000
0010
0100
,
0001
1000
0000
1000
,
0001
0010
0100
1000
,
0010
0100
0000
0100
,
0001
0000
0010
0000
0001
1000
0001
0000
,
1000
0000
0100
0000
0010
0000
0001
1000
,
0001
0010
0200
0000
,
1300
0000
0010
0000
0100
0000
0001
0010
,
0001
1000
0200
0000
,
1300
0000
0001
0000
0010
0000
0001
1000
,
0020
0000
0230
0000
,
0301
0100
0001
0000
0100
0000
0010
0000
,
1000
0010
1000
0000
0100
0000
0010
0000
,
1001
0000
0000
0000
;
#NOTES:
     dance-single:
     Renard:
     Beginner:
     3:
     0.268,0.311,0.017,0.196,0.000:
0000
0000
0000
0000
,
0000
0000
0000
0000
,
0000
0000
0000
0000
,
0000
0000
0000
0000
,
0000
0000
0000
0000
,
0000
0000
0000
0000
,
0000
0000
0000
0000
,
0000
0000
0000
0000
,
1000
0001
0100
0010
,
0000
0010
0000
0100
,
0000
0100
0000
0010
,
0000
1000
0000
0001
0000
0000
1000
0000
,
0001
0100
0001
0000
,
1000
0100
0000
0010
,
0000
0001
0000
1000
,
0000
0001
0000
0100
0000
0000
0001
0000
,
2000
0000
0000
0000
,
3200
0000
0000
0000
,
0320
0000
0000
0000
,
0032
0000
0000
0000
,
2003
0000
0000
0000
,
3020
0000
0000
0000
,
0230
0000
0000
0000
,
0302
0000
0000
0000
,
1003
1000
1000
1000
,
0100
0010
0001
1000
,
0001
0001
0001
0001
,
0010
0100
1000
0001
,
1000
1000
1000
1000
,
0010
0100
0001
1000
,
0001
0001
0001
0001
,
0100
0010
1000
0001
,
1000
0100
0000
0100
,
0010
0001
0000
0001
,
0100
0010
0000
0010
,
1000
0100
0000
0100
,
0010
0001
0000
0001
,
1000
0010
0000
0010
,
0100
0001
0000
0001
,
1000
0100
0000
0100
,
0010
0001
0010
0001
,
1000
0010
1000
0000
,
0001
0100
0001
0100
,
0001
0010
0001
0000
,
0100
1000
0100
1000
,
0001
0010
0001
0000
,
1000
0010
1000
0000
,
0001
0100
0001
0000
,
0010
0010
0010
0010
,
0001
1000
0001
1000
,
0010
0000
0010
0000
,
1000
0001
1000
0001
,
0010
0000
0010
0000
,
0001
1000
0001
1000
,
0100
0000
0100
0000
,
1000
0001
1000
0001
,
0100
0000
0100
0000
,
0001
0000
0001
0000
,
0020
0000
0000
0000
,
0130
0000
0100
0000
,
2000
0000
0000
0000
,
3010
0000
0010
0000
,
0200
0000
0000
0300
,
0001
0000
0001
0000
,
1000
0100
0010
0001
,
0010
0010
0010
0010
,
0001
0000
0001
0000
,
0010
0010
0010
0010
,
0001
0000
0001
0000
,
1000
1000
1000
1000
,
0100
0000
0100
0000
,
1000
1000
0100
0000
,
1000
1000
0100
0000
,
2000
0000
3002
0000
,
0203
0000
0000
0000
,
0320
0000
2030
0000
,
3002
0000
0000
0000
,
0023
0000
0230
0000
,
2300
0000
0000
0000
,
3020
0000
0230
0000
,
0302
0000
1003
1100
,
1001
0000
0000
0000
;
#NOTES:
     dance-single:
     Renard:
     Hard:
     11:
     0.800,0.898,0.563,0.000,0.422:
0000
0000
0000
0000
,
0000
0000
0000
0000
,
0000
0000
0000
0000
,
0000
0000
0000
0000
,
0000
0000
0000
0000
,
0000
0000
0000
0000
,
0000
0000
0000
0000
,
0000
0000
0000
0000
,
1000
0000
0100
0000
0011
0000
0100
1000
0000
0000
1000
0000
0011
0000
0000
1000
,
1000
0000
0010
0000
0101
0000
0000
1000
0000
1000
0000
0000
0101
0000
0000
0000
,
1000
0000
0100
0000
0011
0000
0100
1000
0000
0000
1000
0000
0011
0000
0000
1000
,
0001
0000
1000
0010
1000
0010
1000
0000
0001
0100
0001
1000
0100
0000
0010
0000
,
0001
0000
0010
0000
1100
0000
0010
0001
0000
0000
0001
0000
1100
0000
0000
0001
,
0001
0000
0100
0000
1010
0000
0000
0001
0000
0001
0000
0000
1010
0000
0000
0000
,
1001
0000
0000
0000
1001
0000
0000
0000
0110
0000
0000
0010
1000
0000
0001
0100
,
0001
0000
1000
0000
0100
1000
0100
0000
0010
0000
0001
0010
0100
1000
0000
0000
,
M001
M001
0M01
0M01
00M1
0000
M001
0M01
,
0000
00M1
0M01
0000
MM01
0000
0MM1
0000
,
100M
100M
10M0
10M0
1M00
0000
10M0
100M
,
0000
1M00
0000
100M
10M0
0000
10MM
0000
,
M001
M001
0M01
0M01
00M1
0000
0M01
M001
,
0000
00M1
0000
0M01
M001
0000
MM01
0000
,
1M00
1M00
10M0
10M0
100M
0000
1M00
10M0
,
0000
100M
0000
10M0
1M00
0000
1111
0000
,
1000
0000
0100
0000
1100
0000
0100
1000
0000
0000
0100
0000
1100
0000
0000
0001
,
0010
0000
0001
0000
0011
0000
0010
0001
0000
0010
0001
0000
0011
0000
0010
0000
,
0100
0000
1000
0000
1100
0000
1000
0100
0000
0000
1000
0000
1100
0000
0000
0010
,
0001
0000
0010
0000
0011
0000
0001
0010
0000
0001
0010
0000
0011
0000
0001
0000
,
0100
0000
0001
0000
0101
0000
0001
0100
0000
0000
0001
0000
0101
0000
0000
0010
,
1000
0000
0010
0000
1010
0000
1000
0010
0000
1000
0010
0000
1010
0000
1000
0000
,
0001
0000
0100
0000
0101
0000
0100
0001
0000
0000
0100
0000
0101
0000
0000
1000
,
0010
0000
1000
0000
1010
0000
0010
1000
0000
0010
1000
0000
1010
0000
0000
0000
,
1000
0000
1000
0100
0000
0100
0010
0000
,
0010
0001
0000
0001
1000
0100
0010
0001
,
1000
0000
1000
0100
0000
0100
0010
0000
,
0010
0001
0000
0001
1000
0100
0010
0001
,
1000
0000
1000
0010
0000
0010
0100
0000
,
0100
0001
0000
0001
1000
0010
0100
0001
,
1000
0010
0100
0001
0000
1000
0010
0100
,
0001
1000
0000
0010
0100
0001
1000
0000
,
0011
0000
0001
0101
0000
0001
1001
0000
,
0001
0101
0000
0001
0011
0000
1001
0000
,
1010
0000
1000
1001
0000
1000
1100
0000
,
1000
1010
0000
1000
1001
0000
1100
0000
,
1001
0000
0001
0101
0000
0001
0011
0000
,
0001
1001
0000
0001
0101
0000
1001
0000
,
1010
0000
1000
1001
0000
1000
1100
0000
,
1001
0001
0000
0101
0001
0000
0011
0000
,
1001
0000
0110
1001
0000
0110
1001
0110
,
0010
0000
1000
0010
1000
0000
0001
0100
0001
0000
1000
0100
1000
0000
0001
0010
,
0001
0000
1000
0100
1000
0000
0001
0100
0001
0000
1000
0000
0010
0000
1000
0000
,
0100
0000
0010
0001
0010
0000
0100
1000
0100
0000
1000
0001
0100
0000
0001
1000
,
0001
1000
0010
0100
0001
1000
0100
0010
,
0001
0000
1000
0100
1000
0000
0001
0010
0001
0000
1000
0010
1000
0000
0001
0100
,
0001
1000
0100
0010
0001
1000
0010
0100
,
0001
0100
0001
0000
1000
0010
1000
0000
0001
0010
0001
0000
1000
0100
1000
0000
,
0011
0000
0001
1000
0100
0000
1000
0000
0011
0000
0100
1000
0100
0010
0001
0000
,
0100
0000
0001
0100
0001
0000
1000
0010
1000
0000
0001
0010
0001
0000
1000
0100
,
1000
0000
0001
0010
0001
0000
1000
0010
1000
0000
0001
0000
0100
0000
0001
0000
,
0010
0000
0100
1000
0100
0000
0010
0001
0010
0000
0001
1000
0010
0000
1000
0001
,
1000
0001
0100
0010
1000
0001
0010
0100
,
1000
0000
0001
0010
0001
0000
1000
0100
1000
0000
0001
0100
0001
0000
1000
0010
,
1000
0001
0010
0100
1000
0001
0100
0010
,
1000
0010
1000
0000
0001
0100
0001
0000
1000
0100
1000
0000
0001
0010
0001
0000
,
1000
0100
0010
0001
0010
0100
1000
0001
0010
0000
0000
0000
1001
0000
0000
0000
,
0001
0001
0100
0001
0100
0100
0001
0100
,
0001
0001
0100
0100
0001
0100
0001
0100
,
0010
0010
1000
0010
0010
1000
1000
0010
,
1000
0010
0010
1000
0010
1000
1000
0010
,
1000
1000
0100
1000
0100
0100
1000
0100
,
1000
1000
0100
0100
1000
0100
1000
0100
,
0010
0010
0001
0010
0010
0001
0001
0010
,
0001
0010
0010
0001
0010
0001
1001
0000
,
0001
1000
0001
0000
0100
0000
0001
0000
0100
0010
0100
0000
0001
0000
0100
0000
,
0001
0010
0001
0000
0100
0001
0100
0000
0001
0000
0100
0000
0001
0000
0100
0000
,
0010
1000
0010
0000
1000
0000
0010
0100
0010
0000
1000
0001
1000
0000
0010
0000
,
1000
0000
0010
0100
0010
0000
1000
0000
0010
0000
1000
0001
1000
0000
0010
0000
,
1000
0010
1000
0000
0100
0000
1000
0000
0100
0010
0100
0000
1000
0000
0100
0000
,
1000
0001
1000
0000
0100
0010
0100
0000
1000
0000
0100
0000
1000
0000
0100
0000
,
0010
0001
0010
0000
0001
0000
0010
0100
0010
0000
0001
1000
0001
0000
0010
0000
,
0001
0010
0100
1000
0100
0010
0001
0010
0100
0000
0000
0000
1001
0000
0001
1000
,
1001
0000
0000
0000
;
