#TITLE:Stratosphere;
#SUBTITLE:;
#ARTIST:Stratovarius;
#TITLETRANSLIT:;
#SUBTITLETRANSLIT:;
#ARTISTTRANSLIT:;
#CRChallenge:;
#BANNER:;
#BACKGROUND:;
#LYRICSPATH:;
#CDTITLE:;
#MUSIC:stratosphere.ogg;
#OFFSET:0.000;
#SAMPLESTART:6.737;
#SAMPLELENGTH:12.000;
#SELECTABLE:YES;
#BPMS:0.000=175.000,244.000=87.500,260.000=175.000;
#STOPS:;
#BGCHANGES:;
#NOTES:
     dance-single:
     Renard:
     Challenge:
     14:
     1.000,1.000,0.082,0.196,1.000:
0000
0000
0000
0000
,
0000
0000
0000
0000
,
0000
0000
0000
0000
,
0000
0000
0000
0000
,
0000
0000
0000
0000
,
0001
0010
0100
1000
0001
0010
0100
1000
0001
0010
0100
1000
0001
0010
0100
1000
,
0001
0010
0001
0010
0001
0100
0001
0100
0010
1000
0010
1000
0100
1000
0100
1000
,
0001
0100
0010
1000
0001
0100
0010
1000
0001
0100
0010
1000
0001
0100
0010
1000
,
0001
1000
0001
1000
0001
0100
0001
0100
0010
1000
0010
1000
0001
1000
0001
1000
,
0001
0010
0100
1000
0001
0010
0100
1000
0001
0010
0100
1000
0001
0010
0100
1000
,
0001
0010
0001
0010
0001
0100
0001
0100
0010
1000
0010
1000
0100
1000
0100
1000
,
0001
0100
0010
1000
0001
0100
0010
1000
0001
0100
0010
1000
0001
0100
0010
1000
,
0001
1000
0001
1000
0001
0100
0001
0100
0010
1000
0001
0100
0010
1000
0001
0100
,
0001
0010
0001
0010
0001
0100
0001
0100
0010
1000
0010
1000
0100
1000
0100
1000
,
0001
0010
0100
1000
0100
0010
0001
1000
0100
0010
0001
0010
0100
1000
0001
1000
,
0010
1000
0010
1000
0001
1000
0001
1000
0010
0100
0010
0100
0001
0100
0001
0100
,
0010
1000
0001
0100
0010
1000
0100
0010
0001
0010
0100
1000
0001
0100
0010
1000
,
0001
0010
0001
0010
0001
0100
0001
0100
0010
1000
0010
1000
0100
1000
0100
1000
,
0001
0010
0100
1000
0100
0010
0001
1000
0100
0010
0001
0010
0100
1000
0001
1000
,
0010
1000
0010
1000
0001
1000
0001
1000
0010
0100
0010
0100
0001
0100
0001
0100
,
0010
1000
0001
0100
0010
1000
0100
0010
0001
0010
0100
1000
0001
0100
0010
1000
,
0001
0100
0010
1000
0001
0010
0001
0100
0001
1000
0001
0100
0001
0010
0001
0000
,
1000
0100
0010
0001
1000
0100
1000
0010
1000
0001
1000
0010
1000
0100
1000
0000
,
0001
0010
0100
1000
0001
0010
0001
1000
0001
0100
0001
1000
0001
0010
0001
0000
,
1000
0010
0100
0001
1000
0100
1000
0001
1000
0010
1000
0100
1000
0010
1000
0000
,
0001
0100
0010
1000
0001
0010
0001
0100
0001
1000
0001
0100
0001
0010
0001
0000
,
1000
0100
0010
0001
1000
0100
1000
0010
1000
0001
1000
0010
1000
0100
1000
0000
,
0001
0010
0100
1000
0001
0010
0001
1000
0001
0100
0001
1000
0001
0010
0001
0100
,
0001
0010
0100
1000
0001
0010
0001
1000
0001
0100
0001
1000
0001
0000
0000
0000
,
1000
0010
0100
0001
1000
0100
1000
0010
1000
0001
1000
0010
1000
0100
1000
0000
,
0001
0010
0100
1000
0001
0010
0001
0100
0001
1000
0001
0100
0001
0010
0001
0000
,
1000
0100
0010
0001
1000
0100
1000
0001
1000
0010
1000
0001
1000
0100
1000
0000
,
0001
0100
0010
1000
0001
0010
0001
1000
0001
0100
0001
0010
0001
0100
0001
0000
,
1000
0010
0100
0001
1000
0100
1000
0010
1000
0001
1000
0010
1000
0100
1000
0000
,
0001
0010
0100
1000
0001
0010
0001
0100
0001
1000
0001
0100
0001
0010
0001
0000
,
1000
0100
0010
0001
1000
0100
1000
0001
1000
0010
1000
0001
1000
0100
1000
0010
,
1000
0100
0010
0001
1000
0100
1000
0001
1000
0010
1000
0001
1000
0000
0000
0000
,
1000
0100
0010
0001
1000
0010
0100
0001
1000
0100
0010
0001
1000
0010
0100
0001
,
1000
0100
0010
0001
1000
0010
0100
0001
1000
0100
1000
0100
0010
0001
0010
0001
,
1000
0010
0100
0001
1000
0100
0010
0001
1000
0010
0100
0001
1000
0100
0010
0001
,
1000
0010
0100
0001
1000
0100
0010
0001
1000
0010
0100
0001
0010
0100
1000
0000
,
0001
0010
0100
1000
0001
0100
0010
1000
0001
0010
0100
1000
0001
0100
0010
1000
,
0001
0010
0100
1000
0001
0100
0010
1000
0001
0010
0001
0010
0100
1000
0100
1000
,
0001
0100
0010
1000
0001
0010
0100
1000
0001
0100
0010
1000
0001
0010
0100
1000
,
0001
0100
0010
1000
0001
0010
0100
1000
0001
0000
0000
0000
1000
0000
0000
0000
,
0001
0100
0001
0100
0010
0100
0010
0100
0010
1000
0010
1000
0100
1000
0100
1000
,
0001
0010
0001
0010
0100
1000
0100
1000
0100
0010
0001
1000
0100
0010
0001
0010
,
0100
1000
0100
1000
0010
1000
0010
1000
0001
0100
0001
0100
0001
0010
0001
0010
,
0100
1000
0100
0010
0001
0010
0100
1000
0001
0100
0010
1000
0001
1000
0010
0100
,
0001
0100
0001
0100
0010
0100
0010
0100
0010
1000
0010
1000
0100
1000
0100
1000
,
0001
0010
0001
0010
0100
1000
0100
1000
0100
0010
0001
1000
0100
0010
0001
0010
,
0100
1000
0100
1000
0010
1000
0010
1000
0001
0100
0001
0100
0001
0010
0001
0010
,
0100
1000
0100
0010
0001
0010
0100
1000
0001
0100
0010
1000
0001
1000
0010
0100
,
0001
0100
0001
0100
0010
0100
0010
0100
0001
0100
0001
0100
0010
0100
0010
0100
,
0001
0100
0010
0100
0001
0100
0010
0100
0001
0100
0010
0100
0001
0100
0010
0100
,
0001
0010
0001
0010
0001
0100
0001
0100
0001
0010
0001
0010
0001
0100
0001
0100
,
0010
1000
0100
1000
0010
1000
0100
1000
0010
1000
0100
1000
0010
1000
0100
1000
,
0001
0100
0001
0100
0010
0100
0010
0100
0001
0100
0001
0100
0010
0100
0010
0100
,
0001
0100
0010
0100
0001
0100
0010
0100
0001
0100
0010
0100
0001
0100
0010
0100
,
0001
0010
0001
0010
0001
0100
0001
0100
0001
0010
0001
0010
0001
0100
0001
0100
,
0010
1000
0100
1000
0010
1000
0100
1000
0010
1000
0100
1000
0010
1000
0100
1000
,
0001
0010
0001
0010
0100
1000
0100
1000
0001
0010
0001
0010
0100
1000
0100
1000
0001
0010
0100
1000
0100
0010
0001
1000
0100
0010
0001
0010
0100
1000
0001
0010
,
0100
1000
0100
1000
0001
0010
0001
0010
0100
1000
0100
1000
0001
0010
0001
0010
0100
1000
0100
0010
0001
1000
0100
0010
0001
0010
0100
1000
0001
0010
0100
1000
,
0001
0010
0001
0010
0100
1000
0100
1000
0001
0010
0001
0010
0100
1000
0100
1000
0001
0010
0100
1000
0100
0010
0001
1000
0100
0010
0001
0010
0100
1000
0100
0010
,
0001
0010
0001
0010
0100
1000
0100
1000
0001
0010
0001
0010
0100
1000
0100
1000
0100
0010
0001
1000
0100
0010
0001
0010
0100
1000
0001
0010
0100
1000
0100
0010
,
0001
0010
0001
0010
0001
0100
0001
0100
0010
0100
0010
0100
0010
1000
0010
1000
,
0010
0100
0001
1000
0100
0010
0001
0010
0100
1000
0001
0100
0010
1000
0100
0010
,
0001
0010
0001
0010
0100
1000
0100
1000
0001
1000
0001
1000
0010
0100
0010
0100
,
0010
1000
0001
0100
0010
1000
0100
0010
0001
0010
0100
1000
0001
0100
0010
1000
,
0001
0010
0001
0010
0001
0100
0001
0100
0010
0100
0010
0100
0010
1000
0010
1000
,
0010
0100
0001
1000
0100
0010
0001
0010
0100
1000
0001
0100
0010
1000
0100
0010
,
0001
0010
0001
0010
0100
1000
0100
1000
0001
1000
0001
1000
0010
0100
0010
0100
,
0010
1000
0001
0100
0010
1000
0100
0010
0001
0010
0100
1000
0001
0100
0010
1000
,
0001
0010
0100
1000
0100
0010
0001
0100
0010
1000
0100
0010
0001
1000
0010
0100
,
0001
0100
0010
1000
0100
0010
0100
1000
0001
0010
0100
0010
0001
1000
0010
0100
,
0020
0000
0000
0000
0000
0030
0000
0000
0020
0000
0000
0000
0000
0000
0030
0000
0200
0000
0000
0000
0000
0300
0000
0000
0200
0000
0000
0000
0000
0000
0300
0000
,
0000
0020
0000
0000
0000
0000
0030
0000
0000
0020
0000
0000
0000
0000
0000
0030
0000
2000
0000
0000
0000
0000
3000
0000
0000
0000
2000
0000
0000
0000
0000
3000
,
0000
0000
2002
0000
0000
0000
0000
0000
3003
0000
0000
2002
0000
0000
0000
0000
0000
0000
0000
3003
0000
0000
0220
0000
0000
0000
0000
0000
0000
0330
0000
0000
,
0000
0220
0000
0000
0000
0000
0000
0000
0000
0330
0000
0000
0000
2020
0000
0000
0000
0000
0000
0000
3030
0000
0000
0000
0202
0000
0000
0000
0000
0000
0000
0000
,
0303
0022
0000
0033
2200
0000
0000
0000
,
0000
0000
0000
0000
,
0000
0000
0000
3300
,
1000
0100
1000
0100
1000
0100
1000
0100
1000
0100
1000
0100
0010
0001
0010
0001
0010
0001
0010
0001
0010
0001
0010
0001
,
0010
0100
1000
0001
0000
0000
1001
0000
0000
0000
0000
0000
0110
0000
0000
0000
0000
0000
0000
0000
0000
0000
0000
0000
;
