#TITLE:Still Alive;
#SUBTITLE:;
#ARTIST:Jonathan Coultan feat Ellen McLain;
#TITLETRANSLIT:;
#SUBTITLETRANSLIT:;
#ARTISTTRANSLIT:;
#CRChallenge:;
#BANNER:alive.png;
#BACKGROUND:alive-bg.png;
#LYRICSPATH:;
#CDTITLE:!cdtitle.png;
#MUSIC:alive.ogg;
#OFFSET:0.000;
#SAMPLESTART:83.480;
#SAMPLELENGTH:12.000;
#SELECTABLE:YES;
#BPMS:0.000=120.000;
#STOPS:;
#BGCHANGES:;
#NOTES:
     dance-single:
     Renard:
     Medium:
     7:
     0.378,0.468,0.198,0.009,0.004:
0000
0000
0000
0000
,
0000
0000
0000
0000
,
0000
0000
0000
0000
,
0000
0000
0000
0000
,
0000
0000
0000
0000
,
0000
0000
0000
0000
,
0000
0000
0000
0000
,
0000
0000
0000
0000
,
0000
0000
0000
0000
0001
0010
0100
1000
,
0010
0000
0000
0000
,
0000
0000
0000
0100
0001
0010
0100
1000
,
0000
0000
0010
0100
0000
0000
0001
0010
,
0000
0000
0000
0000
,
0100
0000
1000
0010
0000
0000
0100
0001
,
0000
0000
0010
0100
0000
1000
0100
0010
,
0001
1000
0100
0010
0000
0000
0001
0010
,
0100
0000
0100
0000
1000
0010
0100
0001
,
0010
0010
0001
0000
0011
0000
0001
0001
,
0010
0000
0010
0000
0100
0100
1000
0010
,
0100
0100
0001
0000
0101
0000
0001
0001
,
1000
0000
0100
0100
0010
0000
0001
0001
,
1000
0010
0100
0000
0001
0000
0100
0010
,
1000
0100
0010
0001
0000
0010
0100
1000
,
1100
0000
1000
0100
0110
0000
0010
0001
,
0011
0000
0001
0100
0101
0000
0100
0010
,
0110
0000
0010
1000
1010
0000
1000
0100
,
1100
0000
0100
0010
0001
0100
0010
1000
,
0000
0100
0000
0000
0010
0000
0001
0000
0010
0000
0000
0000
0100
0000
1000
0000
,
0010
0000
0100
0001
0100
0010
1000
0100
,
0000
0000
0010
0001
0000
0010
0000
0100
,
0000
1000
0010
0100
0001
0000
0100
0010
,
1000
0000
0010
0100
0000
0000
0001
0010
,
0100
0000
1000
0010
0000
0100
0001
0100
,
0000
0010
0000
0000
1000
0100
1000
0000
,
0001
1000
0001
0000
0100
0001
0100
0010
,
1000
0000
0010
0100
0001
0000
0100
0010
,
1000
0000
0100
0010
0001
1000
0100
0010
,
0000
0000
0001
0010
0000
0000
0100
1000
,
0010
0000
0100
0001
0100
0000
0010
1000
,
0010
0000
1000
0100
0000
0000
0010
0001
,
0010
0000
0100
1000
0000
0010
0100
0001
,
0100
0010
1000
0100
0010
0000
0001
1000
,
1001
0000
0010
0100
0110
0000
0010
1000
,
1100
0100
0110
0000
0011
0000
0001
0010
,
0011
0000
0010
0100
0110
0000
0100
1000
,
1010
0010
0110
0000
0101
0000
0001
0100
,
0110
0000
0001
0100
0110
0000
1000
0010
,
0110
0000
1000
0010
0110
0000
0010
1000
,
0100
0001
0100
0001
0100
1000
0100
1000
,
0010
0000
0100
0001
0010
0000
1000
0010
,
0100
1000
0010
0100
0001
0100
0010
1000
,
0010
0000
0100
0001
1000
0000
0001
1000
,
0100
0010
0001
0010
0000
1000
0010
0100
,
1000
0000
0001
0100
0010
1000
0001
0100
,
0010
1000
0100
0010
0000
0001
0010
0100
,
0001
0000
0100
1000
0010
0100
1000
0100
,
0010
0000
1000
0100
0001
0100
0010
0002
,
0000
0003
0000
0000
0000
0000
0000
0000
;
#NOTES:
     dance-single:
     Renard:
     Easy:
     4:
     0.239,0.296,0.000,0.009,0.000:
0000
0000
0000
0000
,
0000
0000
0000
0000
,
0000
0000
0000
0000
,
0000
0000
0000
0000
,
0000
0000
0000
0000
,
0000
0000
0000
0000
,
0000
0000
0000
0000
,
0000
0000
0000
0000
,
0000
0000
0000
0000
0001
0000
1000
0010
,
0100
0100
0010
0010
,
0100
0000
0100
0000
0001
0000
1000
0001
,
0000
0000
1000
0100
0000
0000
0010
0001
,
0000
0000
0000
0000
,
1000
0000
0010
1000
0000
0000
0001
0000
,
0100
0000
0001
1000
0000
0000
0100
0000
,
1000
0000
0100
1000
0000
0000
0001
0000
,
0100
0100
0010
1000
,
0001
1000
0001
0000
1000
0000
0001
0000
,
0010
0010
0100
0100
,
1000
0001
1000
0000
0001
0000
0100
0000
,
0010
0010
0100
0100
,
0001
0001
1000
0001
,
1000
0100
1000
0100
0000
0010
0001
0010
,
0001
0000
0000
1000
0010
0000
0000
0100
,
0001
0000
0000
1000
0100
0000
0000
0010
,
0001
0000
0000
1000
0001
0000
0000
0100
,
0010
0000
0000
0000
1000
0010
1000
0010
,
0000
1000
0001
0100
,
0000
0001
1000
0100
,
0010
0000
0001
1000
0001
0000
0100
0010
,
0100
0000
0010
0000
,
1000
1000
0001
0000
,
0100
0100
0010
0000
,
1000
0000
1000
0000
0010
1000
0010
0000
,
0100
0000
0100
0000
0001
1000
0001
1000
,
0000
0001
0000
1000
,
0000
0000
0100
0000
0010
0001
0010
0001
,
0000
0000
1000
0100
0000
0000
0010
0001
,
0000
1000
0000
0001
,
0100
0000
0100
0010
0000
0000
1000
0000
,
0010
0000
0010
0100
0000
0000
0001
0000
,
1000
0100
0010
0001
0000
0000
1000
0000
,
0001
0001
0100
0100
,
0010
1000
0010
0000
0010
0000
0100
0000
,
0001
0001
1000
0100
,
0010
0001
0010
0000
0001
0000
1000
0000
,
0010
0010
0100
0100
,
0001
0001
1000
0001
,
0010
0000
0010
0000
0001
0000
1000
0001
,
1000
0000
0010
0000
,
0100
0000
0000
0000
0001
0000
1000
0100
,
1000
0000
0001
0000
,
0100
0000
0000
0000
0010
0000
1000
0010
,
1000
0000
0001
0000
,
0100
0000
0000
0000
0001
0000
1000
0100
,
1000
0000
0000
0000
0001
0000
0010
0001
,
0010
0000
0000
0000
0001
1000
0100
0020
,
0000
0030
0000
0000
0000
0000
0000
0000
;
#NOTES:
     dance-single:
     Renard:
     Beginner:
     2:
     0.153,0.197,0.000,0.000,0.000:
0000
0000
0000
0000
,
0000
0000
0000
0000
,
0000
0000
0000
0000
,
0000
0000
0000
0000
,
0000
0000
0000
0000
,
0000
0000
0000
0000
,
0000
0000
0000
0000
,
0000
0000
0000
0000
,
0000
0000
0000
0000
,
0001
0000
0001
0000
,
1000
0000
1000
0000
,
0010
0000
0010
0000
,
0100
0000
0100
0000
,
0001
0000
0001
0000
,
1000
0000
0100
0000
,
0010
0001
1000
0000
,
0001
0000
0001
0000
,
0100
0010
0100
0000
,
0010
0000
1000
0000
,
0100
0010
0100
0000
,
0010
0000
0001
0000
,
1000
0010
1000
0000
,
0001
0000
0100
0000
,
0001
1000
0001
0000
,
1000
0000
0100
0000
,
1000
0000
0001
0000
,
0100
0000
0010
1000
,
0010
0000
1000
0000
,
0001
0000
0100
0000
,
0001
0000
1000
0100
,
1000
0000
0001
0000
,
0100
0100
0010
0000
,
1000
1000
0001
0000
,
0010
0000
0100
0000
,
1000
0100
1000
0000
,
1000
0000
0001
0000
,
0010
0000
0001
0001
,
1000
0000
0010
0000
,
1000
0000
0001
0000
,
0100
0001
0100
0000
,
0001
0000
1000
0000
,
0100
1000
0001
0000
,
1000
1000
0001
0001
,
0100
0100
0010
0000
,
1000
1000
0010
0010
,
0100
0100
0001
0000
,
1000
0000
0100
0000
,
0010
0010
0001
0000
,
1000
1000
0010
0010
,
0100
0000
0001
0000
,
1000
1000
0100
0000
,
0010
0000
0001
0000
,
1000
1000
0010
0000
,
0100
0000
0001
0000
,
0010
0010
0100
0000
,
1000
0000
0010
0010
,
0100
0000
0001
1000
,
0100
0000
0000
0000
;
