#TITLE:Step on Stage;
#SUBTITLE:;
#ARTIST:Jaql;
#TITLETRANSLIT:;
#SUBTITLETRANSLIT:;
#ARTISTTRANSLIT:;
#CRChallenge:;
#BANNER:;
#BACKGROUND:;
#LYRICSPATH:;
#CDTITLE:;
#MUSIC:stage.ogg;
#OFFSET:0.000;
#SAMPLESTART:39.624;
#SAMPLELENGTH:12.000;
#SELECTABLE:YES;
#BPMS:0.000=72.500;
#STOPS:;
#BGCHANGES:;
#NOTES:
     dance-single:
     Renard:
     Challenge:
     11:
     0.894,0.889,0.452,0.000,1.000:
0000
0000
0000
0000
,
0000
0000
0000
0000
,
0000
0000
0000
0000
,
0000
0000
0000
0000
0000
0000
0000
0000
0000
0000
0000
0000
0000
0000
0000
0000
0000
0000
0000
0000
0000
0000
0000
0000
0000
0000
0000
0000
0000
0001
1000
0100
,
1000
0001
1000
0010
1000
0001
0100
0001
0010
0000
0100
0000
1000
0001
1000
0001
0100
0001
1000
0100
0010
0100
0010
0001
1000
0000
0010
0000
0100
0001
1000
0001
,
1000
0000
0100
0000
0010
0000
0000
0000
0001
0000
0010
0000
0100
0000
1000
0000
0001
0000
0100
0000
0001
0000
0000
0000
1000
0000
0100
0000
0010
0000
0001
0000
1000
0000
0010
0000
0100
0000
0000
0000
0001
0000
0000
0000
0100
0000
0010
0000
0000
0000
1000
0000
0010
0000
0000
0000
0100
0000
0001
0000
0000
0000
1000
0001
,
1000
0000
0001
1000
0100
0010
0001
0000
1000
0010
0100
0001
1000
0100
0000
0000
0010
0001
0000
1000
0100
0010
0100
0010
0001
1000
0001
0100
0001
0100
0010
0100
,
0010
0000
0000
0000
0000
0000
0000
0000
0000
0000
0000
0000
1000
0000
0000
0000
0000
0000
0010
0000
0000
0000
0000
0000
0100
0000
0000
0000
0000
0000
0001
0000
0000
0000
0000
0000
0000
0000
0000
0000
0000
0000
1000
0000
0000
0000
0000
0000
0100
0000
0000
0000
0000
0000
0000
0000
0010
0000
0000
0000
0000
0000
0000
0000
0001
0000
0000
0000
0000
0000
0000
0000
0010
0000
0000
0000
0000
0000
0000
0000
0100
0000
0000
0000
0000
0000
0000
0000
1000
0000
0000
0000
0000
0000
0000
0000
0001
0000
0000
0000
0000
0000
0100
0000
0000
0000
0000
0000
0000
0000
0000
0000
0000
0000
0001
0000
0000
0000
0000
0000
0000
0000
0000
0000
0000
0000
1000
0000
0000
0100
0000
0000
1000
0000
0000
0000
0000
0000
0001
0000
0000
0000
0000
0000
0000
0000
0000
0000
0000
0000
0100
0000
0000
0000
0000
0000
0001
0000
0000
0000
0000
0000
1000
0000
0000
0000
0000
0000
0100
0000
0000
0000
0000
0000
0010
0000
0000
0000
0000
0000
0001
0000
0000
0000
0000
0000
1000
0000
0000
0000
0000
0000
,
0001
0000
0000
0000
0000
0000
0000
0000
0000
0000
0000
0000
0000
0000
0000
0000
0000
0000
0100
0000
0000
0000
0000
0000
0010
0000
0000
0000
0000
0000
0000
0000
1000
0000
0000
0000
0000
0000
0000
0000
0010
0000
0000
0000
0000
0000
0000
0000
0100
0000
0000
0000
0000
0000
0000
0000
0001
0000
0000
0000
0000
0000
0000
0000
0100
0000
0000
0000
0000
0000
0000
0000
0010
0000
0000
0000
0000
0000
0000
0000
1000
0000
0000
0000
0000
0000
0000
0000
0000
0000
0000
0000
0000
0000
0000
0000
0010
0000
0000
0000
0000
0000
1000
0000
0000
0000
0000
0000
0001
0000
0000
0000
0000
0000
0010
0000
0000
0000
0000
0000
0100
0000
0000
0000
0000
0000
0010
0000
0000
0000
0000
0000
0001
0000
0000
0000
0000
0000
1000
0000
0000
0000
0000
0000
0010
0000
0000
0000
0000
0000
0100
0000
0000
0000
0000
0000
0001
0000
0000
0000
0000
0000
0010
0000
0000
0000
0000
0000
0100
0000
0000
0000
0000
0000
1000
0000
0000
0000
0000
0000
0001
0000
0000
0000
0000
0000
0000
0000
0000
0000
0000
0000
,
1000
0001
0010
0100
0000
0100
0010
0001
1000
0010
0100
0001
1000
0000
0100
0000
0010
0001
0010
0100
1000
0001
0000
0000
0100
0000
0001
1000
0100
0000
1100
0000
,
0001
0000
0000
0000
0000
0000
0100
0000
0000
0000
0000
0000
0001
0000
0000
0000
0000
0000
1000
0000
0000
0000
0000
0000
0100
0000
0000
0000
0000
0000
0010
0000
0000
0000
0000
0000
0001
0000
0000
0000
0000
0000
1000
0000
0000
0000
0000
0000
0001
0000
0000
0000
0000
0000
0000
0000
1000
0000
0000
0000
0000
0000
0000
0000
0010
0000
0000
0000
0000
0000
0000
0000
0100
0000
0000
0000
0000
0000
0000
0000
0001
0000
0000
0000
0000
0000
0000
0000
0000
0000
0000
0000
0000
0000
0000
0000
0010
0000
0000
0000
0000
0000
0100
0000
0000
0000
0000
0000
1000
0000
0000
0000
0000
0000
0001
0000
0000
0000
0000
0000
0100
0000
0000
0000
0000
0000
0010
0000
0000
0000
0000
0000
1000
0000
0000
0000
0000
0000
0100
0000
0000
0000
0000
0000
0010
0000
0000
0000
0000
0000
0001
0000
0000
0000
0000
0000
1000
0000
0000
0000
0000
0000
0001
0000
0000
0000
0000
0000
1000
0000
0000
0000
0000
0000
0100
0000
0000
0000
0000
0000
0010
0000
0000
0000
0000
0000
0000
0000
0000
0000
0000
0000
,
0001
1000
0100
0010
0000
0010
0100
1000
0001
0100
0010
1000
0001
0000
0010
0000
0100
1000
0100
0010
0001
1000
0000
0000
0010
0000
1000
0001
0010
0100
1000
0000
,
0011
0000
0100
0000
1001
0000
1000
0010
0100
0000
0001
0010
0100
1000
0001
0000
1000
0100
0010
0100
1000
0001
0010
0100
0010
0001
1000
0000
0010
1000
0001
0100
,
0010
0000
0000
1000
0000
0000
0010
0000
0100
0000
0001
0000
1000
0000
0100
0000
0010
0000
0001
0000
1000
0000
0100
0000
1000
0000
0001
0000
0100
0000
0010
0000
1000
0000
0001
0100
0001
0000
1000
0000
0100
0000
0010
0000
0001
0000
0000
0000
1000
0000
0100
0000
0010
0000
0000
0000
0100
0000
1000
0000
0001
0000
0000
0000
,
1100
0000
0010
0000
1001
0000
0001
0100
0010
0000
1000
0100
0010
0001
1000
0000
0001
0010
0100
0010
0001
1000
0100
0010
0100
1000
0001
0000
0100
0001
1000
0010
,
0100
0000
0000
0001
0000
0000
0100
0000
0010
0000
1000
0000
0001
0000
0010
0000
0100
0000
1000
0000
0001
0000
0010
0000
0001
0000
1000
0000
0010
0000
0100
0000
0001
0000
1000
0010
1000
0000
0001
0000
0010
0000
0100
0000
1000
0000
0000
0000
0001
0000
0010
0000
0100
0000
0000
0000
0010
0000
0001
0000
1000
0000
0000
0000
,
0101
0000
0111
0000
0001
1000
0100
0000
1110
0000
0000
0000
1011
0000
0000
0000
,
1010
0000
1011
0000
1000
0001
0100
0000
0111
0000
1001
0000
1110
0000
1001
0000
,
1000
0001
0100
0000
0111
0000
0001
1000
0100
0000
1110
0000
1000
0000
1001
0000
,
0001
0100
0010
0000
1000
0000
0100
0010
0001
0010
0100
1000
0001
0000
1001
0000
,
1010
0000
1110
0000
1000
0001
0010
0000
0111
0000
0000
0000
1101
0000
0000
0000
,
0101
0000
1101
0000
0001
1000
0010
0000
1110
0000
1001
0000
0111
0000
1001
0000
,
0001
1000
0010
0000
1110
0000
1000
0001
0010
0000
0111
0000
0001
0000
1001
0000
,
1000
0010
0100
0000
0001
0000
0010
0100
1000
0100
0010
0001
1000
0000
1001
0000
,
0011
0000
0100
0000
1001
0000
1000
0010
0100
0000
0001
0010
0100
1000
0001
0000
1000
0100
0010
0100
1000
0001
0010
0100
0010
0001
1000
0000
0010
1000
0001
0100
,
0010
0000
0000
1000
0000
0000
0010
0000
0100
0000
0001
0000
1000
0000
0100
0000
0010
0000
0001
0000
1000
0000
0100
0000
1000
0000
0001
0000
0100
0000
0010
0000
1000
0000
0001
0100
0001
0000
1000
0000
0100
0000
0010
0000
0001
0000
0000
0000
1000
0000
0100
0000
0010
0000
0000
0000
0100
0000
1000
0000
0001
0000
0000
0000
,
1100
0000
0010
0000
1001
0000
0001
0100
0010
0000
1000
0100
0010
0001
1000
0000
0001
0010
0100
0010
0001
1000
0100
0010
0100
1000
0001
0000
0100
0001
1000
0010
,
0100
0000
0000
0001
0000
0000
0100
0000
0010
0000
1000
0000
0001
0000
0010
0000
0100
0000
1000
0000
0001
0000
0010
0000
0001
0000
1000
0000
0010
0000
0100
0000
0001
0000
1000
0010
1000
0000
0001
0000
0010
0000
0100
0000
1000
0000
0000
0000
0001
0000
0010
0000
0100
0000
0000
0000
0010
0000
0001
0000
1000
0000
0001
0000
,
1000
0000
0010
0000
1001
0000
0001
0100
0010
0000
1000
0100
0010
0001
1000
0000
0001
0010
0100
0010
0001
1000
0100
0010
0100
1000
0001
0000
0100
0001
1000
0010
,
0100
0000
0000
0001
0000
0000
0100
0000
0010
0000
1000
0000
0001
0000
0010
0000
0100
0000
1000
0000
0001
0000
0010
0000
0001
0000
1000
0000
0010
0000
0100
0000
0001
0000
1000
0010
1000
0000
0001
0000
0010
0000
0100
0000
1000
0000
0000
0000
0001
0000
0010
0000
0100
0000
0000
0000
0010
0000
0001
0000
1000
0000
0000
0000
,
0011
0000
0100
0000
1001
0000
1000
0010
0100
0000
0001
0010
0100
1000
0001
0000
1000
0100
0010
0100
1000
0001
0010
0100
0010
0001
1000
0000
0010
1000
0001
0100
,
0010
0000
0000
1000
0000
0000
0010
0000
0100
0000
0001
0000
1000
0000
0100
0000
0010
0000
0001
0000
1000
0000
0100
0000
1000
0000
0001
0000
0100
0000
0010
0000
1000
0000
0001
0100
0001
0000
1000
0000
0100
0000
0010
0000
0001
0000
0000
0000
1000
0000
0100
0000
0010
0000
0000
0000
0100
0000
1000
0000
0001
0000
0000
0000
,
1001
0000
0000
0000
0000
0000
0000
0000
0111
0000
0000
0000
0000
0000
0000
0000
1001
0000
0000
1100
0000
0000
1010
0000
1001
0000
0000
0000
1000
0000
0001
0000
,
0100
0000
0000
0000
0000
0000
0000
0000
0111
0000
0000
0000
0000
0000
0000
0000
0101
0000
0000
0110
0000
0000
0101
0000
0010
0000
1000
0000
0100
0000
0010
0000
,
0011
0000
0000
0000
;
