#TITLE:Steel Tough;
#SUBTITLE:;
#ARTIST:Kettu;
#TITLETRANSLIT:;
#SUBTITLETRANSLIT:;
#ARTISTTRANSLIT:;
#CRChallenge:;
#BANNER:steel.png;
#BACKGROUND:steel-bg.png;
#LYRICSPATH:;
#CDTITLE:;
#MUSIC:steel.ogg;
#OFFSET:0.000;
#SAMPLESTART:5.040;
#SAMPLELENGTH:12.000;
#SELECTABLE:YES;
#BPMS:0.000=185.000,144.000=92.500,174.000=185.000;
#STOPS:174.000=0.973
;
#BGCHANGES:;
#NOTES:
     dance-single:
     Renard:
     Hard:
     11:
     0.799,0.926,0.490,0.000,0.693:
0000
0000
0000
0000
,
0000
0000
0000
0000
,
0000
0000
0000
0000
,
0000
0000
0000
0000
,
0001
1000
0100
1000
0000
0001
0100
0000
0001
0000
1000
0000
0100
0000
0010
0000
,
0001
0010
0001
1000
0000
0001
0010
0000
0001
0000
1000
0000
0010
0000
0100
0000
,
0001
1000
0100
1000
0000
0001
1000
0000
0001
0000
0100
0000
0010
0000
1000
0000
,
0100
1000
0001
1000
0000
0010
1000
0000
0001
0000
0100
0000
0010
0000
1000
0000
,
0001
1000
0100
1000
0000
0001
0100
0000
0001
0000
1000
0000
0100
0000
0010
0000
,
0001
0010
0001
1000
0000
0001
0010
0000
0001
0000
1000
0000
0010
0000
0100
0000
,
0001
1000
0100
1000
0000
0001
1000
0000
0001
0000
0100
0000
0010
0000
1000
0000
,
0100
1000
0001
1000
0000
0010
1000
0000
0001
0000
0100
0000
0010
0000
1000
0000
,
0010
0010
1000
1000
0010
0000
1001
0000
,
0001
1000
0100
0010
0001
0000
1000
0000
0001
0000
0000
0000
1001
0000
1000
0000
,
0001
0001
0100
0100
0010
0000
1010
0000
,
1000
0000
0010
1000
0001
1000
0100
0010
0001
0000
0000
0000
1001
0000
0000
0000
,
0100
0100
0001
0001
1000
0000
1010
0000
,
0010
1000
0001
1000
0010
0000
1000
0000
0001
0000
0000
0000
1001
0000
0000
0000
,
1000
1000
0100
0100
0010
0000
0011
0000
,
0001
0000
0010
0100
1000
0001
1000
0100
0010
0000
0000
0000
0011
0000
0000
0000
,
0001
0010
0001
0010
0000
0001
0010
0000
0100
0000
1000
0000
0010
0000
0100
0000
,
0001
0100
0001
0100
0000
0001
0100
0000
0010
0000
1000
0000
0100
0000
1000
0000
,
0010
1000
0010
1000
0000
0010
1000
0000
0010
0000
1000
0000
0100
0000
0010
0000
,
0100
1000
0100
1000
0000
0100
1000
0000
0010
0000
1000
0000
0100
0000
0010
0000
,
0001
0010
0001
0010
0000
0001
0010
0000
0100
0000
1000
0000
0010
0000
0100
0000
,
0001
0100
0001
0100
0000
0001
0100
0000
0010
0000
1000
0000
0100
0000
1000
0000
,
0010
1000
0010
1000
0000
0010
1000
0000
0010
0000
1000
0000
0100
0000
0010
0000
,
0100
1000
0100
1000
0000
0100
1000
0000
0010
0000
1000
0000
0100
0000
0010
0000
,
0100
0100
0001
0001
0100
0000
1001
0000
,
1000
0001
0010
0100
1000
0000
0001
0000
1000
0000
0000
0000
1001
0000
0001
0000
,
1000
1000
0010
0010
0100
0000
0101
0000
,
0001
0000
0100
0001
1000
0001
0010
0100
1000
0000
0000
0000
1001
0000
0000
0000
,
0010
0010
1000
1000
0001
0000
0101
0000
,
0100
0001
1000
0001
0100
0000
0001
0000
1000
0000
0000
0000
1001
0000
0000
0000
,
0001
0001
0010
0010
0100
0000
1100
0000
,
1000
0000
0100
0010
0001
1000
0001
0010
0100
0000
0000
0000
1100
0000
0000
0000
,
0011
0000
0100
1000
0001
0100
0010
1000
0100
0000
0100
1000
0010
0100
0001
0010
,
0001
0000
0001
0010
0100
1000
0001
0100
0010
0000
0010
1000
0100
0010
0001
0010
,
0001
0000
0001
0010
0100
1000
0001
0100
0010
0000
0010
0100
0001
0010
0100
1000
,
0010
0000
0010
1000
0100
0010
0001
0100
0010
0000
0010
1000
0100
0000
1001
0000
,
0101
0101
0000
0000
0010
1000
0100
0000
1100
1100
0000
0000
1000
0100
0010
0000
,
0110
0110
0000
0000
0010
0001
1000
0000
1001
1001
0000
0000
1000
0010
0100
0000
,
0110
0110
0000
0000
0100
0001
0010
0000
0011
0011
0000
0000
0010
0100
1000
0000
,
1100
1100
0000
0000
1000
0010
0100
0010
1000
0000
0000
0000
0001
0000
0001
0000
,
0010
0000
0010
0000
0001
0000
0000
0000
1001
0000
0000
0000
0100
0010
1000
0001
,
0100
0010
0100
0000
0110
0010
0100
0100
,
0001
0000
0001
0000
1000
0000
0000
0000
0011
0000
0000
0000
0010
0000
0001
0010
,
0100
0010
0001
1000
0100
0000
0000
0000
1001
0000
0000
0000
0001
0000
1000
0100
,
0010
0001
0000
0000
0010
0000
0000
0000
0011
0000
0000
0000
0001
0010
0100
0000
,
1000
0100
0000
0000
0100
0000
0000
0000
1001
0000
0000
0000
0001
0010
0001
0100
,
0010
0000
1000
0000
0001
0000
0000
0000
0101
0000
0000
0000
0100
0000
0001
1000
,
0010
0100
0010
1000
0001
0000
0000
0000
0101
0000
0000
0000
1000
0000
1000
0000
,
0100
0000
0100
0000
1000
0000
0000
0000
1001
0000
0000
0000
0010
0100
0001
1000
,
0010
0100
0010
0000
0110
0100
0010
0010
,
1000
0000
1000
0000
0001
0000
0000
0000
1100
0000
0000
0000
0100
0000
1000
0100
,
0010
0100
1000
0001
0010
0000
0000
0000
1001
0000
0000
0000
1000
0000
0001
0010
,
0100
1000
0000
0000
0100
0000
0000
0000
1100
0000
0000
0000
1000
0100
0010
0000
,
0001
0010
0000
0000
0010
0000
0000
0000
1001
0000
0000
0000
1000
0100
1000
0010
,
0100
0000
0001
0000
1000
0000
0000
0000
1010
0000
0000
0000
0010
0000
1000
0001
,
0100
0010
0100
0001
1000
0000
0000
0000
0000
0000
0000
0000
0000
0000
0000
0000
;
#NOTES:
     dance-single:
     Renard:
     Medium:
     9:
     0.613,0.926,0.458,0.000,0.276:
0000
0000
0000
0000
,
0000
0000
0000
0000
,
0000
0000
0000
0000
,
0000
0000
0000
0000
,
0001
0000
0000
0010
0000
0000
0100
0000
1000
0000
0100
0000
0010
0000
0000
0000
,
0100
0000
0000
1000
0000
0000
0001
0000
0100
0000
0010
0000
1000
0000
0000
0000
,
0010
0000
0000
0100
0000
0000
0001
0000
0100
0000
0010
0000
1000
0000
0000
0000
,
0001
0000
0000
0010
0000
0000
0100
0000
1000
0000
0100
0000
0010
0000
0001
0000
,
1000
0000
0000
0100
0000
0000
0010
0000
0001
0000
0010
0000
0100
0000
0000
0000
,
0010
0000
0000
0001
0000
0000
1000
0000
0010
0000
0100
0000
0001
0000
0000
0000
,
0100
0000
0000
0010
0000
0000
1000
0000
0010
0000
0100
0000
0001
0000
0000
0000
,
1000
0000
0000
0100
0000
0000
0010
0000
0001
0000
0010
0000
0100
0000
1000
0000
,
0001
0001
1000
1000
0000
0000
1001
0000
,
1000
0010
0100
0100
0000
0000
0110
0000
,
0010
1000
0100
0010
0001
0000
1001
0000
,
0001
0001
0010
0010
0100
0000
0110
0000
,
0100
0100
1000
1000
0000
0000
1100
0000
,
1000
0010
0100
0100
0000
0000
0110
0000
,
0100
0001
0010
0100
0010
0000
0110
0000
,
0010
0001
1000
0010
1000
0000
1010
0000
,
1000
0000
0000
0100
0000
0000
0010
0000
0001
0000
0010
0000
0100
0000
0000
0000
,
0010
0000
0000
0001
0000
0000
1000
0000
0010
0000
0100
0000
0001
0000
0000
0000
,
0100
0000
0000
0010
0000
0000
1000
0000
0010
0000
0100
0000
0001
0000
0000
0000
,
1000
0000
0000
0100
0000
0000
0010
0000
0001
0000
0010
0000
0100
0000
1000
0000
,
0001
0000
0000
0010
0000
0000
0100
0000
1000
0000
0100
0000
0010
0000
0000
0000
,
0100
0000
0000
1000
0000
0000
0001
0000
0100
0000
0010
0000
1000
0000
0000
0000
,
0010
0000
0000
0100
0000
0000
0001
0000
0100
0000
0010
0000
1000
0000
0000
0000
,
0001
0000
0000
0010
0000
0000
0100
0000
1000
0000
0100
0000
0010
0000
0001
0000
,
1000
1000
0001
0001
0000
0000
1001
0000
,
0001
0100
0010
0010
0000
0000
0110
0000
,
0100
0001
0010
0100
1000
0000
1001
0000
,
1000
1000
0100
0100
0010
0000
0110
0000
,
0010
0010
0001
0001
0000
0000
0011
0000
,
0001
0100
0010
0010
0000
0000
0110
0000
,
0010
1000
0100
0010
0100
0000
0110
0000
,
0100
1000
0001
0100
0001
0000
0101
0000
,
0011
0000
0100
1000
0001
0100
0010
1000
0100
0000
0100
1000
0010
0100
0001
0010
,
0001
0000
0001
0010
0100
1000
0001
0100
0010
0000
0010
1000
0100
0010
0001
0010
,
0001
0000
0001
0010
0100
1000
0001
0100
0010
0000
0010
0100
0001
0010
0100
1000
,
0010
0000
0010
1000
0100
0010
0001
0100
0010
0000
0010
1000
0100
0000
1001
0000
,
0101
0101
0000
0000
0010
1000
0100
0000
1100
1100
0000
0000
1000
0100
0010
0000
,
0110
0110
0000
0000
0010
0001
1000
0000
1001
1001
0000
0000
1000
0010
0100
0000
,
0110
0110
0000
0000
0100
0001
0010
0000
0011
0011
0000
0000
0010
0100
1000
0000
,
1100
1100
0000
0000
1000
0010
0100
0010
1000
0000
0000
0000
0001
0000
0001
0000
,
1000
1000
0010
0000
1001
0000
1000
1000
,
0001
0001
0100
0000
1001
0000
0001
0001
,
1000
1000
0010
0000
1001
0000
1000
1000
,
0001
0001
0100
0000
1001
0000
0001
0001
,
1000
1000
0000
0000
0000
0000
0010
0010
,
0100
0100
0000
0000
0000
0000
0001
0001
,
1000
1000
0000
0000
0000
0000
0001
1000
,
0100
0010
0001
0000
1001
0000
1000
1000
,
0001
0001
0100
0000
1001
0000
0001
0001
,
1000
1000
0100
0000
1001
0000
1000
1000
,
0001
0001
0010
0000
1001
0000
0001
0001
,
1000
1000
0010
0000
1001
0000
1000
0100
,
0001
0100
1000
0000
1001
0000
1000
0010
,
0001
0010
1000
0000
1001
0000
0001
0010
,
1000
0010
0001
0000
1001
0000
1000
0100
,
0010
0001
1000
0000
0000
0000
0000
0000
;
#NOTES:
     dance-single:
     Renard:
     Easy:
     6:
     0.406,0.525,0.083,0.094,0.000:
0000
0000
0000
0000
,
0000
0000
0000
0000
,
0000
0000
0000
0000
,
0000
0000
0000
0000
,
0001
0000
0001
0000
1000
0100
1000
0000
,
0001
0000
0001
0000
1000
0100
1000
0000
,
0001
0000
0001
0000
1000
0100
1000
0000
,
0001
1000
0100
0010
,
0001
0000
0001
0000
1000
0100
1000
0000
,
0001
0000
0001
0000
1000
0100
1000
0000
,
0001
0000
0001
0000
1000
0100
1000
0000
,
0100
0010
0001
1000
,
0010
0010
1000
1010
,
0001
0001
0100
0101
,
0001
0001
0010
0011
,
1000
1000
0100
1100
,
1000
0010
1000
1010
,
0001
0100
0001
0101
,
1000
0100
1000
1100
,
0001
0010
0011
0000
,
0001
1000
0001
1000
0001
0000
0001
0000
,
0100
0010
0100
0010
0100
0000
0100
0000
,
0001
1000
0001
1000
0001
0000
0001
0000
,
0100
0010
0100
0010
0100
0000
0100
0000
,
0001
1000
0001
1000
0001
0000
0001
0000
,
0100
0010
0100
0010
0100
0000
0100
0000
,
0001
1000
0001
1000
0001
0000
0001
0000
,
0100
0010
0100
0010
0100
0000
0100
0000
,
0001
0001
1000
1000
,
0100
0100
0010
0010
,
0001
1000
0001
1000
0001
0000
0000
0000
,
1000
0010
1000
0010
1000
0000
0000
0000
,
0001
0001
0001
0001
0000
0000
0000
0000
,
1000
1000
1000
1000
0000
0000
0000
0000
,
0010
0010
0010
0010
0010
0000
0000
0000
,
0100
0100
0100
0000
0100
0000
0000
0000
,
0002
0000
1000
0100
1000
0000
0100
1000
,
0100
0000
1000
0100
1000
0000
1003
0000
,
2000
0000
0001
0100
0001
0000
0100
0001
,
0100
0000
0001
0100
0001
0000
3001
0000
,
0020
0000
0100
1000
0230
0000
0010
0001
,
0320
0000
1000
0100
2030
0000
0001
0010
,
3002
0000
1000
0010
2003
0000
0001
0010
,
3002
0000
1000
0010
1003
0000
1000
0000
,
1000
0000
0001
0000
0001
0000
0100
0100
,
0100
0000
0000
0001
,
0001
0000
1000
0000
0000
0000
0010
0010
,
0010
0010
0000
1000
,
1000
0000
0000
0001
,
0001
0000
0000
0100
,
0100
0000
0000
0000
0000
0000
0010
0010
,
0010
0010
0000
0100
,
0100
0001
0001
1000
,
1000
0100
0010
0001
,
0001
1000
0000
0001
,
1000
0000
0010
0000
0000
0000
0100
0001
,
0100
0001
0100
0000
0100
0000
0010
1000
,
0010
0000
1000
0000
1000
0000
0001
1000
,
0001
1000
0001
0000
0001
0000
1000
0100
,
0010
0001
1000
0000
0000
0000
0000
0000
;
#NOTES:
     dance-single:
     Renard:
     Beginner:
     3:
     0.268,0.339,0.010,0.083,0.000:
0000
0000
0000
0000
,
0000
0000
0000
0000
,
0000
0000
0000
0000
,
0000
0000
0000
0000
,
0001
0000
0001
0000
,
1000
1000
1000
0000
,
0010
0000
0010
0000
,
0100
0100
0100
0000
,
0001
0000
1000
0000
,
0001
1000
0001
1000
,
0010
0000
0100
0000
,
0010
0100
0010
0100
,
0001
0000
0001
0000
,
1000
0000
1000
0000
,
0010
0010
0010
0000
,
0100
0100
0100
0000
,
0001
1000
0000
0000
,
0010
0100
0000
0000
,
0001
1000
0001
0000
,
0100
0010
0100
0000
,
0010
0010
0010
0010
,
0100
0100
0100
0100
,
0001
0001
0001
0001
,
1000
1000
1000
1000
,
0001
0100
0001
0100
,
0010
1000
0010
1000
,
0001
1000
0001
1000
,
0100
1000
0100
1000
,
0001
0001
0000
0000
,
1000
1000
0000
0000
,
0010
0010
0010
0000
,
0100
0100
0100
0000
,
0001
0001
0000
0000
,
1000
1000
0000
0000
,
0010
0010
0010
0000
,
0100
0100
0001
0000
,
2000
0001
0010
0001
,
3002
1000
0100
1000
,
2003
0010
0001
0010
,
3002
1000
0010
2003
,
0010
0000
0100
0100
0010
0000
0100
0000
,
3020
0230
0302
0000
,
0010
0000
0100
0100
0010
0000
1000
0000
,
0100
0000
1000
0003
1001
0000
1000
0000
,
1000
0000
0000
0001
,
0001
0000
0000
0100
,
0100
0010
0000
1000
,
1000
0001
0000
0100
,
0000
0000
0000
0010
,
0010
0000
0000
1000
,
1000
0000
0000
0001
,
1000
0100
0000
1000
,
1000
1000
0000
0001
,
0001
0001
0000
0100
,
0100
0100
0000
0010
,
0010
0010
0000
1000
,
0010
1000
0010
1000
,
0001
1000
0001
1000
,
0100
1000
0100
1000
,
0100
0010
0000
0000
;
