#TITLE:Start Rocking;
#SUBTITLE:;
#ARTIST:The Pitcher;
#TITLETRANSLIT:;
#SUBTITLETRANSLIT:;
#ARTISTTRANSLIT:;
#CRChallenge:;
#BANNER:start.jpg;
#BACKGROUND:start-bg.jpg;
#LYRICSPATH:;
#CDTITLE:!cdtitle.png;
#MUSIC:start.ogg;
#OFFSET:0.000;
#SAMPLESTART:74.403;
#SAMPLELENGTH:12.000;
#SELECTABLE:YES;
#BPMS:0.000=145.000;
#STOPS:;
#BGCHANGES:;
#NOTES:
     dance-single:
     Renard:
     Challenge:
     11:
     0.692,0.784,1.000,0.562,0.224:
0000
0000
0000
0000
,
1000
0001
1000
0001
,
0100
0010
0100
0010
,
1000
0001
1000
0001
,
0100
0010
0100
0010
,
2000
3100
0020
0031
,
2000
3010
0200
0301
,
1001
0000
1001
0000
0000
0000
0000
0000
0110
0000
0110
0000
0000
1001
0000
0000
,
0110
1100
0110
0101
,
0011
1010
0110
0011
,
0101
0110
1100
0110
,
0101
0011
0110
1010
,
0110
1100
0101
0110
,
0110
0011
1010
0110
,
1100
1100
0000
0000
0011
0011
0000
0000
,
1001
0000
1001
0000
0000
1001
0000
0000
0110
0000
0000
0110
0000
0110
0000
0000
,
2000
3002
2003
3002
,
2003
3002
2003
3002
,
2003
3002
2003
3001
,
1100
0000
0110
0000
0011
0000
1100
0000
0110
0000
0011
0000
,
0000
0000
0000
0000
,
0002
0200
0000
0020
0000
0030
0000
2000
,
3303
0001
2000
0000
0100
0200
0002
3303
,
2000
0200
0000
0020
0000
0030
0000
0002
,
3303
0100
0010
0010
0002
0200
0020
0333
,
0002
0200
0000
0020
0000
0030
0000
2000
,
3303
0001
2000
0000
0100
0200
0002
3303
,
2000
0200
0000
0020
0000
0030
0000
3322
,
M000
0000
0M00
0000
M000
0000
0M00
0000
M000
0000
0M00
0000
M000
0000
0M00
0000
M000
0000
0M00
0000
M000
0033
0000
0000
,
1000
0002
0000
0203
0000
0000
0000
0320
,
0000
1030
0200
0000
0310
0001
0020
0000
,
0130
2000
0000
3020
0000
0000
0000
0230
,
0000
0301
0020
0000
0130
1000
0002
0000
,
0103
1100
0100
0101
,
0010
0011
0010
1010
,
0110
0101
1100
0110
,
0101
0000
1001
0000
1100
0000
0010
0002
,
0103
0000
0010
0000
0100
0000
0000
0010
0000
1000
0000
0010
1000
0000
0000
0000
,
0001
0000
0100
0000
0001
0000
0000
0010
0000
0001
0000
0010
0001
0000
0000
0000
,
0010
0000
0100
0000
0010
0000
0000
0100
0000
1000
0000
0100
1000
0000
0000
0000
,
0001
0000
0100
0000
0001
0000
0000
0100
0000
0010
0000
0100
0010
0000
0000
0000
,
1000
0000
0010
0000
1000
0000
0000
0010
0000
1000
0000
0010
1000
0000
0000
0000
,
0001
0000
0100
0000
0001
0000
0000
0100
0000
0001
0000
0100
0001
0000
0000
0000
,
1100
0000
0110
0000
0011
0000
1100
0000
0110
0000
0011
0000
,
1000
0100
0010
0001
0001
0010
0100
1000
1000
0001
0000
0000
,
0111
1011
0111
1011
,
1110
1101
1110
1101
,
0111
1011
0111
1011
,
1110
1101
1110
1101
,
1110
1101
0111
1011
,
1110
1101
0111
1101
,
1110
1101
0111
1011
,
1001
1001
0000
0000
1001
1001
0000
0000
,
M111
1M11
M111
1M11
,
111M
11M1
111M
11M1
,
M111
1M11
M111
1M11
,
111M
0000
0000
0000
11M1
0000
0000
0000
220M
0000
0010
0000
0000
3310
0000
0000
,
111M
11M1
M111
1M11
,
111M
0000
11M1
0000
M111
0000
MMM2
0003
,
2002
0010
3003
M00M
2002
0100
3003
M00M
,
0101
0000
1100
0000
0000
0101
0000
0000
1010
0000
0000
1000
0100
0010
0000
0000
,
1111
0000
0000
0000
;
#NOTES:
     dance-single:
     Renard:
     Medium:
     8:
     0.664,0.784,0.248,0.857,0.133:
0000
0000
0000
0000
,
0000
0000
0000
0000
,
0000
0000
0000
0000
,
0000
0000
0000
0000
,
0000
0000
0000
0000
,
1000
0100
1000
0100
0001
0100
0001
0100
,
1000
0010
1000
0010
0001
0010
0001
0010
,
0011
0000
0011
0000
0000
0000
0000
0000
1010
0000
1010
0000
0000
1001
0000
0000
,
0001
0100
0010
1000
1000
1000
0100
0010
,
0001
1000
0010
0100
0010
1000
0100
0010
,
0001
1000
0010
0100
0100
0100
0010
1000
,
0100
0010
0001
1000
0010
0100
0100
0001
,
0010
0100
1000
0001
0001
0001
0010
0100
,
1000
0001
0100
0010
1000
0100
0010
0001
,
0010
0100
1000
0010
0010
0010
0100
0001
,
0010
0100
1000
0001
0001
0100
0010
1000
,
0010
1000
0010
1000
0010
1000
0010
1000
,
0001
0100
0001
0100
0001
0100
0001
0100
,
0010
1000
0010
1000
0010
1000
0010
1000
,
0002
0000
0203
0000
0320
0000
2030
0000
3200
0000
0320
0000
,
0030
0000
0000
0000
,
0001
0010
0000
0100
0000
0000
0000
1000
,
0000
0010
1000
0000
0001
0100
0010
0000
,
1000
0100
0000
1100
0000
0000
0000
1000
,
0000
0001
0100
0000
0010
0100
0010
0000
,
1000
0010
0000
1010
0000
0000
0000
1000
,
0000
0100
1000
0000
0001
0010
0001
0000
,
1000
0010
0000
0202
0000
0000
0000
2020
,
0000
0000
0000
3333
,
0001
0100
0010
1000
0000
1000
0100
1000
,
0000
0000
0001
0100
0001
0000
0100
0000
0010
0000
1000
0000
0100
0000
0000
0000
,
0010
0001
0010
0100
0000
1000
0001
0100
,
0000
0000
0010
1000
0010
0000
1000
0000
0100
0000
0010
0000
0001
0000
0000
0000
,
1000
0001
0100
0010
0000
1000
0010
1000
,
0000
0000
0001
0100
0001
0000
0100
0000
0010
0000
1000
0000
0100
0000
0000
0000
,
0010
0001
0010
0100
0000
1000
0001
0100
,
0000
0010
1000
0010
1000
0010
1000
0001
,
2000
0000
0000
0000
0001
0000
0000
0010
0000
0010
0000
0000
3010
0000
0000
0000
,
0002
0000
0000
0000
0100
0000
0000
0010
0000
0010
0000
0000
0013
0000
0000
0000
,
0002
0000
0000
0000
1000
0000
0000
1000
0000
1000
0000
0000
0103
0000
0000
0000
,
2000
0000
0000
0000
0100
0000
0000
0001
0000
0010
0000
0000
3001
0000
0000
0000
,
1100
0000
0000
0000
0011
0000
0000
1000
0000
0001
0000
0000
0100
0000
0000
0000
,
0011
0000
0000
0000
1100
0000
0000
1000
0000
0001
0000
0000
0100
0000
0000
0000
,
0011
0000
0011
0000
0011
0000
1100
0000
1100
0000
1100
0000
,
1010
0000
1010
0000
1010
0000
0101
0000
0101
0000
0101
0000
,
0002
0203
0310
2000
3010
1000
0100
0020
,
0031
2000
3020
0130
0002
2003
3200
1300
,
0002
0023
0130
2000
3001
0100
0010
2000
,
3001
2000
3200
0320
0032
0023
0032
0013
,
0200
2300
3001
0200
0310
1000
0100
2000
,
3001
0020
0032
1003
0020
0230
0302
1003
,
0020
0230
0301
2000
3001
0010
0100
2000
,
3001
0020
0230
2300
3002
0203
0320
0000
,
2030
3020
0130
0002
0103
0001
0010
0200
,
1300
0002
0203
0310
2000
3002
0023
0031
,
2000
3200
0310
0002
1003
0010
0100
0002
,
1003
0002
0023
0230
2300
3200
2300
3100
,
0020
0032
1003
0020
0130
0001
0010
0002
,
1003
0200
2300
3001
0200
0320
2030
3001
,
0200
0320
1030
0002
1003
0100
0010
0002
,
1003
0200
0320
0032
2003
3020
0230
0301
,
0011
0000
0000
0000
;
#NOTES:
     dance-single:
     Renard:
     Easy:
     5:
     0.294,0.377,0.038,0.076,0.000:
0000
0000
0000
0000
,
0000
0000
0000
0000
,
0000
0000
0000
0000
,
0000
0000
0000
0000
,
0000
0000
0000
0000
,
1000
1000
0001
0001
,
1000
0000
1000
0000
0001
1000
0001
0000
,
0100
0100
0010
0010
,
1000
0001
1000
0001
,
0100
0001
0100
0001
,
1000
0000
0100
1000
0100
1000
0000
0000
,
0001
0000
0010
0001
1000
0001
1000
0001
,
1000
0000
0000
0001
0100
0001
0000
0000
,
0100
0010
1000
0100
,
0010
0001
1000
0001
,
0100
0100
0010
0010
,
1000
0000
1000
0000
,
0001
0000
0001
0000
,
0100
0000
0100
0000
,
0010
0000
0010
0000
,
2000
0000
0000
0000
,
3001
0000
0000
0200
0000
0000
0000
0310
,
0000
1000
0100
0010
,
0001
0000
0000
0020
0000
0000
0000
0130
,
0000
1000
0010
0100
,
0001
0000
0000
2000
0000
0000
0000
3100
,
0000
0010
0001
1000
,
0010
0000
0000
0200
0000
0000
0000
0302
,
0000
0000
0000
0000
,
0013
0010
0010
0000
,
0100
0000
1000
0000
0001
0100
0001
0000
,
1000
0001
1000
0000
,
0001
0000
0100
0000
0010
1000
0010
0000
,
1000
0100
0010
0000
,
0001
0000
1000
0000
0001
0100
0001
0000
,
0100
0010
1000
0000
,
0002
0000
0M00
0M00
,
0103
0000
0100
0000
0010
0010
0010
0000
,
0100
0000
0100
0000
0010
0010
0010
0000
,
0100
0000
0100
0000
0010
0010
0010
0000
,
0100
0010
0100
0010
,
1000
0000
0001
0000
0001
0001
0001
0000
,
0001
0000
1000
0000
1000
1000
1000
0000
,
0010
1000
0001
0100
,
0010
0000
1000
0000
0001
0100
0001
0000
,
1000
0001
0000
1000
0000
0000
0000
0000
,
0001
0100
0010
1000
,
0001
1000
0000
0001
0000
0000
0000
0000
,
1000
0100
0010
0001
,
1000
0001
0000
1000
0000
0000
0000
0000
,
0001
0100
0010
1000
,
0001
1000
0000
0001
0000
0000
0000
0000
,
1000
0100
1000
0100
,
1000
0001
0000
1001
0000
0000
0000
0000
,
0001
0100
0010
1000
,
0001
1000
0000
1001
0000
0000
0000
0000
,
0001
0000
0010
0000
0100
1000
0100
0000
,
1000
0001
0000
1001
0000
0000
0000
0001
,
0000
0100
0001
0000
0100
0010
0100
0000
,
0010
1000
0000
1010
0000
0000
0000
2000
,
00M0
000M
0001
0001
,
3010
0000
0000
0000
;
#NOTES:
     dance-single:
     Renard:
     Beginner:
     2:
     0.230,0.319,0.010,0.124,0.000:
0000
0000
0000
0000
,
0000
0000
0000
0000
,
0000
0000
0000
0000
,
0000
0000
0000
0000
,
0000
0000
0000
0000
,
1000
1000
0001
0001
,
1000
0001
1000
0000
,
0001
0000
1000
0000
,
0001
1000
0001
0000
,
1000
0000
0001
0000
,
1000
0001
1000
0000
,
0001
0000
1000
0000
,
0001
0001
1000
0000
,
1000
0000
0001
0000
,
1000
1000
0001
0001
,
1000
0001
1000
0001
,
0200
0000
0310
0000
,
0200
0000
0310
0000
,
0200
0000
0310
0000
,
0100
0000
0100
0000
,
0020
0000
0000
0000
,
1030
0000
0000
0000
,
0001
1000
0001
1000
,
0001
0000
0000
0000
,
1000
0001
1000
0001
,
0010
0000
0000
0000
,
0001
1000
0001
1000
,
0001
0000
1000
0000
,
0001
0001
0100
0100
,
0001
0000
1000
0000
,
0100
1000
0001
1000
,
0001
0000
0010
0000
,
0001
1000
0001
1000
,
0100
0000
1000
0000
,
0001
1000
0001
1000
,
0001
0000
0010
0000
,
0002
0000
0000
0000
,
1003
1000
1000
0000
,
0001
0001
0001
0000
,
1000
1000
1000
0000
,
0001
0001
0001
0000
,
1000
1000
1000
0000
,
0001
0001
0001
0000
,
2000
0000
3002
0000
,
2003
3002
2003
3002
,
1003
0000
1000
0000
,
0100
0100
0010
0010
,
0001
0000
0001
0000
,
0010
0000
0100
0000
,
1000
0000
1000
0000
,
0010
0010
0100
0100
,
0001
0000
0001
0000
,
0020
0000
0230
0000
,
1300
0001
1000
0000
,
0001
1000
0001
1000
,
0010
0100
0010
0000
,
0100
0010
0100
0010
,
1000
0010
1000
0000
,
0010
1000
0010
1000
,
0001
0000
0100
0000
,
0001
1000
0001
1000
,
0110
0000
0000
0000
;
