#TITLE:Splatterhouse;
#SUBTITLE:;
#ARTIST:SamplingMasters YOU;
#TITLETRANSLIT:;
#SUBTITLETRANSLIT:;
#ARTISTTRANSLIT:;
#GENRE:;
#CRChallenge:;
#MENUCOLOR:;
#BANNER:splatter.png;
#BACKGROUND:splatter-bg.png;
#LYRICSPATH:;
#CDTITLE:!cdtitle.png;
#MUSIC:splatter2.ogg;
#OFFSET:0.000;
#SAMPLESTART:9.648;
#SAMPLELENGTH:12.000;
#SELECTABLE:YES;
#LISTSORT:;
#DISPLAYBPM:170.000:250.000;
#BPMS:0.000=85.815,14.000=171.630,46.000=257.445,118.000=171.630,119.000=257.446,119.500=128.723,124.000=257.446,124.500=128.715,129.500=257.446,130.000=128.723,130.500=257.446,131.000=128.723,136.000=257.446,136.500=128.723,142.500=257.446,143.000=128.723,143.500=257.446,144.000=128.723,149.000=257.446,149.500=128.723,154.500=257.446,155.000=128.723,155.500=257.446,156.000=128.723,161.000=257.446,161.500=128.723,167.500=257.446,168.500=128.723,169.000=343.260,170.998=171.630,202.998=257.445,274.498=209.605,274.748=175.425,274.998=142.205,275.248=116.224,275.498=145.825,275.748=100.010;
#STOPS:118.000=2.447
,119.000=0.117
,124.000=0.117
,136.000=0.117
,149.000=0.117
,161.000=0.117
,169.000=2.447
;
#TICKCOUNT:0.000=2;
#BGCHANGES:;
#KEYSOUNDS:;
#ATTACKS:;
#NOTES:
     dance-single:
     Renard:
     Medium:
     9:
     0.779,0.731,0.849,0.138,0.016:
0000
0000
0000
0000
,
0000
0000
0000
0000
,
0000
0000
0000
0000
,
0000
0000
1100
0101
,
1100
0101
1010
0011
,
1010
0011
1010
1100
,
1010
1100
0011
0101
,
0011
0101
1010
1001
,
1010
1001
0011
1001
,
0011
1001
1100
1001
,
1100
1001
0101
1001
,
1100
0000
1001
0000
0001
0010
0100
1000
,
0100
0010
0001
1000
0100
0010
0001
0010
,
0100
1000
0001
0010
0100
1000
0100
0010
,
0001
1000
0100
0010
0001
0100
0010
1000
,
0010
0100
0001
1000
0010
0100
0001
0100
,
0010
1000
0001
0100
0010
1000
0010
0100
,
0001
1000
0001
0100
0001
1000
0001
0100
,
0010
0100
0001
1000
0001
0010
0100
0010
,
0001
1000
0001
0100
0010
0100
0001
1000
,
0001
0010
0100
0010
0100
1000
0100
1000
,
0001
1000
0001
0100
0001
1000
0001
1000
,
0010
1000
0010
1000
0001
1000
0001
0010
,
0001
1000
0100
0010
0002
0000
0000
0013
,
0100
1000
0001
0010
0100
1000
0100
0010
,
0002
0000
0000
0013
0100
1000
0002
0000
,
0000
0013
0000
0000
2000
0000
0000
3100
,
0010
0001
1000
0100
0010
0001
0010
0100
,
2000
0000
0000
3100
0010
0001
1000
0001
,
1000
0001
1000
0001
0000
0000
1011
0000
,
0001
1000
0100
0010
0001
1000
0100
0010
,
1001
1001
0010
0100
0001
1000
0100
0010
,
0001
0000
0010
0000
0100
0000
1001
0000
0000
0100
0000
0000
1001
0000
0010
0000
,
1000
0100
0010
0001
0010
0100
1000
0001
,
0110
1001
0010
1000
0100
0010
0001
1000
,
0100
0000
0010
0000
0001
0000
1000
0000
0001
0000
1001
0000
0000
0100
0000
0000
,
1001
0100
0010
1000
0100
0010
0001
0010
,
0100
1000
1001
0110
0010
1000
0100
0010
,
0001
0000
1000
0000
0010
0000
0100
0000
0001
0000
0011
0000
0000
0100
0000
0000
,
1001
0100
0001
1000
0100
0010
0001
1000
,
0010
0100
1001
1001
0010
1000
0100
0010
,
0001
1000
0100
0010
0001
0010
0100
1001
,
0000
0200
M02M
0330
0000
0000
M11M
0000
,
1M1M
M11M
M1M1
M11M
,
1M1M
M11M
MM11
M1M1
,
MM11
M1M1
1MM1
11MM
,
1M1M
11MM
1MM1
M1M1
,
M1M1
11MM
11MM
1M1M
,
1M1M
MM11
MM11
M1M1
,
M1M1
MM11
MM11
1M1M
,
1M1M
0000
11MM
0000
M1M1
0000
0010
1000
,
0001
0100
0010
1000
0100
0010
0001
0010
,
0100
1000
0001
0100
0010
1000
0100
0010
,
0100
1000
0001
0010
0100
0010
0001
1000
,
0010
0100
0001
0010
0100
1000
0100
0010
,
0001
0100
0010
1000
0100
0010
0100
1000
,
0001
0010
0100
0010
0001
1000
0010
0100
,
0001
0100
0010
1000
0010
0100
0001
0010
,
0100
1000
0100
0010
0001
1000
0100
0010
,
0001
0010
0100
1000
0010
0100
0001
0010
,
0001
1000
0100
1000
0010
0100
0001
0010
,
0001
0100
0010
1000
0100
1000
0001
0010
,
0100
1000
0001
1000
0100
0010
0002
0000
,
0000
0013
0100
1000
0100
0010
0001
1000
,
0100
0010
0002
0000
0000
0013
0000
0000
,
0200
0000
0000
1300
0000
0000
0020
0000
,
0000
1030
0001
0100
0010
1000
0010
0100
,
0001
0100
0020
0000
0000
1030
0000
0000
,
0010
1000
0001
0100
0010
2000
0000
3000
;
#NOTES:
     dance-single:
     Renard:
     Hard:
     10:
     0.805,0.731,0.806,0.233,0.016:
0000
0000
0000
0000
,
0000
0000
0000
0000
,
0000
0000
0000
0000
,
0000
0000
11MM
M1M1
,
11MM
M1M1
1M1M
MM11
,
1M1M
MM11
1M1M
11MM
,
1M1M
2MM2
3M23
0101
,
1100
0131
1M1M
1MM1
,
1M1M
1MM1
MM11
1MM1
,
MM11
1MM1
11MM
1MM1
,
11MM
2MM2
3M23
0101
,
1100
0000
1031
0000
0001
0010
0100
1000
,
0100
0010
0001
1000
0100
0010
0001
0010
,
0100
1000
0001
0010
0100
1000
0100
0010
,
0001
1000
0100
0010
0001
0100
0010
1000
,
0010
0100
0001
1000
0010
0100
0001
0100
,
0010
1000
0001
0100
0010
1000
0010
0100
,
0001
1000
0001
0100
0001
1000
0001
0100
,
0010
0100
0001
1000
0001
0010
0100
0010
,
0001
1000
0001
0100
0010
0100
0001
1000
,
0001
0010
0100
0010
0100
1000
0100
1000
,
0001
1000
0001
0100
0001
1000
0001
1000
,
0010
1000
0010
1000
0001
1000
0001
0010
,
0001
1000
0100
0010
M002
0M00
M000
0013
,
0100
1000
0001
0010
0100
1000
0100
0010
,
M002
0M00
M000
0013
0100
1000
0M02
M000
,
0M00
0013
0000
0000
200M
00M0
000M
3100
,
0010
0001
1000
0100
M010
0M01
M010
0100
,
200M
00M0
000M
3100
0010
0001
1M00
00M1
,
1M00
00M1
1M00
00M1
0000
0000
1M11
0000
,
00M1
10M0
0100
M010
M001
1000
010M
001M
,
1001
1M01
0M10
0100
00M1
10M0
0100
M010
,
M001
0000
0010
0000
01M0
0000
10M1
0000
0000
0100
0000
0000
1M01
0000
0M10
0000
,
1000
010M
001M
0001
M010
M100
1000
0M01
,
M110
1001
0M10
1M00
0100
M010
M001
1000
,
010M
0000
001M
0000
0001
0000
1M00
0000
0M01
0000
1001
0000
0000
01M0
0000
0000
,
10M1
0100
001M
100M
0100
M010
M001
0010
,
010M
100M
1001
011M
001M
1000
010M
001M
,
0001
0000
1M00
0000
0M10
0000
0100
0000
M001
0000
M011
0000
0000
0100
0000
0000
,
10M1
01M0
0001
100M
010M
0010
0M01
1M00
,
0010
M10M
1MM1
1001
0M10
1M00
0100
M010
,
M001
1000
010M
001M
0001
M010
M100
1001
,
0000
0200
0020
0330
0000
0000
M11M
0000
,
1M1M
M11M
M1M1
M11M
,
1M1M
M11M
MM11
M1M1
,
MM11
M1M1
2MM2
3023
,
0101
1100
0131
M1M1
,
M1M1
11MM
11MM
1M1M
,
1M1M
MM11
MM11
M1M1
,
M1M1
1MM1
2MM2
3023
,
1001
0000
1100
0000
0131
0000
0001
0100
,
0001
1000
0100
1000
0001
0100
0001
1000
,
0100
1000
0001
0010
0001
1000
0010
1000
,
0001
0010
0100
1000
0100
0010
0001
0100
,
0001
1000
0100
1000
0001
0010
0001
1000
,
0010
1000
0001
0100
0010
1000
0010
0100
,
0001
1000
0100
0010
0001
1000
0001
0100
,
0001
0100
1000
0100
0001
0100
0001
0010
,
0001
0010
1000
0010
1000
0010
0100
0010
,
0100
0001
0100
1000
0100
1000
0010
1000
,
0010
0001
0010
0001
0010
0100
0010
0100
,
0001
0100
1000
0100
1000
0100
0010
0100
,
0010
1000
0010
1000
0001
1000
0002
0000
,
0000
0013
0100
1000
0100
0010
0001
1000
,
0100
0010
0001
0010
0001
0010
0001
0010
,
0100
1000
0100
1000
0100
1000
0020
0000
,
0000
1030
0001
0100
0010
1000
0010
0100
,
0001
0100
0010
1000
0010
1000
0010
1000
,
0001
0100
0001
0100
0001
0200
0000
0300
;
#NOTES:
     dance-single:
     Renard:
     Challenge:
     11:
     0.994,1.000,1.000,0.000,0.011:
0000
0000
0000
0000
,
0000
0000
0000
0000
,
0000
0000
0000
0000
,
0000
0000
1110
1110
,
0111
0111
1110
1110
,
0111
0111
1110
1110
,
0111
0111
1110
1110
,
0111
0111
1101
1101
,
1011
1011
1101
1101
,
1011
1011
1101
1101
,
1011
1011
1101
1101
,
1011
1011
1100
1100
,
1100
1100
1100
1100
,
0011
0011
0011
0011
,
0011
0011
0101
0101
,
0101
0101
0101
0101
,
1010
1010
1010
1010
,
1010
1010
1100
0011
,
1100
0101
1010
0101
,
1100
0011
1100
0101
,
1010
0101
1100
0011
,
1100
0101
1010
0101
,
1100
0011
1100
0101
,
1010
0000
0101
0000
0001
0100
0010
1000
,
0100
0010
0001
0010
0100
1000
0001
0100
,
0010
1000
0100
0010
0001
0010
0100
1000
,
0010
0100
0001
0010
0100
1000
0100
0010
,
0001
0100
0010
1000
0100
0010
0100
1000
,
0001
0100
0010
0100
0001
0010
0100
0010
,
0100
1000
0001
0100
0000
0000
1100
0000
,
1100
1100
1100
1100
1100
1100
1100
1100
,
1100
1100
0000
0110
0110
0110
0110
0110
,
0110
0000
0110
0000
0011
0000
0000
0000
0000
1001
0000
0000
0000
0000
0101
0000
,
0101
0101
0110
0110
0110
1010
1010
1100
,
1100
1010
0000
1100
1100
1100
1001
1001
,
1001
0000
0101
0000
0101
0000
0011
0000
0011
0000
1001
0000
0000
0101
0000
0000
,
0101
0000
1001
1100
1001
1010
1001
0101
,
0011
1001
1100
1100
0000
1001
1001
0101
,
0101
0011
0011
1001
1001
0110
0000
0000
,
1001
1010
1010
1100
1100
1001
1001
0101
,
0011
1100
0101
1010
1100
0011
0011
0011
,
0110
0110
1100
1100
0011
0110
1001
0110
,
0000
1001
0000
0000
0000
0000
0111
0000
,
0111
1110
1110
0111
,
0111
1110
1110
0111
,
0111
1110
1110
0111
,
0111
1110
1110
1011
,
1011
1101
1101
1011
,
1011
1101
1101
1011
,
1011
1101
1101
1011
,
1011
1101
1101
0011
,
0011
0011
0011
0011
,
0011
1100
1100
1100
,
1100
1100
1100
1010
,
1010
1010
1010
1010
,
1010
0101
0101
0101
,
0101
0101
0101
0011
,
1100
0011
1010
0101
,
1010
0011
1100
0011
,
1010
0101
1010
0011
,
1100
0011
1010
0101
,
1010
0011
1100
0011
,
1010
0000
0101
0000
1010
0000
1000
0010
,
0100
0001
0010
0100
1000
0100
0010
0001
,
1000
0010
0100
0001
0010
0100
1000
0100
,
0010
0001
0100
0010
1000
0100
0010
0001
,
0010
0100
1000
0010
0100
0001
0010
0100
,
0010
0001
1000
0010
0100
0010
1000
0100
,
0010
0100
0010
0001
1000
0010
0000
0000
;
#NOTES:
     dance-single:
     JS:
     Easy:
     8:
     0.549,0.584,0.180,0.117,0.149:
0000
0000
0000
0000
,
0000
0000
0000
0000
,
0000
0000
0000
0000
,
0000
0000
0000
0000
0000
0000
1000
0000
1000
0100
0000
0000
,
0010
0000
0010
0001
0000
0000
0010
0000
0010
0100
0000
0000
,
0012
0000
0000
1003
0000
0000
0001
0000
0001
0100
0000
0000
,
0010
0000
0010
1000
0000
0000
0010
0000
0010
0100
0000
0000
,
2010
0000
0000
3001
0000
0000
1000
0000
1000
0100
0000
0000
,
0010
0000
0010
0100
0000
0000
0010
0000
0010
0001
0000
0000
,
0210
0000
0000
1300
0000
0000
0001
0000
0001
0100
0000
0000
,
0010
0000
0010
0100
0000
0000
0010
0000
0000
0010
1000
0000
,
0001
0000
1000
0000
0001
0000
1000
0000
0000
0000
0000
0000
0001
0000
0000
0000
0000
0000
0100
0000
0000
0010
0000
0000
,
0000
0000
1000
0000
0100
0010
0000
0000
,
0001
0000
0100
0010
0000
0000
1000
0000
,
0100
0010
0000
0000
0001
0000
0010
0100
,
0000
0000
1000
0000
0010
0100
0000
0000
,
0001
0000
0010
0100
0000
0000
1000
0000
,
0010
0100
0000
0000
0001
0100
0001
0100
,
0000
0000
0010
0100
0010
0100
0000
0000
,
0010
1000
0010
1000
0000
0000
0001
1000
,
0001
1000
0000
0000
0001
0010
0001
0010
,
0000
0000
0100
0010
0100
0010
0000
0000
,
0100
1000
0100
1000
0000
0000
0001
1000
,
0001
1000
0000
0000
0001
0000
0001
0000
,
0001
0000
0100
0000
0100
0000
0100
0010
,
1000
1000
1000
0100
,
0100
0000
0100
0010
0001
0000
0001
0000
,
0001
0000
1000
0000
1000
0000
1000
0100
,
0010
0010
0010
0100
,
0100
0000
0000
0000
0000
0000
0000
0000
0000
0000
0000
0000
0000
0000
0000
0000
0100
0000
0000
0000
0000
0000
0000
0000
2000
0000
0000
0000
0000
0000
0000
0000
0002
3003
0000
0000
0000
0000
0000
0000
0000
0000
0000
0000
0000
0000
0000
0000
0110
0000
0000
0000
0000
0000
0000
0000
0000
0000
0000
0000
0000
0000
0000
0000
,
1000
1000
0001
0000
1000
1000
0001
0000
,
0101
0101
1000
0000
0001
0001
1000
0000
,
0001
0001
1000
0010
0000
0010
0000
1000
,
0000
0100
0100
1000
0000
0100
0100
1000
,
0110
0110
0010
0001
0000
1000
1000
0001
,
0000
0100
0100
0001
0000
1000
0000
0000
,
1001
0000
0001
0001
1000
0000
0001
0001
,
1000
0000
1010
1010
0001
0000
1000
1000
,
0001
0000
1000
1000
0001
0100
0000
0100
,
0000
0001
0000
0010
0010
0001
0000
0010
,
0010
0001
0110
0110
0100
1000
0000
0001
,
0001
1000
0000
0010
0010
1000
0000
0001
,
0000
0000
0000
0000
0000
0000
0000
0000
0000
0000
0000
0000
0000
0000
0000
0000
0000
0000
0000
0000
0000
0000
0000
0000
0000
0000
0000
0000
0000
0000
0000
0000
0000
0000
0000
0000
0000
0000
0000
0000
0000
0000
0000
0000
0000
0000
0000
0000
2002
0000
0000
3003
0000
0000
0000
0000
0000
0000
0000
0000
0000
0000
0000
0000
0000
0000
0000
0000
0000
0000
0000
0000
0000
0000
0000
0000
0000
0000
0000
0000
0000
0000
0000
0000
0000
0000
0000
0000
0000
0000
0000
0000
0000
0000
0000
0000
0000
0000
0000
0000
0000
0000
0000
0000
0000
0000
0000
0000
0000
0000
0000
0000
0000
0000
0000
0000
0000
0000
0000
0000
0000
0000
0000
0000
0000
0000
0000
0000
0000
0000
0000
0000
0000
0000
0000
0000
0000
0000
0000
0000
0000
0000
0000
0000
0001
0000
0000
0000
0000
0000
0000
0000
0000
0000
0000
0000
0000
0000
0000
0000
0000
0000
0000
0000
0000
0000
0000
0000
0000
0000
0000
0000
0000
0000
0000
0000
0001
0000
0000
0000
0000
0000
0000
0000
0000
0000
0000
0000
0000
0000
0000
0000
,
0010
0000
0000
0100
0000
0100
1000
0000
0000
0100
0000
0100
,
0010
0000
0000
2100
0000
0000
3001
0000
0000
1000
0000
1000
,
0010
0000
0000
0100
0000
0100
0001
0000
0000
0100
0000
0100
,
0010
0000
0000
0102
0000
0000
1003
0000
0000
0001
0000
0001
,
0010
0000
0000
0100
0000
0100
0010
0000
0000
0100
0000
0100
,
1000
0000
0000
0120
0000
0000
0031
0000
0000
1000
0000
1000
,
0010
0000
0000
0100
0000
0100
0010
0000
0000
0100
0000
0000
,
0100
0001
0000
1000
0001
1000
0001
0000
0000
0100
0000
0000
,
0010
1000
0000
0000
0100
0000
0010
0001
,
0000
0000
0100
0000
0010
1000
0000
0000
,
0100
0000
0010
0001
0000
0000
0010
0000
,
0100
1000
0000
0000
0010
0000
0100
0001
,
0000
0000
0010
0000
0100
1000
0000
0000
,
0010
0000
0100
0001
0000
0000
1000
0010
,
1000
0010
0000
0000
1000
0001
1000
0001
,
0000
0000
0100
0001
0100
0001
0000
0000
,
0100
0010
0100
0010
0000
0000
1000
0100
,
1000
0100
0000
0000
1000
0001
1000
0001
,
0000
0000
0010
0001
0010
0001
0000
0000
,
0010
0100
0010
0100
0000
0000
1000
0000
,
1000
1000
0010
0010
,
0010
0100
0001
0000
0001
0000
0001
0000
,
0100
0000
0100
0000
0100
0010
1000
0000
,
1000
1000
0100
0100
,
0100
0010
0001
0000
0001
0000
0001
0000
,
0010
0000
0010
0000
0010
0200
0000
0300
;
#NOTES:
     dance-single:
     JS:
     Beginner:
     5:
     0.365,0.402,0.085,0.117,0.000:
0000
0000
0000
0000
,
0000
0000
0000
0000
,
0000
0000
0000
0000
,
0000
0000
1000
0100
,
0010
0001
0010
0100
,
0012
1003
0001
0100
,
0010
1000
0010
0100
,
2010
3001
1000
0100
,
0010
0100
0010
0001
,
0210
1300
0001
0100
,
0010
0100
0010
0010
,
0001
0000
1000
0000
0001
0000
0000
0100
,
0000
0000
0010
0000
0000
0100
0000
0000
,
0001
0000
0000
0010
0000
0000
0100
0000
,
0000
0100
0000
0000
1000
0000
0000
0100
,
0000
0000
0010
0000
0000
0100
0000
0000
,
1000
0000
0000
0010
0000
0000
0100
0000
,
0000
0100
0000
0000
0001
0000
0000
0010
,
0000
0000
0100
0000
0000
0010
0000
0000
,
0001
0000
0000
0100
0000
0000
0010
0000
,
0000
0010
0000
0000
1000
0000
0000
0010
,
0000
0000
0100
0000
0000
0010
0000
0000
,
1000
0000
0000
0100
0000
0000
0010
0000
,
0000
0010
0000
0000
0001
0000
0001
0000
,
0001
0000
0100
0000
0000
0100
0000
0000
,
0010
0010
0010
1000
,
0000
1000
0000
0000
0001
0000
0001
0000
,
0001
0000
0010
0000
0000
0010
0000
0000
,
0100
0100
0100
1000
,
0000
0000
0000
0000
0000
0000
0000
0000
1000
0000
0000
0000
0000
0000
0000
0000
0000
0000
0000
0000
0000
0000
0000
0000
0000
0000
0000
0000
0000
0000
0000
0000
2002
3003
0000
0000
0000
0000
0000
0000
0000
0000
0000
0000
0000
0000
0000
0000
0000
0000
0000
0000
0000
0000
0000
0000
0000
0000
0000
0000
0000
0000
0000
0000
,
1000
0001
1000
0001
,
0001
0001
1000
0000
0001
0000
1000
0000
,
0001
0000
1000
0010
0000
0010
0000
1000
,
0000
0100
0000
1000
0000
0100
0000
1000
,
0000
0010
0000
1000
0000
0100
0000
0010
,
0000
0001
0000
1000
0000
0001
0000
0000
,
1000
0001
1000
0001
,
1000
0000
1000
1000
0001
0000
1000
0000
,
0001
0000
1000
0000
0001
0100
0000
0100
,
0000
0001
0000
0010
0000
0001
0000
0100
,
0000
0001
0000
0010
0000
0100
0000
1000
,
0000
0001
0000
0100
0000
0010
0000
1000
,
0000
0000
0000
0000
0000
0000
0000
0000
0000
0000
0000
0000
0000
0000
0000
0000
2002
3003
0000
0000
0000
0000
0000
0000
0000
0000
0000
0000
0000
0000
0000
0000
0000
0000
0000
0000
0000
0000
0000
0000
0000
0000
0000
0000
0000
0000
0000
0000
0001
0000
0000
0000
0000
0000
0000
0000
0000
0000
0000
0000
0000
0000
0000
0000
,
0010
0100
1000
0100
,
0010
2100
3001
1000
,
0010
0100
0001
0100
,
0010
0102
1003
0001
,
0010
0100
0010
0100
,
1000
0120
0031
1000
,
0010
0100
0010
0100
,
0100
1000
0001
1000
,
0000
0010
0000
0000
0100
0000
0000
0010
,
0000
0000
1000
0000
0000
0100
0000
0000
,
0010
0000
0000
0010
0000
0000
0001
0000
,
0000
0010
0000
0000
0100
0000
0000
0010
,
0000
0000
0001
0000
0000
0100
0000
0000
,
0010
0000
0000
0010
0000
0000
1000
0000
,
0000
0100
0000
0000
0010
0000
0000
0100
,
0000
0000
1000
0000
0000
0010
0000
0000
,
0100
0000
0000
0100
0000
0000
0001
0000
,
0000
0100
0000
0000
0010
0000
0000
0100
,
0000
0000
0001
0000
0000
0010
0000
0000
,
0100
0000
0000
0100
0000
0000
1000
0000
,
1000
0000
1000
0000
0010
0000
0000
0010
,
0000
0100
0100
0100
,
0001
0000
0000
0001
0000
0000
1000
0000
,
1000
0000
1000
0000
0100
0000
0000
0100
,
0000
0010
0010
0010
,
0001
0000
0000
0001
0000
0002
0000
0003
;
