#TITLE:Spit On You;
#SUBTITLE:;
#ARTIST:Angerfist;
#TITLETRANSLIT:;
#SUBTITLETRANSLIT:;
#ARTISTTRANSLIT:;
#GENRE:;
#CRChallenge:;
#MENUCOLOR:;
#BANNER:spit.png;
#BACKGROUND:spit-bg.png;
#LYRICSPATH:;
#CDTITLE:;
#MUSIC:spit.ogg;
#OFFSET:0.000;
#SAMPLESTART:68.630;
#SAMPLELENGTH:12.000;
#SELECTABLE:YES;
#LISTSORT:;
#BPMS:0.000=230.000,112.000=115.000,136.000=230.000,292.000=115.000,306.000=230.000;
#STOPS:216.000=1.826
,217.000=0.783
,226.000=0.261
,227.000=0.261
;
#TICKCOUNT:0.000=2;
#BGCHANGES:;
#KEYSOUNDS:;
#ATTACKS:;
#NOTES:
     dance-single:
     Renard:
     Medium:
     9:
     0.709,0.837,0.386,0.135,0.063:
0000
0000
0000
0000
,
0000
0000
0000
0000
,
0000
0000
0000
0000
,
0000
0000
0000
0000
,
0000
0000
0000
0000
,
0000
0000
0000
0000
,
0000
0000
0000
0000
,
0000
0000
0000
0000
,
0001
1000
0100
1000
0000
1000
0001
0100
,
0001
1000
0100
1000
0000
1000
0001
0100
,
0001
1000
0100
1000
0000
0001
1000
0100
,
1000
0000
1000
0000
0001
0010
0100
1000
,
0001
0100
0001
0000
1000
0100
1000
0000
,
0001
0010
0100
1000
0100
0010
0001
0000
,
1000
0010
1000
0000
0001
0010
0001
0000
,
1000
0100
0010
0001
0010
0100
1000
0000
,
0001
0100
0001
0000
1000
0100
1000
0000
,
0001
0100
0001
1000
0100
0010
0001
0000
,
1000
0010
1000
0000
0001
0100
0001
0000
,
1000
0100
1000
0001
0010
0100
1000
0000
,
1100
0000
1010
0000
1000
0100
0010
0001
,
0100
0000
0011
0000
0001
0100
0010
1000
,
0100
0000
1010
0000
1000
0100
0010
0001
,
1000
0010
0100
0000
0001
0000
1000
1000
,
0001
0010
0100
1000
0001
0000
0101
0000
,
0001
1000
0100
0010
0001
0000
1100
0000
,
1000
0010
0100
0001
0010
0100
1000
0001
,
2000
0001
0000
3001
,
1000
0000
0001
0000
1001
0000
0000
0001
0100
0010
1000
0000
1001
0000
0000
0000
,
1000
0000
0001
0000
1001
0000
0000
1000
0100
0010
0001
0000
1001
0000
0000
0000
,
0001
0000
1000
0000
1001
0000
0000
0001
0010
0100
1000
0000
1001
0000
0000
0000
,
1000
0000
0001
0000
1001
0000
0000
1000
0010
0100
0001
0000
1001
0000
0000
0000
,
0001
0000
0100
0000
0101
0000
0000
0001
0100
0010
0000
0000
0110
0000
0000
0000
,
0010
0000
1000
0000
1100
0000
0000
1000
0100
0010
0000
0000
0110
0000
0000
0000
,
1002
0000
0010
0000
0000
0100
0000
0000
,
1000
0000
0000
0100
0100
0000
1003
0000
,
0210
0001
0010
1000
,
0010
0001
1000
0310
,
111M
0000
M111
0000
,
1M11
0000
11M1
0000
,
0011
0000
0011
0000
1000
0100
0010
0001
,
0010
0100
1000
0001
0010
0000
0010
0000
,
1M11
0000
11M1
0000
,
1MM1
0010
1MM1
0100
,
MM1M
MM1M
0200
0302
,
0023
0000
2030
0000
3020
0000
0031
0010
,
0100
1000
0100
0010
0001
1000
0010
0100
,
0001
0100
0010
1000
0001
0010
0100
1000
,
0100
0010
0001
1000
0010
0100
0001
0100
,
0010
1000
0001
0010
0100
1000
2000
0000
,
3001
0010
0001
0000
0100
0001
0100
0000
,
0001
1000
0001
0000
1000
0100
1000
0000
,
0100
1000
0001
0010
0000
0010
0001
1000
,
0200
0020
0000
0000
0000
0000
0000
0000
,
1001
1331
0010
0010
,
0100
1000
0001
0010
0001
1000
0100
1000
,
0000
1000
0010
0100
0001
0000
000M
0000
,
0001
1000
0100
0010
0001
0010
0100
1000
,
0010
0100
0001
0010
0100
1000
0010
0100
,
0001
0010
0100
0010
0001
0100
0010
1000
,
0100
0010
0100
1000
0010
0100
0001
0000
,
1000
0100
0010
0001
0010
0100
1000
0010
,
0100
0001
0010
0100
0010
0001
0100
0010
,
1000
0100
0010
0100
1000
0010
0100
0001
,
1000
0100
0010
0001
1000
0001
1000
0000
,
0001
1000
0000
1001
0000
1000
0010
0100
,
0001
0010
0100
1000
0001
0010
0100
0000
,
1000
0100
0000
1100
0000
1000
0010
0100
,
0001
0010
0100
1000
0100
0010
0001
0000
,
0010
0001
0000
0011
0000
0010
0100
1000
,
0001
0100
0010
1000
0100
0010
0001
0000
,
1000
0000
1000
0000
0001
0001
0010
0010
,
0100
0100
0100
0100
,
1000
2000
0100
0100
0010
0010
0001
0001
,
0100
0100
0010
0000
3110
0000
0000
0000
,
0002
0000
0100
0100
0010
0010
1000
1000
,
0100
0010
1000
0000
0113
0000
0000
0000
;
#NOTES:
     dance-double:
     :
     Beginner:
     1:
     0.381,0.718,0.427,0.021,0.000:
00000000
00000000
00000000
00000000
,
00000000
00000000
00000000
00000000
,
00000000
00000000
00000000
00000000
,
00000000
00000000
00000000
00000000
,
00000000
00000000
00000000
00000000
,
00000000
00000000
00000000
00000000
,
00000000
00000000
00000000
00000000
,
00000000
00000000
00000000
00000000
,
00011000
00000000
00000000
00000000
,
00100010
00000000
00000000
00000000
,
01000100
00000000
00000000
00000000
,
00011000
00000000
00000000
00000000
,
00010000
00001000
00010000
00000100
,
00010000
00001000
01000000
00001000
,
00010000
00001000
00010000
00000100
,
00010000
00001000
01000000
00001000
,
00010000
00001000
00010000
00000100
,
00010000
00001000
01000000
00001000
,
00010000
00001000
00010000
00000100
,
01000000
00000000
00000000
00000000
,
00001000
10000000
00000000
10000000
,
00001000
00010000
00000001
00000000
,
00010000
00001000
00000000
10000000
,
00001000
00010000
00000001
00000000
,
00010000
00001000
00000000
10000000
,
00001000
00010000
00000001
00000000
,
00010000
00001000
10000000
00001000
,
00010000
00000000
00000000
00000000
,
00100100
00000010
00100100
00000010
,
00100100
01000000
00100100
01000000
,
00100100
00000010
00100100
00000010
,
00100100
01000000
00100100
01000000
,
00100100
00000010
00100100
00000010
,
00100100
01000000
00100100
01000000
,
00011000
00000000
00000000
00000000
,
00000000
00000000
00000000
00000000
,
00011000
10000001
00000000
00000000
,
00000000
00000000
00000000
00000000
,
00010000
00001000
00010000
00000100
,
00010000
00001000
01000000
00001000
,
00010000
00001000
00010000
00000100
,
00010000
00000000
00001000
00000000
,
00011000
00000000
01000100
00000000
,
00100010
00000000
00011000
00000000
,
00001000
00001000
00001000
00001000
,
01000000
00000000
00000000
00000000
,
00001000
10000000
00000000
10000000
,
00001000
00010000
00000001
00000000
,
00010000
00001000
00000000
10000000
,
00001000
00010000
00000001
00000000
,
00010000
00001000
00000000
10000000
,
00001000
00010000
00000001
00000000
,
00010000
00001000
10000000
00001000
,
00010000
00000000
00000000
00000000
,
00200200
00301300
00000000
00000000
,
00000000
00000000
00011000
00000000
,
00100100
00000000
01000010
00000000
,
00000100
00010000
00001000
01000000
,
00001000
00010000
00000100
00010000
,
00001000
01000000
00001000
00010000
,
00000100
00010000
00001000
01000000
,
00001000
00010000
00000100
00010000
,
00001000
01000000
00001000
00010000
,
00000100
00010000
00001000
01000000
,
00001000
00010000
00000100
00010000
,
00001000
00100000
00001000
00010000
,
00000010
00010000
00001000
00100000
,
00001000
00010000
00000010
00010000
,
00001000
00100000
00001000
00010000
,
00000010
00010000
00001000
00100000
,
00001000
00010000
00000010
00010000
,
00001000
00100000
00001000
00010000
,
00000010
00010000
00001000
00100000
,
00001000
01000010
00100100
01000010
,
00100100
01000010
00100100
00011000
,
01000010
00100100
01000010
00100100
,
01000010
00100100
01000010
00000000
;
#NOTES:
     dance-single:
     JS:
     Easy:
     7:
     0.459,0.558,0.135,0.052,0.000:
0000
0000
0000
0000
,
0000
0000
0000
0000
,
0000
0000
0000
0000
,
0000
0000
0000
0000
,
0000
0000
0000
0000
,
0000
0000
0000
0000
,
0000
0000
0000
0000
,
0000
0000
0000
0000
,
1000
0000
1000
0001
0000
0001
0000
0000
,
0100
0000
0100
0001
0000
0001
0000
0000
,
0010
0000
0010
0001
0000
0001
0000
0000
,
0100
0100
0010
0000
,
1000
0100
0010
0100
,
1000
0100
0010
0001
,
1000
0010
0100
0010
,
1000
0010
0100
0001
,
1000
0001
0100
0001
,
1000
0001
0100
0010
,
1000
0001
0010
0001
,
1000
0000
0100
0010
0000
0010
0000
0000
,
0001
0100
0010
0100
,
0001
0100
0010
1000
,
0001
0010
0100
0010
,
0001
0010
0100
1000
,
0001
1000
0100
1000
,
0001
1000
0100
0010
,
0001
1000
0010
1000
,
0001
0001
0000
0000
,
1000
0100
1000
0000
1000
0100
1000
0000
,
1000
0100
0010
0000
0100
0010
0001
0000
,
0001
0100
0001
0000
0001
0100
0001
0000
,
0001
0100
0010
0000
0100
0010
1000
0000
,
0001
0001
0010
0000
0100
0100
1000
0000
,
0001
0100
0010
1000
0100
0010
0001
0000
,
1000
0000
0100
0000
0000
0100
0000
0000
,
0100
0000
0000
0100
0100
0000
0010
0000
,
0011
0011
0010
0100
,
1000
1000
0001
0100
,
0101
0000
1010
0000
,
0101
0101
1010
0000
,
0001
0010
0100
1000
,
0100
0010
0001
1000
,
1100
0000
0011
0000
,
1100
1100
0011
0000
,
1000
0010
0100
0001
,
0100
0010
1000
0001
,
1000
0000
0100
0000
1000
0100
1000
0000
,
0001
0000
0010
0000
0001
0010
0001
0000
,
1000
0000
0010
0000
1000
0010
1000
0000
,
0010
0000
0010
0100
0000
0100
0001
0000
,
1000
0100
0010
0001
,
1000
0010
0100
0001
,
1000
0100
0010
0100
,
1000
0001
0100
0010
,
2002
0000
0000
0000
0000
0000
0000
0000
0000
0000
0000
0000
0000
0000
0000
0000
0010
3003
0000
0000
0000
0000
0000
0000
0000
0000
0000
0000
0000
0000
0000
0000
1000
0000
0000
0000
0000
0000
0000
0000
0000
0000
0000
0000
0000
0000
0000
0000
0001
0000
0000
0000
0000
0000
0000
0000
0000
0000
0000
0000
0000
0000
0000
0000
,
0000
0000
1000
0010
,
0100
0000
0000
0000
0000
0000
0000
0000
0000
0000
0000
0000
0000
0000
0000
0000
0001
0000
0000
0000
0000
0000
0000
0000
0000
0000
0000
0000
0000
0000
0000
0000
2000
0000
0000
0000
0000
0000
0000
0000
0000
0000
0000
0000
0000
0000
0000
0000
0002
3003
0000
0000
0000
0000
0000
0000
0000
0000
0000
0000
0000
0000
0000
0000
,
1000
0000
0100
1000
0000
0100
1000
0000
,
0001
0010
0100
1000
,
0001
0000
0100
0001
0000
0100
0001
0000
,
1000
0010
0100
0001
,
1000
0000
0010
0100
0000
0010
0100
0000
,
0001
0100
0010
1000
,
0001
0000
0010
0100
0000
0010
0100
0000
,
1000
0100
0010
0001
,
1000
0000
0001
1000
0000
0001
1000
0000
,
0010
0100
0001
0100
,
0001
0000
1000
0001
0000
1000
0001
0000
,
0010
0100
1000
0100
,
0010
0000
0001
0100
0000
0001
0100
0000
,
0010
0100
0001
1000
,
0020
0000
1000
0000
,
0100
0100
0100
0130
,
0001
0100
0010
0000
1000
0010
0100
0000
,
0001
0010
0100
1000
0001
0000
0000
0000
,
0000
0000
1000
0000
0100
0010
0001
0010
,
0001
0100
0010
0000
1000
0000
0000
0000
;
#NOTES:
     dance-single:
     JS:
     Beginner:
     4:
     0.259,0.399,0.094,0.000,0.000:
0000
0000
0000
0000
,
0000
0000
0000
0000
,
0000
0000
0000
0000
,
0000
0000
0000
0000
,
0000
0000
0000
0000
,
0000
0000
0000
0000
,
0000
0000
0000
0000
,
0000
0000
0000
0000
,
1001
0000
0000
0000
,
1001
0000
0000
0000
,
0110
0000
0000
0000
,
0100
0000
0000
0000
,
1000
0000
0100
0000
,
0010
0000
0100
0000
,
1000
0000
0100
0000
,
0010
0000
0001
0010
,
0001
0000
0100
0000
,
0010
0000
0100
0000
,
0001
0000
0100
0000
,
0010
0000
1000
0010
,
1000
0000
0001
0000
,
0100
0000
0001
0000
,
1000
0000
0001
0000
,
0100
0000
0001
1000
,
0001
0000
1000
0000
,
0100
0000
1000
0000
,
0001
0000
1000
0000
,
0001
0001
0000
0000
,
1000
0100
1000
0100
,
0010
0010
0001
1000
,
0001
0100
0001
0100
,
0010
0010
1000
0001
,
1000
0100
0010
0100
,
1000
1000
0001
0100
,
1001
0000
0000
0000
,
0000
0000
0000
0000
,
0110
0110
0000
0000
,
0000
0000
0000
0000
,
1000
0000
0001
0000
,
0100
0100
0100
0000
,
0001
0000
0100
0000
,
0010
0000
1000
0000
,
0001
0000
1000
0000
,
0100
0100
0100
0000
,
1000
0000
0100
0000
,
0010
0000
0001
0000
,
1000
1000
1000
0000
,
0010
0010
0010
0000
,
0100
0100
0100
0000
,
0001
0100
0001
0000
,
0001
0001
0001
0000
,
0010
0010
0010
0000
,
0100
0100
0100
0000
,
1001
0000
0000
0000
,
0110
1001
0000
0000
,
0000
0000
1000
0000
,
0000
0000
0001
1000
,
0001
0000
0100
0000
,
0001
0000
0100
0000
,
0010
0000
1000
0000
,
0010
1000
0010
1000
,
0001
0000
0010
0000
,
0001
0000
0010
0000
,
0100
0000
1000
0000
,
0100
1000
0100
1000
,
0010
0000
0100
0000
,
0010
0000
0100
0000
,
0001
0000
0010
0000
,
0001
0010
0001
0010
,
0100
0000
0010
0000
,
0100
0000
0010
0000
,
0100
0000
1000
0000
,
0010
0010
0010
0010
,
1000
0100
0010
0001
,
0100
0010
1000
0000
,
0001
0100
0010
1000
,
0100
0010
0001
0000
;
