#TITLE:Speed Strike;
#SUBTITLE:;
#ARTIST:Kitsune?;
#TITLETRANSLIT:;
#SUBTITLETRANSLIT:;
#ARTISTTRANSLIT:;
#CRChallenge:;
#BANNER:strike.png;
#BACKGROUND:strike-bg.png;
#LYRICSPATH:;
#CDTITLE:;
#MUSIC:strike.ogg;
#OFFSET:0.000;
#SAMPLESTART:37.920;
#SAMPLELENGTH:12.000;
#SELECTABLE:YES;
#DISPLAYBPM:200.000;
#BPMS:0.000=200.000,16.000=400.000,17.000=200.000,23.000=400.000,25.000=200.000,26.500=400.000,27.000=200.000,27.500=400.000,28.000=200.000,29.000=400.000,32.000=200.000,63.000=800.000,65.000=400.000,66.000=200.000,97.000=800.000,99.000=400.000,100.000=200.000,131.000=800.000,133.000=400.000,134.000=200.000,165.000=800.000,167.000=400.000,168.000=200.000,182.000=400.000,183.000=800.000,185.000=400.000,186.000=200.000,201.000=800.000,203.000=400.000,204.000=200.000,237.000=800.000,239.000=400.000,240.000=200.000,256.000=400.000,257.000=800.000,259.000=400.000,260.000=200.000,265.000=400.000,267.000=200.000,268.000=400.000,270.000=200.000,271.000=400.000,273.000=200.000,274.000=400.000,276.000=200.000,276.500=400.000,277.500=200.000,279.500=400.000,280.000=200.000,280.500=400.000,282.500=200.000,283.500=400.000,284.000=200.000,285.000=400.000,286.000=200.000,286.500=400.000,287.500=200.000,288.000=400.000,289.000=200.000,290.000=400.000,290.500=200.000,291.000=400.000,293.000=100.000,293.500=400.000,295.500=100.000,296.000=200.000,296.500=400.000,297.000=200.000,297.500=400.000,299.500=200.000,303.500=400.000,304.000=200.000,305.000=400.000,308.000=200.000,323.000=800.000,325.000=400.000,326.000=200.000,338.000=400.000,342.000=800.000,346.000=200.000;
#STOPS:16.000=0.150
,23.000=0.075
,23.500=0.075
,24.000=0.150
,26.500=0.075
,27.500=0.075
,29.000=0.037
,29.250=0.037
,29.500=0.038
,29.750=0.037
,30.000=0.075
,30.500=0.075
,31.000=0.150
,182.000=0.075
,182.500=0.075
,256.000=0.075
,256.500=0.075
,274.000=0.075
,274.500=0.075
,275.000=0.150
,276.500=0.150
,279.500=0.075
,280.500=0.075
,281.000=0.038
,281.250=0.037
,281.500=0.037
,281.750=0.037
,282.000=0.075
,283.500=0.075
,285.000=0.075
,285.500=0.075
,286.500=0.075
,287.000=0.075
,288.000=0.037
,288.250=0.038
,288.500=0.038
,288.750=0.037
,290.000=0.037
,290.250=0.038
,296.500=0.075
,297.500=0.075
,298.000=0.038
,298.250=0.037
,298.500=0.037
,298.750=0.037
,299.000=0.075
,303.500=0.075
,305.000=0.037
,305.250=0.038
,305.500=0.038
,305.750=0.037
,306.000=0.037
,306.250=0.037
,306.500=0.038
,306.750=0.038
,307.000=0.037
,307.250=0.037
,307.500=0.075
,337.000=1.200
;
#BGCHANGES:;
#NOTES:
     dance-single:
     Renard:
     Challenge:
     14:
     1.000,1.000,1.000,0.051,0.665:
0000
0000
0000
0000
,
0000
0000
0000
0000
,
0000
0000
0000
0000
,
0000
0000
0000
0000
,
1001
0000
0000
0000
0010
0000
1001
0000
0000
0000
0001
0000
1000
0100
0010
0000
,
0001
0000
0001
0000
1000
0000
1000
0000
0001
0100
0010
1000
0001
0000
1001
0000
,
0110
0000
0000
0000
1010
0000
0000
0010
0100
0000
0010
0000
1001
0000
0100
0000
,
0010
0000
1000
0000
0001
0100
0010
1000
0001
0000
0110
0000
1001
0000
0000
0000
,
1001
0000
0100
0001
0000
1100
0000
1001
,
0000
1000
0001
0000
0101
0000
1001
0000
,
1100
0000
1000
0001
0000
0101
0000
1001
,
0000
1000
0100
0000
1001
0000
0101
0000
,
1001
0000
1000
0010
0000
1001
0000
0011
,
0000
0001
1000
0000
1010
0000
1001
0000
,
1001
0000
0001
0010
0000
1001
0000
1010
,
0000
1000
0001
0000
0011
0000
1011
0000
,
0000
0000
0000
0000
0000
0000
0000
0000
1001
0000
0000
0000
0001
0010
0100
1000
,
0001
0000
0000
0000
1010
0000
0101
0000
0000
0000
0010
1000
0001
0100
0010
0000
,
1000
0010
1000
0000
0001
0100
0001
0000
1000
0000
0100
0000
0010
0100
1000
0001
,
0010
0000
0011
1100
1000
0001
0110
0110
,
0000
0000
0010
1000
0001
0100
0010
1000
0001
0000
0100
0000
0010
1000
0001
0010
,
0100
0000
1000
0000
0110
0000
0011
0000
0100
0000
1000
0100
0010
0001
1000
0000
,
0001
0100
0010
0000
1000
0010
0100
0000
0010
0000
0001
0000
0010
0100
1000
0100
,
0010
0100
0101
1010
0100
0001
0011
1100
,
0000
0000
0100
0010
0001
0000
0000
0000
0000
0000
0000
0000
0000
0000
0000
0000
,
1000
0000
0100
0010
0001
0000
0011
0000
1100
0000
0000
1001
0000
0000
0110
0000
,
0000
0000
0000
0000
0000
0000
0010
0000
1000
0000
0010
0000
1000
0000
0000
0000
0000
0000
0100
0000
0000
0000
0000
0000
0011
0000
0000
0000
0000
0000
0000
0000
0000
1100
0000
0000
0000
0000
0000
0010
0000
0000
0001
0000
0000
0000
0000
0000
,
1000
0000
0001
0100
0001
0000
0101
0000
0010
0000
0010
1000
0000
1000
0010
0000
,
0000
0000
1001
0000
0100
0000
0010
0000
1000
0000
0000
0101
0000
0010
1000
0000
,
0001
0000
0010
0100
1000
0000
1100
0000
0011
0000
0000
1001
0000
0000
0110
0000
,
0000
0000
0000
0000
0000
0000
0100
0000
0001
0000
0100
0000
0001
0000
0000
0000
0000
0000
0010
0000
0000
0000
0000
0000
1100
0000
0000
0000
0000
0000
0000
0000
0000
0011
0000
0000
0000
0000
0000
0100
0000
0000
1000
0000
0000
0000
0000
0000
,
0001
0000
1000
0010
1000
0000
1010
0000
0100
0000
0100
0001
0000
0001
0100
0000
,
0000
1001
0010
0100
0001
0100
1001
0000
,
0000
0000
0000
0000
0001
0100
0101
0010
,
1000
0000
1010
0000
0000
0000
1001
0000
0000
0000
0100
0000
0001
0001
0100
0000
,
0010
1000
0001
0010
1000
0000
0010
0000
0001
0000
0000
0000
1000
0100
0010
0001
,
1000
0000
0001
0100
1000
0000
0100
0000
0010
1000
0001
0000
1000
0001
0010
0000
,
0001
0010
1000
0010
0001
0000
0000
0000
1000
0000
0010
0000
1010
0000
0100
0000
,
0001
0000
0101
0000
0000
0000
1001
0000
0000
0000
0010
0000
1000
1000
0010
0000
,
0100
0001
1000
0100
0001
0000
0100
0000
1000
0000
0000
0000
0001
0010
0100
1000
,
0001
0000
1000
0010
0001
0000
0010
0000
0100
0001
1000
0000
0001
1000
0100
0000
,
1000
0100
0001
0100
1000
0000
0000
0000
0000
0000
0000
0000
0000
0000
0000
0000
,
0001
0000
1000
0000
0100
0010
0001
0010
0100
0000
0000
0000
1000
0000
0001
0000
,
0000
0000
0010
0100
1000
0001
0010
0000
0010
0100
1000
0000
1000
0100
0010
0000
,
0001
0000
0000
0000
1000
0001
0100
0010
1000
0000
0000
0000
0010
0000
0100
0000
,
0110
0001
1000
0110
1001
0110
1001
0000
,
0000
0000
0000
0000
0000
0000
0000
0000
0001
0000
0001
0000
0010
1000
0010
0001
,
0010
0000
0100
0000
0010
0000
0001
0000
0010
0000
0100
0001
0100
1000
0100
0000
,
0010
0001
0010
0000
0001
0100
0001
0000
0100
0000
1000
0000
0100
0001
0100
1000
,
0100
0010
1000
0010
0100
0001
0100
0110
,
1000
0010
0101
0000
0000
0000
0000
0000
,
0001
0100
0001
0100
1000
0100
1000
0100
,
0001
0010
0001
0010
1000
0010
1000
0010
,
0001
0100
1000
0100
0001
0010
1000
0010
,
0100
1000
0100
0001
0100
1000
0010
0001
,
0010
1000
0010
1000
0010
0001
0010
0001
,
1000
0100
1000
0100
0001
0100
0001
0100
,
0010
1000
0100
0001
0100
0010
0001
0010
,
1000
0010
0100
1000
0010
0100
1001
0000
,
1001
1011
0000
0000
,
0001
0010
0100
1000
0100
0010
0001
1000
0001
0100
0001
0100
0010
0000
0000
0000
,
1000
0000
1000
0010
0100
0000
0010
0000
1010
0000
0000
0000
0101
0000
0000
0000
,
0210
0000
0001
0000
0000
0000
0310
0000
0000
0000
1000
0010
0100
0000
0100
0010
,
1000
0010
0100
0001
0010
0000
0100
0000
1000
0000
1000
0000
0001
0000
0001
0000
,
0110
0110
1001
0000
0000
0000
0000
0000
,
0001
0010
0100
0000
1000
0000
0001
0000
0100
0000
0010
0100
0010
0000
0100
0000
,
0010
1000
0101
0000
0000
0000
0010
1000
,
0101
0000
0000
0000
0010
1000
0101
0000
,
0000
0000
0010
1000
0101
1001
1100
0000
,
0010
0000
1001
0000
0000
0000
0100
0000
0001
0010
1000
0000
0010
0000
0011
0000
,
0001
0000
0101
0000
0010
1000
0010
1000
0010
0000
0100
0000
0010
0000
1001
0000
,
0100
0100
1010
1001
0100
0011
1001
0100
,
0001
0100
0010
1000
0001
0010
0001
0010
0001
0010
0100
1000
2200
0000
0000
0000
,
0000
0000
3310
2002
0000
0000
0000
3013
,
0000
0000
0101
0000
0010
0000
1001
0000
1000
0100
0010
0001
0010
0000
1000
0000
,
0010
0000
0001
0000
1000
0000
0010
0010
0100
0000
0100
0000
0001
0000
0101
0000
,
0010
0000
1000
0000
0100
0010
0001
1000
0001
0010
0100
1000
0010
0100
0001
0000
,
1001
0000
0000
0000
1000
0100
0010
0001
1000
0000
0000
0000
0101
0000
1010
0000
,
0000
0000
0100
0001
1000
0010
0100
0000
0001
0100
0001
0000
1000
0010
1000
0000
,
0001
0000
0010
0000
0100
0010
0001
1000
0100
0000
0000
0000
1100
0000
0011
0000
,
0001
0000
1000
0000
0110
0000
0110
0000
0100
0001
1000
0010
0100
0000
0000
0000
,
0000
0000
0000
0000
0000
0000
0000
0000
1010
0000
0100
0000
0001
0100
0010
1000
,
0100
0000
0010
0000
0011
0000
1100
0000
1000
0000
0010
0100
0001
0100
0010
0000
,
1000
0010
0100
0000
0100
0010
1000
0000
0101
0000
1010
0000
1000
0100
0010
0001
,
1000
0100
1001
0000
0001
0010
1000
0010
,
0001
0100
1000
0100
0001
0000
0000
0000
,
0000
0000
1011
0000
;
#NOTES:
     dance-single:
     Renard:
     Medium:
     10:
     0.845,0.885,0.307,0.000,0.404:
0000
0000
0000
0000
,
0000
0000
0000
0000
,
0000
0000
0000
0000
,
0000
0000
0000
0000
,
0001
0000
1000
0100
0000
0010
0001
0010
,
0100
1000
0010
0100
0001
1000
0001
0001
,
1000
0000
0010
0100
0001
1000
0001
0100
,
0010
0000
1000
0000
0001
0100
0001
0100
0001
0000
0001
0000
1000
0000
0000
0000
,
0101
0000
0010
1000
0000
1010
0000
0101
,
0000
0001
0010
0000
1100
0000
0011
0000
,
1001
0000
0001
0100
0000
1010
0000
0101
,
0000
0001
0010
0000
1100
0000
0011
0000
,
1100
0000
1000
0010
0000
0101
0000
1010
,
0000
0001
0100
0000
0011
0000
1100
0000
,
0011
0000
0001
0100
0000
0011
0000
1100
,
0000
1000
0010
0000
1100
0000
1001
0000
,
0000
0000
0000
0000
0000
0000
0000
0000
1000
0000
0000
0000
0001
0100
0001
0100
,
0001
0000
0000
0000
0100
0000
0010
0000
0000
0000
1000
0100
1000
0100
1000
0000
,
0001
0000
1000
0000
0010
0000
0100
0000
0000
0000
0000
0000
0001
0010
0001
0010
,
0001
0000
0010
0100
1000
0001
0100
0010
,
0000
0000
1000
0000
0001
0000
0100
0000
0000
0000
0000
0000
0010
1000
0010
1000
,
0010
0000
0000
0000
1000
0000
0001
0000
0000
0000
0100
0001
0100
0001
0100
0000
,
0001
0000
0010
0000
0100
0000
1000
0000
0001
0000
0100
0000
0010
1000
0010
1000
,
0010
1000
0100
0010
0001
0010
0100
1000
,
0000
0001
0100
0000
0000
0000
0000
0000
,
0001
0000
1000
0100
0010
0000
0001
0000
1000
0000
0000
1000
0000
0000
0100
0000
,
0000
0000
0010
0001
1000
0000
0001
0000
0100
0000
0000
0010
0000
0010
0100
0000
,
0000
0000
0010
1000
0010
0000
0100
0000
0001
0000
0001
1000
0000
1000
0010
0000
,
0000
0000
0100
0000
0001
0000
1000
0000
0100
0000
0010
0001
0000
0010
0100
0000
,
1000
0000
0001
0010
0100
0000
1000
0000
0001
0000
0000
0001
0000
0000
0010
0000
,
0000
0000
0100
1000
0001
0000
1000
0000
0010
0000
0000
0100
0000
0100
0010
0000
,
0000
0000
0100
0001
0100
0000
0010
0000
1000
0000
1000
0001
0000
0001
0100
0000
,
0000
0010
1000
0001
0010
0100
1001
0000
,
0000
0000
0000
0000
0001
0000
1000
0100
,
0010
0000
0001
0000
0000
0000
1000
0000
0000
0000
0001
0000
0100
0001
0100
0000
,
0010
1000
0100
0010
0000
0000
0001
0010
,
0100
0000
1000
0000
0001
0000
0100
0000
0010
1000
0010
0000
1000
0000
0100
0000
,
0010
0001
0010
0001
0010
0000
0001
0000
1000
0000
0000
0000
0001
0000
0010
0000
,
0100
0000
1000
0000
0000
0000
0001
0000
0000
0000
1000
0000
0010
1000
0010
0000
,
0100
0001
0010
0100
0000
0000
1000
0100
,
0010
0000
0001
0000
1000
0000
0010
0000
0100
0001
0100
0000
0001
0000
0010
0000
,
0100
1000
0100
1000
0100
0000
0000
0000
0000
0000
0000
0000
0000
0000
0000
0000
,
1000
0000
0000
0000
0001
0100
0001
0100
0001
0000
0000
0000
0100
0000
0010
0000
,
0000
0000
1000
0100
1000
0100
1000
0000
0001
1000
0001
0000
1000
0010
1000
0000
,
0000
0000
0000
0000
0001
0100
0001
0100
0001
0000
0000
0000
1000
0000
1000
0000
,
0001
0001
0100
0100
0010
0010
1001
0000
,
0000
0000
0000
0000
0000
0000
0000
0000
0001
0000
0000
0000
1000
0100
1000
0100
,
1000
0000
0000
0000
0001
0000
0010
0000
0000
0000
0100
1000
0100
1000
0100
0000
,
1000
0001
1000
0000
0001
0100
0001
0000
0000
0000
0000
0000
0100
0010
0100
0010
,
0100
0000
0010
1000
0100
0010
0001
0010
,
0000
0100
1000
0000
0000
0000
0000
0000
,
0001
0100
1000
0000
0001
0100
1000
0000
,
0001
0100
1000
0000
0001
0100
1000
0000
,
0001
0010
1000
0000
0001
0010
1000
0000
,
0001
0010
1000
0000
0001
0010
1000
0000
,
0001
0100
1000
0000
0001
0100
1000
0000
,
0001
0100
1000
0000
0001
0100
1000
0000
,
0001
0010
1000
0000
0001
0010
1000
0000
,
0001
0100
1000
0001
0010
1000
0001
0000
,
1000
0000
0000
0001
0000
0000
0000
0000
,
0100
0010
1000
1000
0001
0000
0100
0000
,
0010
1000
0100
0010
0001
0000
0010
0100
,
1000
0001
0100
0010
0000
0010
1000
0100
,
0010
0001
0010
0100
1000
0000
1001
0000
,
0100
0010
1000
0000
0000
0000
0000
0000
,
0001
0000
0100
0000
0010
1000
0100
0010
,
0001
1000
1001
0000
0000
0000
0100
0001
,
1001
0000
0000
0000
0100
0001
1001
0000
,
0000
0000
1000
0100
0010
0001
1000
0000
,
0001
0001
0000
0100
0010
1000
0001
0001
,
0100
0000
0100
0000
0010
1000
0010
1000
0010
0000
0100
0000
0000
0000
0010
0000
,
1000
0001
0100
0100
0010
0010
1000
0001
,
0100
0001
0100
0001
0100
0000
0001
0000
1000
0100
1000
0000
0100
0000
0000
0000
,
0000
0000
1001
0010
0000
0000
0000
1001
,
0001
0000
0100
0000
0001
0000
0100
0000
0010
1000
0010
1000
0010
0000
1000
0000
,
0001
0001
0100
0100
0010
0010
1000
1000
,
0010
0000
0100
0000
0001
1000
0001
1000
0001
1000
0001
1000
0001
0000
1000
0000
,
0001
0000
0000
0000
0100
0010
0100
0010
0100
0000
0000
0000
0001
0000
0100
0000
,
0000
0000
0001
0010
0001
0010
0001
0000
0010
0000
0100
0000
1000
0000
0001
0000
,
0000
0000
0000
0000
0100
0010
0100
0010
0100
0000
0000
0000
0010
0000
1000
0000
,
0000
0100
0010
0001
0000
0010
0100
0000
,
0000
0000
0000
0000
0000
0000
0000
0000
1000
0000
0000
0000
0001
1000
0001
1000
,
0001
0000
0000
0000
0100
0000
0010
0000
0000
0000
1000
0010
1000
0010
1000
0000
,
0001
0000
0100
0000
0010
0000
1000
0000
0000
0000
0000
0000
0001
0100
0001
0100
,
0001
0000
1001
0000
0001
1000
0001
1000
,
0001
1000
0001
1000
0001
0000
0000
0000
,
0000
0000
1001
0000
;
#NOTES:
     dance-single:
     Renard:
     Easy:
     9:
     0.702,0.752,0.123,0.000,0.000:
0000
0000
0000
0000
,
0000
0000
0000
0000
,
0000
0000
0000
0000
,
0000
0000
0000
0000
,
0001
0000
1000
0100
0000
0010
0001
0010
,
0000
0100
1000
0001
0100
0010
1000
1000
,
0010
0000
0100
0001
1000
0000
0010
0000
,
0100
0000
0001
0000
1000
0100
0011
0000
,
1000
0000
0001
1000
0000
0010
0000
0010
,
0000
0100
0001
0000
1000
0000
0010
0000
,
0100
0000
0100
0010
0000
1000
0000
0001
,
0000
0001
0010
0000
0001
0000
1000
0000
,
0100
0000
0100
1000
0000
0010
0000
0100
,
0000
0100
0001
0000
0010
0000
0100
0000
,
1100
0000
0100
1000
0000
1100
0000
0011
,
0000
1000
0001
0000
0100
0000
1001
0000
,
0000
0000
0000
0000
0000
0000
0001
1000
,
0100
0000
0010
0001
0000
1000
0010
0100
,
0001
0010
0100
0010
0000
0000
0001
1000
,
0010
0000
0100
0010
1000
0001
0100
0010
,
0000
1000
0001
0010
0000
0000
0100
0010
,
0001
0000
1000
0010
0000
0100
0010
1000
,
0001
0100
0010
1000
0000
0000
0100
0010
,
0001
0000
0010
0100
1000
0001
0100
0010
,
1000
0000
1000
0001
0000
0000
0000
0000
,
1000
0000
0001
0100
0010
0000
1000
0000
,
0010
0000
0100
0001
1000
0000
0100
0010
,
0001
0000
0010
0100
1000
0000
0001
0000
,
0100
0010
1000
0010
0100
0001
1000
0100
,
0010
0000
0001
0010
0100
0000
1000
0000
,
0001
0000
0100
0001
1000
0001
0010
0001
,
1000
0000
0010
1000
0001
0000
1000
0000
,
0100
0010
0001
0010
0100
0000
1000
0000
,
0000
0000
0000
0000
0001
0000
1000
0010
,
0100
0001
0000
0100
0000
0010
1000
0010
,
1000
0001
0100
0001
0000
0000
1000
0100
,
1000
0000
0001
0000
0010
0001
0010
0001
,
1000
0001
1000
0000
0001
0000
1000
0100
,
0010
0001
0000
1000
0000
0001
0100
0010
,
1000
0010
1000
0001
0000
0000
1000
0100
,
1000
0001
0010
0001
1000
0010
0100
0001
,
1000
0000
0000
0001
0000
0000
0000
0000
,
1000
0000
0100
0010
0001
0000
0010
0100
,
0000
1000
0100
0010
0001
1000
0010
0100
,
0000
0000
0010
1000
0001
0000
0100
0010
,
1000
0001
0100
0010
0000
1000
0001
0000
,
0000
0000
0000
0000
0100
0000
0010
1000
,
0100
0000
0010
0001
0000
0010
0100
1000
,
0001
0100
0010
1000
0100
0000
0010
0100
,
1000
0000
0010
0100
0001
0100
0010
1000
,
0100
0000
1000
0001
0000
0000
0000
0000
,
1000
0000
0001
0100
0010
1000
0000
0010
,
0000
0100
0001
1000
0100
0010
0001
0010
,
0100
0000
1000
0000
0001
0100
0010
1000
,
0000
0010
0100
0001
1000
0100
1000
0000
,
0001
0000
0010
0001
1000
0010
0100
0010
,
1000
0000
0001
0010
0100
1000
0100
0010
,
0001
0100
0010
1000
0100
0010
0001
0010
,
0100
1000
0001
0100
0010
1000
0001
0000
,
0100
0000
0000
1001
0000
0000
0000
0000
,
0100
0000
1010
0000
0100
0010
0100
0001
,
0010
0100
1000
0001
0100
0010
1000
0100
,
0010
0001
0010
0100
1000
0010
0100
0001
,
0010
0100
1000
0100
0010
0001
1000
0010
,
0100
1001
0000
0000
,
1000
0010
0100
0001
0100
0010
1000
0100
,
0010
1001
0000
0100
,
1001
0000
0000
0000
0100
0010
1000
0000
,
0001
0000
0100
0010
1000
0000
0001
0000
,
0100
0010
0000
1000
0100
0010
0000
0001
,
0010
0100
1000
0001
0100
0010
1000
0000
,
0010
0100
0001
0100
0010
1000
0100
0000
,
0010
0000
0001
0010
0100
1000
0001
0000
,
0000
0000
0100
0010
0000
0000
0000
1000
,
0000
0100
0010
0001
0010
0100
1000
0001
,
0100
0000
0010
0000
0100
0010
1000
0010
,
0100
0001
1000
0100
0010
0001
0010
0100
,
1000
0000
0001
0100
0010
0000
1000
0100
,
0000
0010
0100
0010
0001
0010
0100
1000
,
0000
0000
0010
0100
0001
0000
0100
0010
,
1000
0100
0010
0100
0010
0000
1001
0000
,
0000
0000
0000
0000
1000
0010
0001
0010
,
1000
0100
0001
0100
1000
0010
0001
0010
,
0100
1000
0100
0001
0010
1000
0010
0001
,
0010
0100
1000
0000
0001
1000
0001
1000
,
0001
1000
0001
1000
0001
0000
0000
0000
,
0000
0000
1001
0000
;
#NOTES:
     dance-single:
     Renard:
     Beginner:
     8:
     0.535,0.575,0.051,0.000,0.000:
0000
0000
0000
0000
,
0000
0000
0000
0000
,
0000
0000
0000
0000
,
0000
0000
0000
0000
,
0001
1000
0001
0100
,
0000
0010
1000
0001
1000
0100
1000
0000
,
0001
1000
0001
0100
,
0010
0000
1000
0000
0001
0100
0001
0000
,
0100
0000
0001
1000
0000
1000
0000
1000
,
0000
0001
1000
0000
1000
0000
1000
0000
,
0001
0000
0001
1000
0000
1000
0000
0001
,
0000
0001
1000
0000
1000
0000
1000
0000
,
0001
0000
0001
1000
0000
1000
0000
0001
,
0000
0001
1000
0000
1000
0000
1000
0000
,
0001
0000
0001
1000
0000
1000
0000
0001
,
0000
0001
1000
0000
1000
0000
0010
0000
,
0000
0000
0000
0000
1000
0000
0001
0100
,
0001
0000
0100
0001
0000
0000
1000
0000
,
0100
1000
0100
0000
1000
0000
0001
0010
,
0001
0000
0010
0001
1000
0000
0010
0000
,
0100
0000
0001
0000
1000
0000
0100
1000
,
0100
0000
1000
0001
0000
0000
1000
0001
,
1000
0000
0001
0000
0100
0000
0001
0010
,
0001
0010
0001
1000
,
0010
1001
0000
0000
,
1000
0000
0001
0100
0001
0000
1000
0000
,
0001
0000
1000
0100
1000
0000
0001
0000
,
0100
0000
0010
1000
0010
0000
1000
0000
,
0100
0000
0010
0001
0010
0000
0001
0000
,
1000
0000
0010
0100
0010
0000
0100
0000
,
0001
0000
1000
0100
1000
0000
0100
0000
,
0010
0000
0001
0010
0001
0000
1000
0000
,
0001
0000
0100
0000
0010
0000
0000
1001
,
0000
0000
1000
0001
,
0100
0010
0000
1000
0000
0010
0100
0010
,
0100
0010
1000
0001
0000
0000
0100
0000
,
0001
0000
1000
0000
0100
0010
0001
0010
,
0100
1000
0001
0000
1000
0000
0001
0100
,
0001
0100
0000
0001
0000
1000
0100
1000
,
0001
0000
0100
0000
0001
0000
1000
0100
,
0010
0001
1000
0000
0001
0000
0100
0000
,
0010
1000
0000
0000
,
0001
0000
0100
0001
0100
0000
0001
1000
,
0000
0000
0001
1000
0100
1000
0001
1000
,
0000
0000
0100
1000
0001
0000
0100
0010
,
0000
1000
0001
0010
0001
0000
1000
0000
,
0000
0000
0000
0000
0001
0000
0100
0010
,
1000
0000
0001
0100
0000
0010
1000
0001
,
1000
0100
1000
0001
,
0010
0000
0001
1000
0000
0001
0100
0000
,
0010
1000
0000
0000
,
0001
0001
1000
1000
,
0010
0010
0100
0100
,
0001
0001
1000
1000
,
0100
0100
0010
0010
,
0001
0001
1000
1000
,
0010
0010
0100
0100
,
0001
0001
1000
1000
,
0100
0100
0010
0010
,
0001
1000
0000
0000
,
0001
1000
0010
0100
,
0010
1000
0100
0010
,
0001
0010
0100
1000
,
0001
0100
0010
1000
,
0001
1000
0000
0001
0000
0000
0000
0000
,
1000
0010
0100
0001
,
1000
1001
0000
1000
,
1001
0000
1000
0001
,
0000
0100
0010
1000
,
0010
1000
0000
0000
0010
0000
1000
0000
,
0100
0000
0010
0001
0010
0000
0100
0000
,
1000
0001
0100
0010
,
1000
0000
0001
0100
0001
1000
0100
0000
,
0000
0000
1000
0001
0000
0000
0000
0100
,
0000
0010
0000
1000
0100
0000
0010
0000
,
0001
0000
0010
0000
0100
1000
0001
0000
,
0100
0000
0010
0000
1000
0100
0010
0001
,
1000
0000
0001
1000
0000
0000
0001
1000
,
0000
0010
0100
0000
0001
0000
0100
0000
,
0010
0000
1000
0001
0000
1000
0001
0000
,
1000
0000
0010
0100
0000
0001
1000
0000
,
0000
0000
0000
0000
0100
0000
0010
0001
,
0000
1000
0010
0000
0100
0000
0001
1000
,
0000
0010
1000
0000
0001
0000
0100
0010
,
0000
1000
0001
0000
0001
0000
1000
0000
,
0001
1000
0001
0000
,
0000
0000
1001
0000
;
