#TITLE:Special Place;
#SUBTITLE:;
#ARTIST:Sub Focus;
#TITLETRANSLIT:;
#SUBTITLETRANSLIT:;
#ARTISTTRANSLIT:;
#CRChallenge:;
#BANNER:special.png;
#BACKGROUND:special-bg.png;
#LYRICSPATH:;
#CDTITLE:!cdtitle.png;
#MUSIC:special.ogg;
#OFFSET:0.000;
#SAMPLESTART:13.695;
#SAMPLELENGTH:12.000;
#SELECTABLE:YES;
#BPMS:0.000=86.864,20.000=173.728;
#STOPS:;
#BGCHANGES:;
#NOTES:
     dance-single:
     Renard:
     Medium:
     9:
     0.642,0.538,0.378,0.178,0.042:
0000
0000
0000
0000
,
2000
3200
0320
0032
,
2003
3020
0032
0023
,
2030
3020
0230
0302
,
2003
3200
0302
0203
,
1300
1000
0100
0100
1000
1000
1000
0001
,
0001
0001
0010
0001
1000
0010
0100
0001
,
0010
0010
0001
0001
1000
1000
1000
0010
,
0010
0010
1000
0001
0010
0100
1000
0001
,
0100
0100
0010
0010
1000
1000
1000
0001
,
0001
0001
0010
0100
1000
0001
0100
0010
,
1000
1000
0001
0001
0010
0010
0010
0001
,
1000
0010
0100
0001
1000
0000
1001
0000
,
1100
0000
0011
0000
0101
1010
0000
0001
,
0000
0000
0100
0010
1000
0000
0100
0010
,
0011
0000
1100
0000
1010
0101
0000
0001
,
0000
0100
0010
1000
0100
0010
0001
0000
,
1100
0000
0011
0000
0101
1010
0000
1000
,
0000
0000
0010
0100
0001
0000
0010
0100
,
1100
0000
1010
0000
0101
0011
0000
0001
,
0000
0000
1000
0100
0010
0001
1001
0000
,
1000
0000
0100
0000
0010
0000
0000
0010
0001
0000
0010
0000
0100
0000
1000
0000
,
0001
0000
0100
0000
0010
0000
1000
0010
1000
0000
0010
0000
1000
0000
0000
0000
,
0100
0000
0010
0000
0001
0000
0000
0001
0010
0000
0100
0000
1000
0000
0001
0000
,
0100
0000
0010
0000
1000
0000
0100
1000
0100
0000
1000
0000
0001
0000
0001
0000
,
1100
0000
1100
0000
1100
1100
0000
0000
,
1000
0001
0100
0010
1000
0100
0010
0000
,
0011
0000
0011
0000
0011
0011
0000
0000
,
0001
0100
0010
1000
0100
0010
0001
0000
,
1000
0000
0000
0000
0100
0000
1000
0000
0001
0000
0000
0010
0001
0000
0000
0000
,
1000
0000
0000
0000
0001
0000
0100
0000
0010
0000
0000
1000
0010
0000
0000
0000
,
1000
0000
0000
0000
0100
0000
0010
0000
0001
0000
0000
1000
0001
0000
0000
0000
,
0100
0000
0000
0000
0010
0000
1000
0000
0001
0000
0000
0010
0100
0000
0000
0000
,
1100
0000
1010
0000
1001
1100
0000
0000
,
1000
0100
0010
0001
0010
0100
1000
0000
,
1001
0000
0101
0000
0011
1001
0000
0000
,
0001
0100
0010
1000
0010
0100
0001
0000
,
0001
0010
0001
0010
0010
0100
1000
0010
,
0100
0010
0100
0010
0010
0100
0010
1000
,
0100
1000
0100
1000
1000
0100
0010
0001
,
1000
0010
1000
0010
0010
1000
0010
0100
,
0001
0010
0001
0010
0010
0100
1000
0001
,
0100
0001
0100
0010
0010
0100
0010
1000
,
0100
1000
0001
0010
0010
0001
0010
0100
,
1000
0010
1000
0001
0001
0100
0010
1000
,
0100
0010
0001
0010
0010
0100
1000
0001
,
0100
0010
1000
0001
0001
1000
0100
0010
,
0001
1000
0001
0010
0010
0001
0010
0100
,
1000
0001
1000
0010
0010
2000
0000
0000
,
3001
0010
0100
1000
0010
0100
0010
0100
,
0001
0010
0100
1000
0100
0010
0001
0000
,
1000
0100
0010
0001
0100
0010
0100
0010
,
1000
0100
0010
0001
0010
0100
1000
0000
,
0001
0010
0100
1000
0001
0010
0001
0010
,
0100
1000
0001
0010
0100
1000
0001
0000
,
1000
0100
1000
0100
0010
0001
1000
0100
,
1000
0001
0010
0100
1000
0001
1001
0000
,
0110
0000
0000
0000
;
#NOTES:
     dance-single:
     Renard:
     Easy:
     5:
     0.348,0.329,0.073,0.000,0.000:
0000
0000
0000
0000
,
0000
0000
0000
0000
,
0000
0000
0000
0000
,
1000
1000
1000
1000
,
0001
0001
0001
0001
,
1000
0000
0100
0000
0010
0000
0000
0001
,
0000
0000
0010
0100
1000
0000
0100
0010
,
0000
0000
0001
0000
1000
0000
0000
0010
,
0000
0000
0100
0001
0100
0001
0100
0000
,
0000
0000
0001
0000
1000
0000
0000
0100
,
0000
0000
0010
0001
0010
0000
0100
1000
,
0000
0000
0001
0000
1000
0000
0000
0010
,
0000
0000
0100
0001
0100
0010
0100
0000
,
0010
0000
0010
0000
0010
0100
0000
0010
,
0000
0000
1000
0100
0010
0000
0100
1000
,
0001
0000
0001
0000
0001
1000
0000
0010
,
0000
0000
0100
0001
0100
0001
0100
0000
,
0001
0000
0001
0000
1000
0001
0000
1000
,
0000
0000
0100
1000
0100
0000
1000
0001
,
1000
0000
0001
0000
1000
0001
0000
0100
,
0000
0000
0010
0100
0010
0100
0010
0000
,
1000
0000
0010
0000
0000
1000
0010
0000
,
0100
0000
0001
0000
0000
0100
0001
0000
,
1000
0100
0010
0001
,
0010
0100
1000
0001
,
1000
0000
1000
0000
0001
1000
0000
0001
,
0000
0000
0100
0010
0100
0000
0010
0100
,
0010
0000
0010
0000
0100
0010
0000
1000
,
0000
0000
0001
1000
0001
1000
0001
0000
,
1000
0000
0001
0000
0000
0100
0001
0000
,
1000
0000
0001
0000
0000
1000
0100
0000
,
1000
0000
0001
0000
0000
0100
0001
0000
,
1000
0100
0010
0001
,
1001
0000
1001
0000
1001
0000
0000
0010
,
0000
0000
0100
0010
0100
0000
0010
0000
,
1001
0000
1001
0000
1001
0000
0000
0100
,
0000
0000
0010
0100
0010
0000
0100
0000
,
0001
0001
1000
1000
,
0100
0100
0010
0010
,
0001
0001
1000
1000
,
0010
0000
0100
0000
0001
0100
0001
0000
,
0100
0100
0010
0000
,
0100
0000
0100
0000
0001
0000
1000
0001
,
1000
1000
0100
0000
,
0010
0000
0010
0000
0001
0000
1000
0001
,
1000
1000
0010
0000
,
0100
0000
0100
0000
0001
0000
1000
0100
,
1000
0001
0010
0100
,
1000
0000
0001
0000
0100
0000
0010
0100
,
0010
0010
1000
1000
,
0001
0000
0001
0000
,
1000
1000
0100
0100
,
0010
0000
0010
0000
,
0001
0001
1000
1000
,
0010
0000
0010
0000
,
0100
0100
0001
0001
,
1000
0000
0001
0100
,
1001
0000
0000
0000
;
#NOTES:
     dance-single:
     Renard:
     Beginner:
     3:
     0.256,0.329,0.073,0.000,0.000:
0000
0000
0000
0000
,
0000
0000
0000
0000
,
0000
0000
0000
0000
,
1000
1000
1000
1000
,
0001
0001
0001
0001
,
0000
1000
0001
0000
,
0100
0100
0010
0010
,
0000
1000
0001
0000
,
0010
0010
0100
0100
,
0000
1000
0001
0000
,
0100
0100
0010
0010
,
0000
1000
0001
0000
,
0010
0010
0100
0000
,
1000
0100
1000
0000
,
0001
0000
0100
0000
,
0001
0010
0001
0000
,
1000
0000
0010
0000
,
1000
0100
1000
0000
,
0001
0000
0100
0000
,
0001
0010
0001
0000
,
1000
0000
0010
0000
,
1000
0000
0100
1000
,
0001
0100
0010
1000
,
0001
0000
1000
0100
,
0010
0001
1000
0010
,
1000
1000
1000
0000
,
0010
0000
0010
0000
,
0100
0100
0100
0000
,
0001
0000
0001
0000
,
1000
0000
1000
0000
,
0001
0000
0001
0000
,
0100
0000
0100
0000
,
0010
0000
0010
0000
,
1010
1010
1010
0000
,
0100
0001
1000
0100
,
0011
0011
0011
0000
,
0100
1000
0010
0100
,
0001
0001
0100
0100
,
0010
0010
0100
0100
,
0001
0001
0100
0100
,
0010
0010
0100
0100
,
0010
0000
1000
0000
,
0010
1000
0010
1000
,
0100
0000
0010
0000
,
0001
0010
0001
0010
,
0001
0000
0100
0000
,
0010
1000
0010
1000
,
0100
0000
0010
0000
,
0001
1000
0001
0100
,
0010
0000
1000
0000
,
0010
1000
0010
0100
,
0001
0000
0001
1000
,
0100
1000
0001
0010
,
0001
0000
1000
0010
,
1000
0001
0100
0001
,
1000
0000
0001
0010
,
0001
1000
0100
0000
,
1001
0000
0000
0000
;
