#TITLE:Speak Sins;
#SUBTITLE:;
#ARTIST:MGD Assault Force;
#TITLETRANSLIT:;
#SUBTITLETRANSLIT:;
#ARTISTTRANSLIT:;
#CRChallenge:;
#BANNER:sins-banner.avi;
#BACKGROUND:sins-bg.png;
#LYRICSPATH:;
#CDTITLE:!cdtitle.png;
#MUSIC:sins.ogg;
#OFFSET:0.000;
#SAMPLESTART:23.920;
#SAMPLELENGTH:12.000;
#SELECTABLE:YES;
#DISPLAYBPM:180.000;
#BPMS:0.000=90.000,3.500=270.000,5.000=180.000,149.000=190.000,221.000=285.000,231.500=190.000,234.500=285.000,243.500=190.000,258.000=285.000,265.500=190.000,267.500=285.000,275.750=190.000;
#STOPS:;
#BGCHANGES:;
#NOTES:
     dance-single:
     Renard:
     Medium:
     12:
     0.904,1.000,0.916,0.000,0.571:
0000
0000
0000
0000
0000
0000
0000
MMMM
,
0000
0000
1010
0101
0000
0000
MMMM
0000
,
0000
0011
1100
1001
0000
0000
MMMM
0000
,
0000
0000
0101
1010
0000
0000
MMMM
0000
,
0000
1100
0011
1001
0000
0000
MMMM
0000
,
1001
0000
0000
0000
0101
0000
0110
0000
1000
0000
0000
1000
0010
0000
0100
0000
,
0001
0011
0110
1100
0001
1000
0100
0010
,
0000
0000
0010
0000
0011
0000
1100
0000
0001
0000
0000
0001
0010
0000
0100
0000
,
1000
0110
0101
1010
0100
0001
0010
0100
,
1100
0000
0000
0000
0001
0010
0100
1000
0100
0010
0001
0010
0100
1000
0100
0010
,
0001
0010
0100
1000
0001
0100
0010
1000
0010
0100
0001
0100
0010
1000
0010
0100
,
0001
0100
0010
1000
0001
0010
0100
1000
0100
0010
0001
0010
0100
1000
0100
0010
,
0001
0010
0100
1000
0001
0100
0010
1000
0010
0100
0001
0100
0010
1000
0010
0100
,
0001
0000
0001
0000
1000
0100
0010
0001
0010
0100
1000
0100
0010
0001
0010
0100
,
1000
0100
0010
0001
1000
0010
0100
0001
0100
0010
1000
0010
0100
0001
0100
0010
,
1000
0010
0100
0001
1000
0100
0010
0001
0010
0100
1000
0100
0010
0001
0010
0100
,
1000
0100
0010
0001
1000
0010
0100
0001
0100
0010
1000
0010
0100
0001
0100
0010
,
1000
0000
1001
0010
1000
0100
0010
0001
,
0010
0000
0100
0000
1000
0001
1000
0000
0001
0000
0100
0000
0010
0000
1000
0000
,
0100
0010
0001
0100
0010
1000
0100
0010
,
0001
0000
1000
0000
0010
1000
0010
0000
0100
0000
0001
0000
0010
0000
0100
0000
,
1000
0100
1001
0100
0001
0010
0100
1000
,
0100
0000
0010
0000
0001
1000
0001
0000
1000
0000
0010
0000
0100
0000
0001
0000
,
0010
0100
1000
0010
0100
0001
0010
0100
,
1000
0000
0001
0000
0100
0001
0100
0000
0010
0000
1000
0000
0100
0000
0010
0000
,
0001
0010
1100
0010
1001
0000
0100
0010
,
1000
0100
0010
0001
1000
0000
0100
0000
1000
0000
0010
0000
0100
0000
0001
0010
,
0001
0100
0001
1000
0010
1000
0100
1000
,
0001
0010
0001
0000
0100
0010
1000
0000
0010
0000
0100
0000
0001
0000
0100
0001
,
0010
0000
0001
0000
1010
0000
0110
0000
0001
0000
0000
0001
0100
0000
0010
0000
,
1000
1100
0110
0011
1000
0001
0010
0100
,
0000
0000
0100
0000
1100
0000
0011
0000
1000
0000
0000
1000
0100
0000
0010
0000
,
0001
0110
1010
0101
0010
1000
0100
0010
,
0011
0000
0000
0000
0101
0000
0110
0000
1000
0000
0000
1000
0010
0000
0100
0000
,
0001
0011
0110
1100
0001
1000
0100
0010
,
0000
0000
0010
0000
0011
0000
1100
0000
0001
0000
0000
0001
0010
0000
0100
0000
,
1000
0110
0101
0010
1000
0100
0010
0001
,
1000
0110
0MM0
0000
,
0000
0000
0010
0010
,
1000
0010
1000
0000
1010
0000
0100
0000
0001
0000
0010
0000
0100
0000
1000
0000
,
0010
0100
0001
0100
0010
0100
1000
0100
,
0010
0100
0001
0100
0001
0010
1000
0010
,
0100
1000
0100
0000
1000
0000
0100
0000
1000
0100
0010
0001
0010
0000
1000
0000
,
0010
0000
0001
0000
0010
0001
1000
0000
0100
0010
0001
0000
0010
0100
1000
0000
,
0100
1000
0001
0000
1000
0000
0100
0000
0010
0000
0001
0000
1000
0010
1000
0000
,
0100
0000
0001
0000
0100
0000
1000
0000
0010
0000
0100
0001
0010
0000
0100
0000
,
1000
0001
0100
0100
0010
0010
1000
1000
,
0001
0001
0011
1100
0000
0000
MMMM
0000
,
0000
0101
1010
0110
0000
0000
MMMM
0000
,
0000
0000
1100
0011
0000
0000
MMMM
0000
,
0000
1010
0101
0110
0000
0000
MMMM
0000
,
0110
0000
0000
0000
1100
0000
1001
0000
0010
0000
0000
0010
0001
0000
1000
0000
,
0100
0101
1001
1010
0100
0010
1000
0001
,
0000
0000
0001
0000
0101
0000
1010
0000
0100
0000
0000
0100
0001
0000
1000
0000
,
0010
1001
1100
0011
1000
0100
0001
1000
,
1010
0000
0011
0000
0000
00MM
0000
0000
,
0000
0000
0000
0000
,
0000
0000
0000
0000
0000
0000
0000
0011
,
0000
0110
0000
0000
1100
0000
0000
0110
0000
0000
0011
0000
0000
0000
0000
0000
,
00MM
0000
0000
0000
,
0000
0000
0000
0000
0000
0000
0000
0000
0000
0000
0000
0000
0000
0000
1000
0100
,
0010
0001
1000
0001
0010
0100
1000
0100
1000
0100
0010
0001
0010
0001
1000
0001
,
0010
0100
1000
0100
0010
0001
1000
0000
1000
0000
0100
0000
0100
0000
0011
0000
,
0000
1001
0000
0000
0111
0000
0000
0000
,
1001
0000
0001
0010
0100
0000
1000
0100
0010
0000
0000
0000
0000
0M00
00M0
0000
,
0000
0000
0000
0000
,
0000
0000
0000
1001
0110
1001
0000
1011
,
0000
M0MM
0000
0000
,
0000
0000
0000
0000
0000
0000
0000
0000
0000
0000
0000
0000
0000
0000
0000
1111
;
#NOTES:
     dance-single:
     Renard:
     Easy:
     10:
     0.696,0.854,1.000,0.075,0.172:
0000
0000
0000
0000
0000
0000
0000
MMMM
,
0000
0000
0101
1010
0000
0000
MMMM
0000
,
0000
1100
0011
1001
0000
0000
MMMM
0000
,
0000
0000
1010
0101
0000
0000
MMMM
0000
,
0000
0011
1100
1001
0000
0000
MMMM
0000
,
1001
0000
1010
0110
0000
0000
0000
0000
,
0000
1100
0110
0011
0000
0000
0000
0000
,
0000
0000
1100
0011
0000
0000
0000
0000
,
0000
0110
1010
0101
0000
0000
0000
0000
,
0011
0000
0001
0010
0011
0000
0001
0100
,
0001
0000
1000
0010
1010
0000
1000
0000
,
1100
0000
0100
0010
0110
0000
0010
0001
,
0010
0000
0001
1000
1010
0000
1001
0000
,
0100
0100
0001
0100
0101
0000
0001
1000
,
1010
0000
1000
0001
0010
0100
1000
0001
,
1000
0000
1000
0010
1010
0000
0001
0100
,
0101
0000
0001
0010
0100
1000
0001
0000
,
1001
0000
1001
0100
0001
0010
0100
1000
,
0100
0000
0010
0000
0001
1000
0001
0000
1000
0000
0010
0000
0100
0000
0001
0000
,
0010
0100
1000
0010
0100
0001
0010
0100
,
1000
0000
0001
0000
0100
0001
0100
0000
0010
0000
1000
0000
0100
0000
0010
0000
,
0001
0010
1001
0010
1000
0100
0010
0001
,
0010
0000
0100
0000
1000
0001
1000
0000
0001
0000
0100
0000
0010
0000
1000
0000
,
0100
0010
0001
0100
0010
1000
0100
0010
,
0001
0000
1000
0000
0010
1000
0010
0000
0100
0000
0001
0000
0010
0000
0100
0000
,
1000
0100
0011
0100
1001
0000
0010
0100
,
0001
0010
0100
1000
0001
0000
0010
0000
0001
0000
0100
0000
0010
0000
1000
0100
,
1000
0010
1000
0001
0100
0001
0010
0001
,
1000
0100
1000
0000
0010
0100
0001
0000
0100
0000
0010
0000
1000
0000
0010
1000
,
0100
1000
0101
0110
0000
0000
0000
0000
,
0000
0011
0110
1100
0000
0000
0000
0000
,
0000
0000
0011
1100
0000
0000
0000
0000
,
0000
0110
0101
1010
0000
0000
0000
0000
,
1100
0000
1010
0110
0000
0000
0000
0000
,
0000
1100
0110
0011
0000
0000
0000
0000
,
0000
0000
1100
0011
0000
0000
0000
0000
,
0000
0110
2010
3002
2003
3020
0230
0302
,
2003
3000
0110
0000
0MM0
0000
0000
0000
,
0000
0000
0100
0100
,
0001
0100
0001
0000
0101
0000
0010
0000
1000
0000
0100
0000
0010
0000
0001
0000
,
0100
0010
1000
0010
0100
0010
0001
0010
,
0100
0010
1000
0010
1000
0100
0001
0100
,
0010
0001
0010
0000
0001
0000
0010
0000
0001
0010
0100
1000
0100
0000
0001
0000
,
0100
0000
1000
0000
0100
1000
0001
0000
0010
0100
1000
0000
0100
0010
0001
0000
,
0010
0001
1000
0000
0001
0000
0010
0000
0100
0000
1000
0000
0001
0100
0001
0000
,
0010
0000
1000
0000
0010
0000
0001
0000
0100
0000
0010
1000
0100
0000
0010
0000
,
0001
1000
0010
0010
0100
0100
0001
0001
,
1000
1000
1100
0011
0000
0000
MMMM
0000
,
0000
1010
0101
0110
0000
0000
MMMM
0000
,
0000
0000
0011
1100
0000
0000
MMMM
0000
,
0000
0101
1010
0110
0000
0000
MMMM
0000
,
0110
0000
0011
1001
0000
0000
0000
0000
,
0000
1010
1001
0101
0000
0000
0000
0000
,
0000
0000
1010
0101
0000
0000
0000
0000
,
0000
1001
0011
1100
0000
0000
0000
0000
,
0101
0000
1100
0000
0000
MM00
0000
0000
,
0000
0000
0000
0000
,
0000
0000
0000
0000
0000
0000
0000
1100
,
0000
0110
0000
0000
0011
0000
0000
0110
0000
0000
1100
0000
0000
0000
0000
0000
,
MM00
0000
0000
0000
,
0000
0000
0000
0000
0000
0000
0000
0000
0000
0000
0000
0000
0000
0000
0001
0010
,
0100
0000
1000
0100
0010
0000
0001
0010
0100
0000
1000
0100
0010
0000
0001
0010
,
0100
0000
1000
0100
0010
0000
0001
0000
0001
0000
0010
0000
0010
0000
1100
0000
,
0000
1001
0000
0000
1110
0000
0000
0000
,
1001
0000
1000
0100
0010
0000
0001
0010
0100
0000
0000
0000
0000
00M0
0M00
0000
,
0000
0000
0000
0000
,
0000
0000
0000
1001
0110
1001
0000
1011
,
0000
MM0M
0000
0000
,
0000
0000
0000
0000
0000
0000
0000
0000
0000
0000
0000
0000
0000
0000
0000
1111
;
#NOTES:
     dance-single:
     Renard:
     Challenge:
     14:
     0.982,1.000,1.000,0.022,0.727:
0000
0000
0000
0000
0000
0000
0000
MMMM
,
0000
0000
1010
0101
0000
0000
MMMM
0000
,
0000
0011
1100
1001
0000
0000
MMMM
0000
,
0000
0000
0101
1010
0000
0000
MMMM
0000
,
0000
1100
0011
1001
0000
0000
MMMM
0000
,
1001
0000
0000
0000
0101
0000
0110
0000
1000
0000
0000
1000
0010
0000
0100
0000
,
0001
0011
0110
1100
0001
1000
0100
0010
,
0000
0000
0010
0000
0011
0000
1100
0000
0001
0000
0000
0001
0010
0000
0100
0000
,
1000
0110
0101
1010
0100
0001
0010
0100
,
1100
0000
0000
0000
0001
0010
0100
1000
0100
0010
0001
0010
0100
1000
0100
0010
,
0001
0010
0100
1000
0001
0100
0010
1000
0010
0100
0001
0100
0010
1000
0010
0100
,
0001
0100
0010
1000
0001
0010
0100
1000
0100
0010
0001
0010
0100
1000
0100
0010
,
0001
0010
0100
1000
0001
0100
0010
1000
0010
0100
0001
0100
0010
1000
0010
0100
,
0001
0000
0001
0000
1000
0100
0010
0001
0010
0100
1000
0100
0010
0001
0010
0100
,
1000
0100
0010
0001
1000
0010
0100
0001
0100
0010
1000
0010
0100
0001
0100
0010
,
1000
0010
0100
0001
1000
0100
0010
0001
0010
0100
1000
0100
0010
0001
0010
0100
,
1000
0100
0010
0001
1000
0010
0100
0001
0100
0010
1000
0010
0100
0001
0100
0010
,
1000
0000
1001
0010
1001
0100
0010
0001
,
0010
0000
0100
0000
1000
0001
1000
0000
0001
0000
0100
0000
0010
0000
1000
0000
,
0100
0010
0001
0100
0010
1000
0100
0010
,
0001
0000
1000
0000
0010
1000
0010
0000
0100
0000
0001
0000
0010
0000
0100
0000
,
1000
0100
1001
0100
1001
0010
0100
1000
,
0100
0000
0010
0000
0001
1000
0001
0000
1000
0000
0010
0000
0100
0000
0001
0000
,
0010
0100
1000
0010
0100
0001
0010
0100
,
1000
0000
0001
0000
0100
0001
0100
0000
0010
0000
1000
0000
0100
0000
0010
0000
,
0001
0010
1100
0010
1001
0000
0100
0010
,
1000
0100
0010
0001
1000
0000
0100
0000
1000
0000
0010
0000
0100
0000
0001
0010
,
0001
0100
0011
1000
0110
1000
0100
1000
,
0001
0010
0001
0000
0100
0010
1000
0000
0010
0000
0100
0000
0001
0000
0100
0001
,
0010
0000
0001
0000
1010
0000
0110
0000
0001
0000
0000
0001
0100
0000
0010
0000
,
1000
1100
0110
0011
1000
0001
0010
0100
,
0000
0000
0100
0000
1100
0000
0011
0000
1000
0000
0000
1000
0100
0000
0010
0000
,
0001
0110
1010
0101
0010
1000
0100
0010
,
0011
0000
0000
0000
0101
0000
0110
0000
1000
0000
0000
1000
0010
0000
0100
0000
,
0001
0011
0110
1100
0001
1000
0100
0010
,
0000
0000
0010
0000
0011
0000
1100
0000
0001
0000
0000
0001
0010
0000
0100
0000
,
1000
0110
0101
0010
1000
0100
0010
0001
,
1000
1111
0MM0
0000
,
0000
0000
1001
1001
,
1000
0010
0100
0001
1000
0000
0001
0000
1000
0000
0100
0000
0010
0000
0001
0000
,
0100
0010
1000
0010
0110
0010
0001
0010
,
0110
0010
1000
0010
1010
0100
0001
0100
,
0010
0001
0010
0000
0001
0000
0010
0000
0001
0010
0100
1000
0100
0000
0001
0000
,
0100
0000
1000
0000
0100
1000
0001
0000
0010
0100
1000
0000
0100
0010
0001
0000
,
0010
0001
1000
0000
0001
0000
0010
0000
0110
0000
1000
0000
0001
0100
0001
0000
,
0010
0000
1000
0000
0010
0000
0001
0000
0101
0000
0010
1000
0100
0000
0010
0000
,
0011
1000
0101
0101
0110
0110
1010
1010
,
1001
1001
1100
0011
0000
0000
MMMM
0000
,
0000
1010
0101
0110
0000
0000
MMMM
0000
,
0000
0000
0011
1100
0000
0000
MMMM
0000
,
0000
0101
1010
0110
0000
0000
MMMM
0000
,
0110
0000
0000
0000
0100
0001
1000
0010
1000
0001
0010
0100
1000
0001
0010
0001
,
0100
0010
1000
0001
0010
0100
1000
0100
0010
0001
1000
0010
1000
0001
0010
0001
,
1000
0100
0010
0001
1000
0010
1000
0001
0100
0001
0010
0001
0010
0100
1000
0100
,
1000
0010
0100
0001
0010
0001
0010
0001
0100
0001
1000
0010
1000
0100
1000
0001
,
0010
0100
1000
0000
1100
0000
0000
0000
0000
0000
MM00
0000
0000
0000
0000
0000
,
0000
0000
0000
0000
,
0000
0000
0000
0000
0000
0000
0000
1M11
,
0000
1MM1
0000
0000
1M11
0000
0000
1MM1
0000
0000
1M11
0000
0000
0000
0000
0000
,
MM00
0000
0000
0000
,
0000
0000
0000
0000
0000
0000
0000
0000
0000
0000
0000
0000
0000
0000
0001
0010
,
0100
1000
0001
1000
0100
0010
0001
1000
0001
0100
0010
1000
0001
1000
0010
0100
,
0001
1000
0001
0010
0100
0000
1100
0000
11MM
0000
0011
0000
MM11
0000
1100
0000
,
0000
1M11
0000
0000
111M
0000
0000
0000
,
1MM1
0000
1000
0100
0001
0000
0100
1000
0010
0000
0000
0000
0000
00M0
0M00
0000
,
0000
0000
0000
0000
,
0000
0000
0000
2002
0M10
3M13
0000
1M11
,
0000
MM0M
0000
0000
,
0000
0000
0000
0000
0000
0000
0000
0000
0000
0000
0000
0000
0000
0000
0000
1111
;
#NOTES:
     dance-single:
     Renard:
     Beginner:
     9:
     0.642,0.632,0.302,0.000,0.038:
0000
0000
0000
0000
,
0000
0000
1000
0100
0000
0000
0000
0000
,
0000
0010
0001
0100
0000
0000
0000
0000
,
0000
0000
0001
0100
0000
0000
0000
0000
,
0000
0010
1000
0100
0000
0000
0000
0000
,
1100
0000
1000
0100
0010
0000
0010
0001
,
0100
0010
1000
1000
0010
0000
0100
0001
,
0010
0000
0100
1000
0010
0000
0100
0001
,
0010
0100
1000
1000
0010
0000
0100
0001
,
0100
0000
0010
1000
0100
0010
0001
0100
,
0010
1000
0010
0100
0001
0010
0100
1000
,
0001
0010
0100
1000
0010
0100
0010
1000
,
0100
0010
0001
0100
0010
1000
0100
0010
,
0001
0001
0010
0100
1000
0001
0100
0010
,
1000
0010
0100
0001
0010
0100
1000
0100
,
1000
0001
0100
0010
1000
0001
0010
0001
,
1000
0100
1000
0001
0100
0010
1000
0001
,
1001
0000
1000
0100
1000
0010
0100
0001
,
0010
0100
1000
0001
0100
0001
1000
0100
,
1000
0001
0010
0001
1000
0010
0100
0001
,
0010
0100
1000
0100
0010
0001
1000
0010
,
0100
0010
1000
1000
1000
0010
0100
0001
,
0010
0100
1000
0100
0010
0001
0100
0010
,
1000
0001
0010
0100
1000
0001
0100
0010
,
1000
0010
0100
0010
1000
0100
0010
0001
,
1000
0010
0100
0100
0100
0010
1000
0100
,
0010
0001
0010
0100
1000
0001
0010
0100
,
1000
0001
0100
0100
0100
0010
1000
0100
,
0010
0001
0010
0100
1000
0001
0100
0010
,
1000
0001
0010
0010
0001
0000
0010
0100
,
1000
0001
0100
0100
0010
0000
1000
0010
,
0100
0000
0001
0001
0100
0000
0010
1000
,
0100
0010
0001
0001
0010
0000
0100
1000
,
0001
0000
0100
0100
0010
0000
1000
1000
,
0010
0100
0001
0001
0010
0000
0100
0100
,
1000
0000
0001
0001
0100
0000
0010
0010
,
1000
0100
0010
0010
0001
0010
0100
1000
,
0001
1001
0000
0000
,
0000
0000
1001
1001
,
1000
0100
1100
0000
0000
0000
0000
0000
,
0011
0000
1000
0100
0010
0001
0100
0010
,
1000
0100
1000
0001
0010
0100
1000
0001
,
0100
0010
0100
0010
1000
0100
0010
0001
,
1000
0010
0100
0001
0010
0100
1000
0001
,
0100
0010
1000
0100
1000
0001
0010
0001
,
1000
0010
1000
0001
0100
0001
1000
0100
,
0010
0001
0100
0010
1000
0100
0010
0001
,
1000
0010
1010
1010
0000
0000
0000
0000
,
0000
0000
0101
0101
0000
0000
0000
0000
,
0000
0000
0011
0011
0000
0000
0000
0000
,
0000
0000
1100
1100
0000
0000
0000
0000
,
1001
0000
1000
0100
0010
0000
0001
0100
,
0010
1000
0010
0010
0100
0000
0001
0010
,
0100
0000
1000
0001
0001
0000
0100
0010
,
1000
0100
0010
0010
0001
0000
1000
0010
,
0100
1001
0000
0000
,
0000
0000
0000
0000
,
0000
0000
0000
0000
0000
0000
0000
1100
,
0000
1100
0000
0000
0011
0000
0000
0011
0000
0000
1001
0000
0000
0000
0000
0000
,
0000
0000
0000
0000
,
0000
0000
0000
0000
0000
0000
0000
1000
,
0100
0000
0010
0000
0001
0000
1000
0000
0001
0010
0100
0000
1000
0100
0010
0000
,
0001
0010
0100
0000
1000
0100
0010
0000
0010
0000
0001
0000
0001
0000
1000
0000
,
0000
1100
0000
0000
1001
0000
0000
0000
,
0101
0010
1000
0100
0011
0000
0000
0000
,
0000
0000
0000
0000
,
0000
0000
0000
1000
0100
0010
0000
1011
,
0000
0000
0000
0000
,
0000
0000
0000
0000
0000
0000
0000
0000
0000
0000
0000
0000
0000
0000
0000
1111
;
