#TITLE:Somnambulist;
#SUBTITLE:;
#ARTIST:BT;
#TITLETRANSLIT:;
#SUBTITLETRANSLIT:;
#ARTISTTRANSLIT:;
#CRChallenge:;
#BANNER:;
#BACKGROUND:;
#LYRICSPATH:;
#CDTITLE:!cdtitle.png;
#MUSIC:somnambulist.ogg;
#OFFSET:0.000;
#SAMPLESTART:69.556;
#SAMPLELENGTH:15.000;
#SELECTABLE:YES;
#BPMS:0.000=136.000;
#STOPS:;
#BGCHANGES:;
#NOTES:
     dance-single:
     Spectere:
     Challenge:
     12:
     0.964,0.924,0.296,0.072,1.000:
0000
0000
0000
0000
,
0000
0000
0000
0000
,
0000
0000
0000
0000
,
1000
0000
0100
0000
0010
0000
0100
0000
0001
0000
0100
0000
0010
0000
1000
0000
0010
0000
1010
0000
0000
0010
0000
0000
,
0001
0100
0010
1000
0000
0100
0001
0100
0000
1000
0010
0100
0000
0001
0010
0001
,
0100
0010
1000
0100
0000
0100
1000
0100
0000
1000
0010
0100
0000
0010
0001
0010
,
0100
0010
1000
0001
0000
0010
0100
0001
0000
0001
0100
1000
0000
1000
0010
0100
,
0001
0010
0001
1000
0000
0001
1000
0100
0000
1000
0001
0100
0000
0100
0001
0010
,
0100
0010
1000
0010
0000
0010
0001
0010
0000
0001
0100
0010
0000
0100
0010
1000
,
0001
0100
0010
1000
0000
1000
0010
0001
0000
0001
0010
0100
0000
0010
1000
0001
,
0100
0001
0010
0100
0000
0010
1000
0001
0000
1000
0010
0100
2000
0000
0000
3000
,
0001
0000
0100
0000
0001
0000
2000
0000
0000
0000
0000
0000
0000
0000
0000
0000
0010
0000
0000
0000
0000
0000
0001
0000
0000
3000
0000
0000
0001
1000
0001
1000
,
0001
1000
0100
1000
0000
0100
0001
1000
0000
0010
0100
1000
0000
0010
0100
1000
,
0100
0001
0010
0100
0000
0001
1000
0010
0000
0001
0100
0010
0000
1000
0010
0100
,
0001
0010
1000
0010
0000
0001
0010
0100
0000
0001
1000
0010
0000
0001
0100
0010
,
0100
0001
1000
0100
0000
0001
0100
0001
0000
0100
1000
0010
0000
1000
0010
0100
,
0001
0010
1000
0010
0000
0010
0100
0001
0000
0001
0100
0010
0000
0001
0100
0010
,
0001
0010
0100
1000
0000
0100
0001
0010
0000
0001
0100
0010
0000
0010
1000
0100
,
1000
0001
0100
0010
0000
0010
0100
0001
0000
0100
1000
0100
0000
0100
0010
0100
,
0001
0010
0100
0001
0000
0100
1000
0001
0000
1000
0001
0010
0000
0001
1000
0100
,
0001
0100
0010
1000
0000
0010
0001
0100
0000
0100
0010
1000
0000
0100
0001
0100
,
1000
0010
0100
0001
0000
0100
0001
1000
0000
0001
1000
0100
0000
0100
0010
0100
,
0001
0100
0010
0001
0000
0010
0100
0001
0000
0100
0010
1000
0000
0001
0100
1000
,
0100
0010
0001
0100
0000
1000
0100
0010
0000
1000
0100
0001
0000
0100
1000
0001
,
1000
0010
0100
0001
0000
0100
1000
0001
0000
0010
1000
0100
0000
0100
1000
0001
,
0100
0001
0100
1000
0000
0100
1000
0100
0000
0010
0001
0010
0000
0010
0100
1000
,
0100
0001
0010
0001
0000
0010
0100
0001
0000
0100
1000
0010
0000
0100
0001
0010
,
0001
0000
1000
0000
0100
0000
1000
0000
0001
0000
0000
0000
1000
0001
1000
0001
1000
0000
0000
0000
1000
0000
0010
0000
0100
0000
0001
0000
0010
0000
0001
0000
,
1001
0000
1000
0010
0101
0000
0001
1000
0010
1000
0100
0000
1001
0000
0001
1000
,
0001
0000
0000
0000
0000
0000
0001
0000
0000
0100
0000
0000
1010
0000
0000
0000
0000
0000
1000
0000
0000
0100
0000
0000
1100
0000
0000
0000
0110
0000
0000
0000
0011
0000
0000
0000
1001
0000
0000
0000
0000
0000
MMMM
0000
0000
0000
0000
0000
,
1000
0000
1000
0100
1000
0000
0001
0000
0010
0000
0001
0000
1001
0000
0100
0000
,
1000
0000
0010
0100
0001
0000
0010
0000
1000
0000
0010
0000
0101
0000
0100
0000
,
1000
0000
0010
0100
1000
0000
0100
0000
0001
0000
0100
0000
0101
0000
0001
0000
,
0010
0000
0001
1000
0100
0000
1000
0000
0010
0000
0100
0000
1010
0000
0100
0000
,
1000
0000
0001
0100
1000
0000
0001
0000
0010
0000
1000
0000
1100
0000
1000
0000
,
0100
0000
0001
0100
0010
0000
0001
0000
0100
0000
0010
0000
1010
0000
0100
0000
,
0002
0000
0003
0000
2001
0000
0100
0000
0002
3000
0000
0000
0100
0003
0002
0000
,
0010
0000
0000
0000
0003
0000
0000
0000
1001
0000
0000
0000
1000
0000
0100
1000
0100
0000
0000
0000
1000
0000
0000
0000
0001
0000
0000
0000
0100
0000
0000
0000
,
1000
0100
0001
0010
0000
0001
0010
1000
0000
0001
0100
1000
0000
1000
0010
0100
,
0001
0000
0000
0010
0000
0000
1000
0000
0000
0010
0000
0000
0100
0000
0000
0001
0000
0000
0100
0000
0000
1000
0000
0000
1100
0000
0000
0000
1010
0000
0000
0000
1001
0000
0000
0000
0101
0000
0000
0000
0000
0000
0001
0000
0000
0000
0000
0000
,
1000
0010
0100
1000
0100
0010
0100
0001
0010
0100
0010
0001
0100
0010
1000
0100
,
1000
0001
0010
0100
0010
1000
0010
0100
0001
0100
1000
0010
0100
0001
0100
0001
,
0010
0100
1000
0010
0100
1000
0100
0010
1000
0001
0100
0010
0001
0010
1000
0100
,
1000
0001
0100
0001
0010
0001
1000
0100
0010
0100
1000
0001
0100
0001
1000
0100
,
1000
0001
0010
0001
1000
0010
0100
0001
0100
1000
0100
0010
0001
1000
0100
0001
,
0010
0100
0010
0001
1000
0100
0010
0100
0001
1000
0010
0001
0100
0010
1000
0001
,
0100
0001
1000
0010
0100
0001
0010
0100
0001
0100
1000
0010
0100
0001
1000
0010
,
0100
1000
0100
0001
1000
0100
0001
1000
0010
1000
0001
0100
1000
0010
0100
0001
,
1000
0100
1000
0001
0000
0100
1000
0100
0000
0001
0010
0001
0000
1000
0100
1000
,
0001
0010
0001
1000
0000
0001
1000
0100
1000
0000
1000
1000
0000
0100
1000
0000
,
0001
0000
0000
0000
0100
0000
0001
0000
0010
0000
0000
0000
0001
0000
0000
0000
1000
0100
1000
0100
1000
0001
1000
0001
1000
0001
0010
0001
0010
0001
1000
0001
,
1000
0000
0100
0000
1000
0001
0010
0000
0001
0000
0100
0000
1001
0000
1000
0000
,
0010
0000
0100
0000
0001
0010
0100
0000
0001
0000
0100
0000
1100
0000
0010
0000
,
0001
0000
0100
0000
0010
1000
0100
0000
1000
0000
0001
0000
0101
0000
0001
0000
,
1000
0000
0001
0000
0010
0001
0100
0000
0001
0000
1000
0000
0110
0000
0100
0000
,
1000
0000
0100
0000
0001
0010
0100
0000
0001
0000
0100
0000
1010
0000
0100
0000
,
0010
0000
0001
0000
1000
0001
0010
0000
0001
0000
0100
0000
0110
0000
1000
0000
,
0100
0000
0001
0000
0001
0100
1000
0000
0100
0000
0010
0000
0101
0000
0001
0000
,
1000
0000
0100
0000
1000
0001
0100
0000
0010
0000
1000
0000
0011
0000
0001
0000
,
1000
0000
0001
0000
0100
0010
0001
0000
1000
0000
0100
0000
0101
0000
0001
0000
,
1000
0000
0010
0000
0100
1000
0100
0000
0001
0000
0010
0000
1001
0000
1000
0000
,
0001
0000
0100
0000
0010
0100
0001
0000
0010
0000
1000
0000
1010
0000
0010
0000
,
0022
0000
0033
0000
,
0000
0000
0000
0000
;
#NOTES:
     dance-single:
     Spectere:
     Medium:
     9:
     0.621,0.565,0.000,0.269,0.166:
0000
0000
0000
0000
,
0000
0000
0000
0000
,
0000
0000
0000
0000
,
0010
0000
0100
0000
1000
0000
0001
0000
0100
0000
0001
0000
1000
0000
0010
0000
0100
0000
0001
0000
0000
1000
0000
0000
,
0001
0100
0001
0000
0010
0000
0100
0000
0010
0000
0001
0000
1000
0000
0010
0000
,
0100
0001
0010
1000
0010
0100
0001
0100
,
1000
0010
0100
0000
0001
0000
0010
0000
0100
0000
0001
0000
0100
0000
1000
0000
,
0010
0100
0001
1000
0010
1000
0100
1000
,
0001
0010
0100
0000
1000
0000
0100
0000
1000
0000
0010
0000
0100
0000
0001
0000
,
0010
0001
1000
0010
0100
0001
1000
0010
,
0100
0001
0100
0000
0010
0000
1000
0000
0100
0000
0010
0000
0001
0000
0100
0000
,
0001
1000
0010
1000
0000
0000
0000
0000
0100
0000
0000
0100
0000
0000
0100
1000
,
0010
0100
0001
0010
0100
1000
0010
0001
,
0010
0100
0010
1000
0100
0010
0100
0001
,
0100
1000
0001
0100
0010
1000
0010
0100
,
0001
1000
0100
0010
0100
1000
0100
0001
,
0100
1000
0010
0100
0001
0010
0001
1000
,
0010
0100
0001
1000
0010
0100
0001
0100
,
0010
0000
0010
1000
0200
0300
0100
1000
,
0002
0000
0003
0000
0001
0000
0100
0000
0000
0000
0100
0000
0001
0000
0010
0001
,
1000
0001
0100
0001
0010
0100
0010
1000
,
0010
0001
0100
0001
0010
0001
0100
1000
,
0100
0010
0100
0001
0010
0100
1000
0100
,
1000
0001
0010
0100
1000
0001
1000
0010
,
0100
1000
0100
0010
0001
1000
0100
0001
,
0010
0100
1000
0001
0100
0001
0010
0100
,
1000
0000
1000
0001
0200
0300
0100
0001
,
0020
0000
0030
0000
0010
0000
0100
1000
0100
0000
1000
0000
0010
0000
0100
0000
,
0001
1000
0001
0000
0100
0000
0001
0000
0100
0000
0010
0000
0100
0000
0001
0000
,
1000
0000
0000
0100
0000
0000
0010
0000
0000
0100
0000
0000
0010
0000
0100
0000
0001
0000
0100
0000
0000
0000
0000
0000
,
0010
0100
1000
0001
0100
0010
1000
0100
,
0001
0100
1000
0010
0100
0001
0100
0010
,
0100
0001
1000
0010
0100
0010
1000
0010
,
0001
0010
1000
0100
0010
0001
0100
0010
,
1000
0010
0100
0001
0010
0001
1000
0100
,
1000
0001
1000
0001
0010
0100
0010
0100
,
1000
0000
1000
0010
0200
0300
0100
0001
,
0020
0000
0030
0000
0010
0000
0001
0100
0001
0000
0010
0000
0100
0000
1000
0000
,
0001
0100
0001
0000
0010
0000
0100
0000
1000
0000
0010
0000
0100
0000
0001
0000
,
0100
0000
0000
0010
0000
0000
1000
0000
0000
0100
0000
0000
1000
0000
0001
0000
0100
0000
0010
0000
0000
1000
0000
0000
,
0001
0100
0001
0000
0010
0000
0100
0000
0010
0000
1000
0000
0010
0000
0100
0000
,
0001
0100
1000
0010
0100
0001
0100
0010
,
1000
0100
1000
0010
0100
0001
0010
0100
,
1000
0001
1000
0100
0010
0100
0001
0100
,
1000
0001
1000
0010
0100
0001
0100
1000
,
0100
0010
0100
0001
1000
0010
0100
0001
,
0010
0000
0001
0100
0020
0030
0010
1000
,
0200
0000
0000
0300
0100
0000
1000
0000
0010
0000
0100
0000
0001
0000
0010
0000
,
0001
1000
0001
0000
1000
0000
0100
0000
0020
0000
0000
0030
0100
0000
1000
0000
,
0020
0000
0000
0000
0030
0000
1000
0000
0100
0000
0100
1000
0000
0010
0000
0000
,
0100
0000
0000
0000
0001
0000
1000
0000
0010
1000
0010
1000
0001
0100
0010
1000
,
0100
1000
0001
0010
0001
0100
0010
1000
,
0200
0000
0000
0000
1000
0000
0000
0300
1000
0000
0010
0000
0001
0000
0010
0000
,
2000
0000
0000
3000
0000
1000
0000
1000
0000
1000
0000
1000
0000
1000
0000
1000
,
0002
0000
0000
0003
0010
0000
2000
0000
0000
0000
3010
0000
0001
0000
0000
0000
,
2000
0000
3010
0200
0000
0301
0010
1000
,
0020
0000
0031
2000
0000
3010
0100
0001
,
0020
0000
1030
0020
0000
0031
0100
0010
,
2000
0000
3100
0020
0000
0031
0100
0010
,
2000
0000
3100
0020
0000
0031
0100
0010
,
0002
0000
0013
2000
0000
3100
0010
0001
,
2000
0000
3010
0200
0000
0310
1000
0002
,
0020
0000
0000
0000
,
0033
0000
0000
0000
;
#NOTES:
     dance-single:
     Spectere:
     Easy:
     6:
     0.314,0.306,0.018,0.278,0.004:
0000
0000
0000
0000
,
0000
0000
0000
0000
,
0000
0000
0000
0000
,
0000
0000
0000
0000
,
1010
1000
0001
0010
,
0001
0100
0010
1000
,
0100
1000
0001
0010
,
0001
0100
0010
1000
,
0100
1000
0001
0010
,
0100
0010
0001
1000
,
0001
0100
0010
1000
,
0100
0000
0000
0000
0000
0000
0000
0000
1000
0000
0000
0001
0000
0000
0000
0000
,
1001
0000
1000
0010
1000
0000
0100
0000
,
1000
0001
0010
0100
,
1000
0001
0100
0001
,
0010
0100
0010
0001
,
1000
0010
0100
0000
0001
0000
1000
0000
,
0010
0000
0100
0000
0001
0010
0100
0000
,
0010
0001
2000
0000
,
0002
3003
0000
0000
,
0001
0010
0001
0000
1000
0000
0100
0000
,
0010
0001
0100
0010
,
0100
0001
0010
0100
,
0010
0000
0001
0000
0100
0010
0100
0000
,
0001
1000
0100
1000
,
0010
0100
0010
1000
,
0100
0000
2000
0000
,
0002
0000
3003
0000
0001
0010
0001
0000
,
1000
0100
1000
0001
,
0010
0001
0200
0310
,
1000
0001
0010
0000
0100
0000
1000
0000
,
0010
1000
0100
1000
,
0001
0010
0001
0100
,
0010
0000
1000
0000
0100
1000
0100
0000
,
1000
0010
0100
0010
,
1000
0001
0100
0001
,
0010
0000
0002
0000
,
0200
0303
0010
1000
,
0100
1000
0100
0000
1000
0000
0001
0000
,
0100
0010
1000
0010
,
0100
0001
0010
0000
0001
0000
0100
0000
,
0010
0000
1000
0000
0100
1000
0010
0000
,
0100
0001
00M0
0001
,
00M0
0000
0100
0000
1000
0010
0100
0000
,
0001
0100
00M0
1000
,
0M00
0000
1000
0000
0001
0100
0010
0000
,
0100
0001
0020
0000
,
0032
0000
0000
0000
0103
0010
1000
0000
,
0100
1000
0020
0000
,
0230
0000
0000
0000
0301
0010
0001
0100
,
0010
1000
0200
00M0
,
2300
0000
0000
0000
3010
0100
0001
0010
,
0200
0000
0000
0000
1300
0000
1000
0010
,
0200
00M0
0301
0100
,
0200
0000
0000
0302
0000
0000
0000
0000
,
0023
0000
0000
0032
0000
0000
0000
0000
,
0203
0000
0000
0320
0000
0000
M000
0000
,
2030
0000
0000
3002
0000
0000
00M0
0000
,
0023
0000
0000
0230
0000
0000
0000
0000
,
2300
0000
0000
3020
0000
0000
0000
0000
,
0230
0000
0000
0320
0000
0000
0000
0000
,
2030
0000
0000
3200
0000
0000
0000
0000
,
0300
0000
0000
0000
;
#NOTES:
     dance-single:
     Spectere:
     Beginner:
     3:
     0.252,0.296,0.036,0.448,0.000:
0000
0000
0000
0000
,
0000
0000
0000
0000
,
0000
0000
0000
0000
,
0000
0000
0000
0000
,
2000
0000
3000
0002
0000
0000
0000
0003
,
0020
0000
0030
0002
0000
0000
0000
0003
,
0200
0000
0300
0020
0000
0000
0030
0000
,
2002
0000
0000
0000
0000
0000
0000
3003
,
1000
0100
1000
0000
,
0010
0000
0100
0000
,
0001
0000
0010
0000
,
0100
0000
0010
0000
,
0001
0100
0010
0000
,
1000
0000
0100
0000
,
1000
0000
0001
0000
,
0020
0000
0000
0030
,
0001
0010
0100
0000
,
1000
0000
0010
0000
,
0100
0000
0010
0000
,
1000
0000
0100
0000
,
1000
0001
0010
0000
,
0001
0000
0100
0000
,
0010
0000
2000
0000
,
3100
0000
1000
0001
,
1001
0000
0001
0000
,
0100
0000
0001
0010
,
0100
0000
1000
0000
,
0001
0000
0100
0010
,
1000
0000
0100
0000
,
1000
0000
0010
0100
,
0001
0000
0020
0030
,
0002
0003
0100
0010
,
1000
0000
0100
0000
,
1000
0001
2002
3003
,
0100
0000
1000
0000
,
0001
0000
0100
0001
,
0100
0000
0010
0000
,
1000
0000
0100
1000
,
0001
0000
0010
0000
,
0100
0000
1000
0010
,
0100
0000
0002
0003
,
0020
0030
0001
0001
,
1000
0000
0100
0000
,
1000
0000
0010
0100
,
0102
0003
0020
0030
,
0002
0003
0100
0010
,
2000
3000
0002
0003
,
0200
0300
0001
1000
,
0200
0300
2000
3000
,
0020
0030
0100
0001
,
0010
0000
0002
0003
,
0200
0300
0010
1000
,
0100
0000
2000
3000
,
0020
0030
0100
0001
,
0020
0030
0002
0003
,
2000
3000
0100
1000
,
0020
0030
0100
0002
,
0000
0000
0000
0003
,
0020
0000
0030
0002
0000
0000
0000
0003
,
0200
0000
0300
0020
0000
0000
0000
0030
,
2000
0000
3000
0020
0000
0000
0000
0030
,
2000
0000
3000
0200
0000
0000
0000
0300
,
2000
0000
3000
0020
0000
0000
0000
0030
,
0200
0000
0300
0002
0000
0000
0000
0003
,
0200
0000
0300
0020
0000
0000
0000
0030
,
2000
0000
3000
0002
0000
0000
0000
0000
,
0013
0000
0000
0000
;
