#TITLE:Snowride;
#SUBTITLE:;
#ARTIST:Mind Reflection;
#TITLETRANSLIT:;
#SUBTITLETRANSLIT:;
#ARTISTTRANSLIT:;
#CRChallenge:;
#BANNER:snowride.png;
#BACKGROUND:snowride-bg.png;
#LYRICSPATH:;
#CDTITLE:;
#MUSIC:snowride.ogg;
#OFFSET:0.000;
#SAMPLESTART:18.917;
#SAMPLELENGTH:12.000;
#SELECTABLE:YES;
#BPMS:0.000=69.830,32.000=139.660,160.000=69.830,176.000=139.660;
#STOPS:;
#BGCHANGES:;
#NOTES:
     dance-single:
     Renard:
     Medium:
     9:
     0.549,0.732,0.192,0.292,0.313:
0000
0000
0000
0000
,
0000
0000
0000
0000
,
0000
0000
0000
0000
,
0000
0000
0000
0000
,
2000
0000
0002
3000
0200
0000
0010
0303
,
0002
0000
2000
0003
0200
0000
0010
3300
,
2000
0000
0002
3000
0200
0000
0010
0303
,
0002
0000
2000
0000
0020
0000
3133
1001
,
0001
0000
0100
0001
0100
0000
0010
0000
0100
0010
0100
0000
0010
0000
1000
0010
,
1000
0000
0100
0000
1000
0100
1000
0000
0001
0000
0010
0000
0100
0000
1000
0000
,
0001
0000
0100
0010
0100
0000
0010
0000
1000
0010
1000
0000
0001
0000
0100
0001
,
0100
0000
0001
0000
1000
0001
1000
0000
0100
0000
0010
0000
0001
0000
1000
0000
,
0010
0000
0100
0010
0100
0000
0001
0000
1000
0001
1000
0000
0100
0000
1000
0100
,
1000
0000
0001
0000
0010
0001
0010
0000
0001
0000
1000
0000
0010
0000
0100
0000
,
0001
0000
1000
0001
1000
0000
0001
0000
0100
0001
0100
0000
0010
0000
0100
0010
,
0100
0000
0010
0000
1000
0010
1000
0000
0010
0000
1000
0000
0100
0000
0010
0000
,
0001
0000
0010
0001
0010
0000
0001
0000
0010
0001
0010
0000
0100
0000
0010
0100
,
0010
0000
0100
0000
0010
0100
0010
0000
0100
0000
1000
0000
0001
0000
1000
0000
,
0010
0000
1000
0010
1000
0000
0010
0000
1000
0010
1000
0000
0001
0000
0100
0001
,
0100
0000
0001
0000
0100
0001
0100
0000
0001
0000
0010
0000
0100
0000
1000
0000
,
0001
0000
0100
0001
0100
0000
0001
0000
0100
0001
0100
0000
0010
0000
1000
0010
,
1000
0000
0010
0000
1000
0010
1000
0000
0100
0000
0010
0000
0001
0000
0010
0000
,
0100
0000
1000
0100
1000
0000
0001
0000
0010
0001
0010
0000
0001
0000
1000
0001
,
1000
0000
0010
0000
0100
0010
0100
0000
0010
0000
1000
0000
0001
0000
0100
0000
,
0001
0000
0100
0000
0101
0000
0100
0010
0000
0000
0110
0000
0000
0000
0010
0000
,
1000
0000
0100
0000
1100
0000
0100
0010
0000
0000
0110
0000
0000
0000
0010
0000
,
0001
0000
0100
0000
0010
0000
0100
0001
0000
0000
0110
0000
0000
0000
0100
0000
,
0010
0000
1000
0000
0100
0000
1000
0100
0000
0000
0110
0000
0000
0000
0010
0000
,
0001
0000
0100
0000
0010
0000
1000
0010
0000
0000
0110
0000
0000
0000
0010
0000
,
1000
0000
0100
0000
0010
0000
0001
0010
0000
0000
0110
0000
0000
0000
0010
0000
,
0001
0000
0100
0000
0010
0000
1000
0100
0000
0000
0110
0000
0000
0000
0010
0000
,
0001
0000
0100
0000
0010
0000
1000
0001
0000
0000
1001
0000
0000
0000
0001
0000
,
0100
0000
0010
0000
1000
0000
0100
0010
0000
0000
0110
0000
0000
0000
0010
0000
,
0001
0000
0100
0000
0010
0000
0100
0001
0000
0000
0101
0000
0000
0000
0001
0000
,
1000
0000
0100
0000
0010
0000
0100
1000
0000
0000
1010
0000
0000
0000
1000
0000
,
0010
0000
0100
0000
0001
0000
0010
0100
0000
0000
0110
0000
0000
0000
0010
0000
,
0001
0000
0100
0000
0010
0000
1000
0100
0000
0000
0110
0000
0000
0000
0010
0000
,
0001
0000
0100
0000
0010
0000
0100
0001
0000
0000
0101
0000
0000
0000
0001
0000
,
0010
0000
0100
0000
1000
0000
0001
0100
0000
0000
0101
0000
0000
0000
0100
0000
,
0010
0000
1000
0000
0100
0000
0010
0001
0000
0000
0011
0000
0000
0000
0000
0000
,
0200
0000
0000
0000
0000
0000
1300
0000
0000
0000
0010
0000
0200
0000
0000
0000
0000
0000
0301
0000
0000
0010
0000
0000
0200
0000
0000
0000
0000
0000
1300
0000
0000
0000
0010
0000
0200
0000
0000
0000
0000
0000
0301
0000
0000
0000
0010
0000
,
0200
0000
0000
0000
0000
0000
0310
0000
0000
0000
0001
0000
0200
0000
0000
0000
0000
0000
0310
0000
0000
1000
0000
0000
0200
0000
0000
0000
0000
0000
0310
0000
0000
0000
0001
0000
0200
0000
0000
0000
0000
0000
0310
0000
0000
0000
1000
0000
,
0200
0000
0000
0000
0000
0000
0310
0000
0000
0000
0001
0000
0200
0000
0000
0000
0000
0000
0310
0000
0000
1000
0000
0000
0200
0000
0000
0000
0000
0000
0320
0000
0000
0000
0000
0000
0032
0000
0000
0000
0000
0000
0103
0000
0000
0000
0010
0000
,
2000
0000
0000
0000
0000
0000
3100
0000
0000
0000
0010
0000
0002
0000
0000
0000
0000
0000
0103
0000
0000
0010
0000
0000
2000
0000
0000
0000
0000
0000
3100
0000
0000
0000
0010
0000
0002
0000
0000
0000
0000
0000
0000
0000
0000
0000
0000
0000
,
0003
0000
0000
0000
;
#NOTES:
     dance-single:
     Renard:
     Easy:
     4:
     0.229,0.266,0.000,0.101,0.000:
0000
0000
0000
0000
,
0000
0000
0000
0000
,
0000
0000
0000
0000
,
0000
0000
0000
0000
,
0001
0002
1000
2000
,
0010
0010
0100
3103
,
0100
0200
0001
0002
,
0010
0010
2000
3313
,
0010
0000
0010
0000
,
0010
0100
0010
0100
0010
0000
0010
0000
,
1000
0000
1000
0000
,
0001
1000
0001
1000
0001
0000
0001
0000
,
0100
0000
0100
0100
,
0001
0010
0001
0010
0001
0000
0001
0000
,
1000
0000
1000
1000
,
0010
1000
0010
1000
0010
0000
1000
0000
,
0001
0000
0000
0100
0000
0000
1000
0000
,
0000
0100
0000
0000
0001
0000
0000
0000
,
1000
0000
0000
0010
0000
0000
0001
0000
,
0000
0010
0000
0000
1000
0000
0000
0000
,
1000
0000
0000
0100
0000
0000
0001
0000
,
0000
0100
0000
0000
1000
0000
0000
0000
,
0001
0000
0000
0010
0000
0000
1000
0000
,
0000
0010
0000
0000
0001
0000
0000
0000
,
1000
0000
0001
0000
0100
0010
0000
0000
,
1000
0000
0001
0000
0100
0010
0000
0000
,
1000
0000
0001
0000
0010
0100
0000
0000
,
1000
0000
0001
0000
0010
0100
0000
0000
,
1000
0000
0001
0000
0100
0010
0000
0000
,
1000
0000
0010
0000
0100
0001
0000
0000
,
1000
0000
0001
0000
0100
0010
0000
0000
,
1000
0000
0010
0000
0100
0001
0000
0000
,
1000
0000
0100
0000
0010
0001
0000
0000
,
1000
0000
0100
0000
0010
0001
0000
0000
,
1000
0000
0010
0000
0100
0001
0000
0000
,
0100
0000
0001
0000
1000
0010
0000
0000
,
1000
0000
0001
0000
0010
0001
0000
0000
,
1000
0000
0100
0000
1000
0001
0000
0000
,
0100
0000
0001
0000
1000
0010
0000
0000
,
0100
0100
0001
0000
,
2000
0010
0001
0100
,
3002
0010
1000
0100
,
2003
0010
0001
0100
,
3002
0010
1000
0200
,
0303
0000
0000
0000
;
#NOTES:
     dance-single:
     Renard:
     Beginner:
     2:
     0.180,0.222,0.000,0.040,0.000:
0000
0000
0000
0000
,
0000
0000
0000
0000
,
0000
0000
0000
0000
,
0000
0000
0000
0000
,
0001
0001
0001
0001
,
1000
1000
1000
1000
,
0001
0001
0001
0001
,
2000
0002
0010
3003
,
1000
0000
1000
0000
,
1000
0000
1000
0001
,
0100
0000
0100
0000
,
0100
0010
0100
0001
,
0010
0000
0010
0000
,
0010
0000
0010
0001
,
1000
0000
1000
0000
,
1000
0010
0100
0001
,
0010
0000
0010
0000
,
0010
0000
0010
0100
,
1000
0000
1000
0000
,
1000
0001
0100
0010
,
1000
0000
1000
0000
,
1000
0000
1000
0001
,
0010
0000
0100
0010
,
0001
0100
0010
0000
,
1000
0000
1000
0010
,
0100
0000
0100
0001
,
0010
0000
0010
0100
,
1000
0000
1000
0100
,
0010
0000
0010
0001
,
0100
0000
0100
0010
,
1000
0000
1000
0010
,
0001
0000
0001
0010
,
0100
0000
0100
0001
,
1000
0000
1000
0100
,
0001
0000
0001
0100
,
0010
0000
0010
0001
,
1000
0000
1000
0010
,
0100
0000
0100
0001
,
0010
0000
0010
0100
,
2000
0000
0000
0000
,
3001
0001
1000
1000
,
0010
0010
0100
0100
,
0001
0001
1000
1000
,
0010
0010
0100
0200
,
0300
0000
0000
0000
;
