#TITLE:Snort a Lot of Crack;
#SUBTITLE:;
#ARTIST:Emoticon X;
#TITLETRANSLIT:;
#SUBTITLETRANSLIT:;
#ARTISTTRANSLIT:;
#CRChallenge:;
#BANNER:crack-banner.avi;
#BACKGROUND:crack-bg.jpg;
#LYRICSPATH:;
#CDTITLE:;
#MUSIC:crack.ogg;
#OFFSET:0.020;
#SAMPLESTART:9.123;
#SAMPLELENGTH:12.000;
#SELECTABLE:YES;
#DISPLAYBPM:210.000;
#BPMS:0.000=210.000,192.000=105.000,208.000=210.000,240.000=105.000,256.000=210.000,336.000=420.000,352.000=210.000;
#STOPS:0.000=0.020
;
#BGCHANGES:;
#NOTES:
     dance-single:
     Renard:
     Medium:
     9:
     0.721,0.874,0.460,0.199,0.226:
0000
0000
0000
0000
,
0000
0000
0000
0000
,
0000
0000
0000
0000
,
0000
0000
0000
0000
,
0000
0000
0000
0000
,
0000
0000
0000
0000
,
0000
0000
0000
0000
,
0000
0000
0000
0000
1000
0001
0100
0000
,
0001
0100
0010
1000
0000
1000
0010
0000
,
0010
0100
0001
1000
0000
1000
0100
0000
,
0010
0001
0010
0100
0000
0100
1000
0000
,
0001
0100
0010
1000
0000
1000
0010
0000
,
1000
0100
0010
0001
0000
0001
0010
0000
,
0010
0100
1000
0001
0000
0001
0010
0000
,
0001
1000
0010
0100
0000
0100
0010
0000
,
1000
0001
0100
0010
1000
0100
0010
0001
,
0010
0100
1000
0001
0000
0001
0010
0100
,
1000
0001
0010
0100
0000
0100
0010
0001
,
1000
0100
0010
0001
0000
0001
0010
0100
,
1000
0001
0010
0001
0000
0001
1000
0000
,
0010
1000
0001
0100
0000
0100
0001
0100
,
0010
1000
0001
0100
0000
0100
0001
0100
,
0010
1000
0001
0100
0010
1000
0100
0010
,
0001
0000
0000
0011
,
1001
1001
0110
0110
,
1010
0000
0000
1010
0000
0000
0101
0000
0000
0101
0000
0001
,
1000
0000
1000
0100
0000
0000
0110
0000
0000
1100
0000
0000
,
0011
0000
0000
0010
0000
0000
0120
0000
0000
0130
0000
1000
,
0010
0110
0101
1100
,
0110
0000
0000
0101
0000
0000
1001
0000
0000
1100
0000
1000
,
0100
0000
0010
0001
0000
0000
0010
0000
0000
0010
0000
0000
,
0110
0100
1000
1200
,
0010
0010
0301
0110
,
1100
0000
0000
1010
0000
0000
0110
0000
0000
0101
0000
0001
,
1000
0000
1000
0001
0000
0001
0100
0000
0100
0020
0000
0000
,
2030
3001
0110
1001
,
1000
0000
1000
0100
0000
0100
0020
0000
0032
0000
0000
1003
,
0100
0000
0000
1100
0000
0000
1010
0000
0000
0101
0000
0001
,
1000
0000
0000
1200
0000
0000
0002
0000
0000
0303
0000
0100
,
1000
0000
0000
1010
0000
0000
0001
0100
0010
1000
0000
0000
,
2002
0000
0000
0100
0000
0000
3013
0000
,
0000
0000
0000
0000
0000
0000
1000
0001
,
0202
0000
0000
0010
0000
0000
1313
0000
,
0000
0000
0000
22MM
,
001M
0000
0000
00M1
0000
0000
3311
0000
,
0000
0000
0000
0000
2002
0000
0000
0000
3013
0000
0000
0000
0000
0000
0001
0100
,
0002
2003
3200
0320
,
0031
0011
0011
0001
,
1000
0000
1000
0100
0000
0100
0010
0000
0001
0000
0001
0010
0000
0010
0100
0000
,
1000
0000
1000
0100
0000
0100
0010
0000
0001
0000
0001
0010
0000
0010
0100
0000
,
1000
0000
1000
0010
0000
0010
0100
0000
0001
0000
0001
0100
0000
0100
0010
0000
,
1000
0000
1000
0010
0000
0010
0100
0000
0001
0000
0001
0100
0000
0100
0010
0000
,
1010
0000
0101
0000
1001
1000
0001
0000
,
0011
0000
0010
0100
1000
0001
0100
0000
,
0110
0000
0010
1000
0100
0010
0001
0010
,
0100
1000
0010
0100
0001
1000
1100
0000
,
0100
0010
0001
0010
0000
0010
0100
1000
,
0010
0100
0001
1000
0001
0100
0100
0000
,
0010
1000
0100
0010
0001
0100
0010
1000
,
0100
0010
0001
0100
0010
1000
0100
0000
,
1000
0000
1000
0100
0000
0100
1000
0000
0100
0000
0100
1000
0000
1000
0100
0000
,
0010
0000
0010
0001
0000
0001
0010
0000
0001
0000
0001
0010
0000
0010
0001
0000
,
0100
0000
0100
0001
0000
0001
0100
0000
0001
0000
0001
0100
0000
0100
0001
0000
,
1000
0000
1000
0010
0000
0010
1000
0000
1000
0000
0010
1000
0000
0010
1000
0000
,
0001
0100
0010
1000
0100
0010
0100
0000
,
0100
1000
0010
0100
0001
0010
0001
0000
,
1000
0010
0100
0001
0010
0100
0010
0000
,
0100
1000
0010
0100
0001
1000
0100
0000
,
0100
1000
0001
0010
0001
1000
0010
0000
,
0010
1000
0001
0100
0010
1000
0100
0000
,
0100
0010
0001
0010
0100
1000
0001
0200
,
0020
0000
0000
0330
,
0010
0000
1000
0100
0000
0000
0001
0000
,
0100
1000
0000
0000
0010
0001
0010
1000
,
0100
0000
0100
0010
0000
0010
0001
0000
,
0000
0010
0100
1000
0100
0000
0101
0000
,
0100
1000
0010
0001
0010
1000
0100
0001
,
0100
0010
0001
0010
1000
0010
0100
1000
,
0100
0001
0100
0010
0001
0010
1000
0001
,
0100
1000
0010
0001
0010
0100
1000
0100
,
0001
0100
0010
1000
0100
0001
1000
0010
,
0001
0010
0100
1000
0100
0001
0100
0010
,
0001
0010
1000
0010
0100
1000
0010
0001
,
0010
0100
1000
0100
0001
1000
0010
0001
,
1001
0000
0000
0000
,
0000
0000
0000
0000
,
1000
1000
0001
0001
,
0100
0100
0010
0010
,
1001
0000
0000
0000
;
#NOTES:
     dance-single:
     Renard:
     Easy:
     7:
     0.389,0.516,0.099,0.018,0.036:
0000
0000
0000
0000
,
0000
0000
0000
0000
,
0000
0000
0000
0000
,
0000
0000
0000
0000
,
0000
0000
0000
0000
,
0000
0000
0000
0000
,
0000
0000
0000
0000
,
0000
0000
0000
0000
1000
0001
1000
0000
,
0001
0000
0100
0001
0000
0100
0001
0000
,
1000
0000
0100
1000
0000
0100
1000
0000
,
0001
0000
0100
0001
0000
0100
0001
0000
,
1000
0100
1000
0000
,
0001
0000
0100
0001
0000
0100
0001
0000
,
1000
0000
0100
1000
0000
0100
1000
0000
,
0001
0000
0100
0001
0000
0100
0001
0000
,
1000
0100
1000
0001
,
0010
0000
0001
0010
0000
0001
0010
0000
,
0001
0000
1000
0010
0000
1000
0010
0000
,
1000
0000
0001
0010
0000
0001
0010
0000
,
0001
1000
0010
0100
,
0001
0000
1000
0100
0000
1000
0100
0000
,
1000
0000
0001
0010
0000
0001
0010
0000
,
0001
0000
1000
0100
0000
1000
0001
0000
,
1000
0000
0000
0000
,
0001
0001
1000
1000
,
0010
0010
0100
0100
,
0010
1000
0100
1000
,
1100
1000
1001
0000
,
0001
1000
0100
1000
,
1000
0001
0010
0001
,
0001
0100
0001
0100
,
0100
0100
0110
0000
,
0010
0010
0100
0000
,
0001
1000
0100
0010
,
0001
1000
0001
1000
,
0010
0100
0110
0000
,
0100
0100
0100
0000
,
0100
0001
1000
0100
,
1000
0001
0020
0000
,
0031
0000
0010
0100
,
1001
0000
0000
1001
0000
0000
1001
0000
,
0000
0000
0000
0000
,
0110
0000
0000
0110
0000
0000
0110
0000
,
0000
0000
0000
0000
,
1000
0000
0000
0001
0000
0000
0100
0000
,
0000
0010
0000
0000
1000
0000
0010
0000
,
1000
0000
0000
0010
0000
0000
1000
0000
,
0000
0000
0001
0100
,
0001
0000
0000
0001
0000
0000
0001
0000
0100
0000
0000
0100
0000
0000
0100
0000
,
0010
0000
0000
0010
0000
0000
0010
0000
1000
0000
0000
1000
0000
0000
1000
0000
,
0100
0000
0000
0100
0000
0000
0100
0000
0010
0000
0000
0010
0000
0000
0010
0000
,
0001
0000
0000
1000
0000
0000
0001
0000
0100
0000
0000
0010
0000
0000
0100
0000
,
0010
0000
0000
1000
0000
0000
0010
0000
,
0100
0000
0000
0001
0000
0000
0100
0000
,
0001
0000
0000
1000
0000
0000
0001
0000
,
0010
0000
0000
0100
0000
0000
0010
0000
,
0100
0000
0000
1000
0000
0000
0100
0000
,
0010
0000
0000
0001
0000
0000
0010
0000
,
0001
0000
0000
0100
0000
0000
0001
0000
,
1000
0000
0000
0010
0000
0000
1000
0000
,
0001
0100
0001
0000
0001
0100
1000
0000
,
0100
0001
0100
0000
0001
0100
1000
0000
,
0100
0001
0100
0000
0001
0100
1000
0000
,
0100
0001
0100
0000
0001
0000
1000
0000
,
0100
0100
1000
0000
,
0100
0100
1000
0000
,
0001
0001
0010
0000
,
0001
0100
0001
0100
,
0010
0010
1000
0000
,
0010
0010
1000
0000
,
0001
0001
0100
0010
,
2000
0000
0000
0000
,
3010
0000
0000
0000
,
0000
0000
0000
0000
,
0000
0000
0000
0000
,
0000
0000
0000
1001
,
1000
0000
0000
0100
0000
1000
0100
0000
,
1000
0000
0000
0001
0000
1000
0001
0000
,
0010
0000
0000
0001
0000
0010
0100
0000
,
1000
0000
0000
0001
0000
0100
0010
0000
,
1000
0000
0000
0100
0000
0010
0001
0000
,
0010
0000
0000
0100
0000
1000
0001
0000
,
0100
0000
0000
0010
0000
1000
0100
0000
,
0010
0000
0001
0010
0000
0100
1000
0000
,
0001
0000
0000
0000
,
0000
0000
0000
0000
,
1000
0001
1000
0001
,
1000
0001
1000
0001
,
1000
0000
0000
0000
;
#NOTES:
     dance-single:
     Renard:
     Beginner:
     4:
     0.302,0.397,0.009,0.036,0.000:
0000
0000
0000
0000
,
0000
0000
0000
0000
,
0000
0000
0000
0000
,
0000
0000
0000
0000
,
0000
0000
0000
0000
,
0000
0000
0000
0000
,
0000
0000
0000
0000
,
0000
0000
0000
0000
,
1000
0000
1000
0001
,
1000
0000
0001
1000
,
0001
0000
1000
0001
,
1000
0000
0001
0000
,
0100
0000
0010
0100
,
0010
0000
0100
0010
,
0100
0000
0010
0000
,
0100
0000
0010
0000
,
1000
0000
0000
0010
0000
0000
1000
0000
,
0001
0000
0000
0100
0000
0000
0001
0000
,
1000
0000
0000
0100
0000
0000
1000
0000
,
0001
0000
0000
0010
0000
0000
0001
0000
,
1000
0000
0000
0010
0000
0000
1000
0000
,
0001
0000
0000
0100
0000
0000
0001
0000
,
1000
0000
0000
0100
0000
0000
1000
0000
,
1001
0000
0000
0000
,
1000
0000
1000
1000
,
0001
0000
0001
0001
,
0100
0100
0100
0100
,
0010
0000
0010
0000
,
1000
0010
1000
0000
,
0001
0100
0001
0000
,
0010
0001
0010
0001
,
1000
0000
0100
0000
,
1000
0001
2000
0000
,
3001
0000
0100
0010
,
0100
0000
0010
1000
,
0010
1000
0001
0000
,
0100
0000
0001
0000
,
1000
0100
0010
0001
,
1000
0000
0001
0000
0200
0000
0000
0300
,
0001
0000
0001
1000
,
0100
0000
0000
0100
0000
0000
0100
0000
,
0000
0000
0000
0000
,
0010
0000
0000
0010
0000
0000
0010
0000
,
0000
0000
0000
0000
,
0001
0000
0000
1000
0000
0000
0001
0000
,
0000
0000
0000
0000
,
0100
0100
0100
0100
,
0010
0000
0000
0000
,
0010
0000
0010
0000
1000
0001
1000
0000
,
0001
0001
0100
0100
,
0001
0000
0001
0000
1000
0001
1000
0000
,
0100
0100
1000
0001
,
0010
0010
0010
0000
,
0100
0000
0100
0000
,
1000
0001
1000
0001
,
0100
0010
1000
0000
,
0001
0000
0000
1000
0000
0000
0001
0000
,
1000
0100
0010
0001
,
1000
0000
0001
0000
,
1000
0001
1000
0000
,
0001
0001
0100
0100
,
0010
0000
0010
0000
1000
0000
0010
1000
,
0001
0001
1000
1000
,
0100
0000
0100
0000
0010
0001
0010
0000
,
0001
0000
0001
0000
,
1000
0001
1000
0001
,
1000
0000
0001
0000
,
1000
0001
1000
0000
,
0001
0000
0100
0000
,
0001
1000
0001
1000
,
0100
0000
2000
0000
,
0002
0000
0000
0000
0000
3003
0000
0000
,
1000
0000
0000
0000
,
0000
0000
0000
0000
,
0000
0000
0000
0000
,
0000
0000
0000
0001
,
1000
0100
0010
0001
,
1000
0100
0010
0001
,
1000
0100
0010
0001
,
1000
0100
0010
0001
,
1000
0100
0010
0001
,
1000
0100
0010
0001
,
1000
0100
0010
0001
,
1000
0100
0010
0001
,
1000
0000
0000
0000
,
0000
0000
0000
0000
,
0001
1000
0001
1000
,
0001
1000
0001
1000
,
0001
0000
0000
0000
;
