#TITLE:Snort a Lot of Crack EX;
#SUBTITLE:;
#ARTIST:Emoticon X;
#TITLETRANSLIT:;
#SUBTITLETRANSLIT:;
#ARTISTTRANSLIT:;
#CRChallenge:;
#BANNER:crack.jpg;
#BACKGROUND:crack-bg.jpg;
#LYRICSPATH:;
#CDTITLE:;
#MUSIC:crack.ogg;
#OFFSET:0.020;
#SAMPLESTART:9.083;
#SAMPLELENGTH:12.000;
#SELECTABLE:NO;
#DISPLAYBPM:210.000;
#BPMS:0.000=210.000,94.000=26.250,102.000=210.000,134.000=13.125,136.000=210.001,168.000=13.125,170.000=210.001,198.000=420.001,206.000=210.001,222.000=26.250,226.000=6719.968,386.000=3359.984;
#STOPS:0.000=0.020
,92.000=0.571
,354.000=0.107
,358.000=0.107
,362.000=0.107
,366.000=0.107
,370.000=0.107
,374.000=0.107
,378.000=0.107
,382.000=0.107
;
#BGCHANGES:;
#NOTES:
     dance-single:
     Renard:
     Hard:
     10:
     0.731,1.000,0.532,0.199,0.866:
0000
0000
0000
0000
,
0000
0000
0000
0000
,
0000
0000
0000
0000
,
0000
0000
0000
0000
,
0000
0000
0000
0000
,
0000
0000
0000
0000
,
0000
0000
0000
0000
,
0000
0000
0000
0000
0001
1000
0010
0000
,
1000
0010
0100
0001
0000
0001
0100
0000
,
0100
0010
1000
0001
0000
0001
0010
0000
,
0100
1000
0100
0010
0000
0010
0001
0000
,
1000
0010
0100
0001
0000
0001
0100
0000
,
0001
0010
0100
1000
0000
1000
0100
0000
,
0100
0010
0001
1000
0000
1000
0100
0000
,
1000
0001
0100
0010
0000
0010
0100
0000
,
0001
1000
0010
0100
0001
0010
0100
1000
,
0100
0010
0001
1000
0000
1000
0100
0010
,
0001
1000
0100
0010
0000
0010
0100
1000
,
0001
0010
0100
1000
0000
1000
0100
0010
,
0001
1000
0100
1000
0000
1000
0001
0000
,
0100
0001
1000
0010
0000
0010
1000
0010
,
0100
0001
1000
0010
0000
0010
1000
0010
,
0100
0001
1000
0010
0100
0001
0010
0100
,
1000
0000
0000
0000
0000
0000
0000
0000
0000
0000
0000
0000
0000
0000
0000
0000
0000
0000
0000
0000
0000
0000
0000
0000
0000
0000
0000
0000
0000
0000
0000
0000
0000
0000
0000
0000
0000
0000
0000
0000
0000
0000
0000
0000
0000
0000
0000
0000
1100
0000
0000
0000
0000
0000
0000
0000
0000
0000
0000
0000
0000
0000
0000
0000
0000
0000
0000
0000
0000
0000
0000
0000
0000
0000
0000
0000
0000
0000
0000
0000
0000
0000
0000
0000
0000
0000
0000
0000
0000
0000
0000
0000
0000
0000
0000
0000
1001
0000
0000
0000
0000
0000
1001
0000
0000
0000
0000
0000
0110
0000
0000
0000
0000
0000
0110
0000
0000
0000
0000
0000
0101
0000
0000
0000
0000
0000
0101
0000
0000
0000
0000
0000
1010
0000
0000
0000
0000
0000
1010
0000
0000
0000
1000
0000
0001
0000
0000
0000
0001
0000
0010
0000
0000
0000
0000
0000
0110
0000
0000
0000
0000
0000
0011
0000
0000
0000
0000
0000
1100
0000
0000
0000
0000
0000
0100
0000
0000
0000
0000
0000
0210
0000
0000
0000
0000
0000
0310
0000
0000
0000
0001
0000
,
0100
0000
0000
0000
0000
0000
0110
0000
0000
0000
0000
0000
1010
0000
0000
0000
0000
0000
0011
0000
0000
0000
0000
0000
0110
0000
0000
0000
0000
0000
1010
0000
0000
0000
0000
0000
1001
0000
0000
0000
0000
0000
0011
0000
0000
0000
0001
0000
0010
0000
0000
0000
0100
0000
1000
0000
0000
0000
0000
0000
0100
0000
0000
0000
0000
0000
0100
0000
0000
0000
0000
0000
0110
0000
0000
0000
0000
0000
0010
0000
0000
0000
0000
0000
0001
0000
0000
0000
0000
0000
0021
0000
0000
0000
0000
0000
0100
0000
0000
0000
0000
0000
0100
0000
0000
0000
0000
0000
1030
0000
0000
0000
0000
0000
0110
0000
0000
0000
0000
0000
0011
0000
0000
0000
0000
0000
0101
0000
0000
0000
0000
0000
0110
0000
0000
0000
0000
0000
1010
0000
0000
0000
1000
0000
0001
0000
0000
0000
0001
0000
1000
0000
0000
0000
1000
0000
0010
0000
0000
0000
0010
0000
0200
0000
0000
0000
0000
0000
0302
0000
0000
0000
0000
0000
1003
0000
0000
0000
0000
0000
0110
0000
0000
0000
0000
0000
1001
0000
0000
0000
0000
0000
,
0001
0000
0000
0000
0001
0000
0010
0000
0000
0000
0010
0000
0200
0000
0000
0000
2300
0000
0000
0000
0000
0000
3001
0000
0010
0000
0000
0000
0000
0000
0011
0000
0000
0000
0000
0000
0101
0000
0000
0000
0000
0000
1010
0000
0000
0000
1000
0000
0001
0000
0000
0000
0000
0000
0021
0000
0000
0000
0000
0000
2000
0000
0000
0000
0000
0000
3030
0000
0000
0000
0010
0000
0001
0000
0000
0000
0000
0000
0101
0000
0000
0000
0000
0000
1000
0000
0010
0000
0100
0000
0001
0000
0000
0000
0000
0000
2002
0000
0000
0000
0000
0000
0000
0000
0000
0000
0000
0000
0000
0000
0000
0000
0000
0000
0000
0000
0000
0000
0000
0000
0000
0000
0000
0000
0000
0000
0000
0000
0000
0000
0000
0000
0000
0000
0000
0000
0000
0000
0000
0000
0000
0000
0000
0000
0000
0000
0000
0000
0000
0000
0000
0000
0000
0000
0000
0000
0000
0000
0000
0000
0000
0000
0000
0000
0000
0000
0000
0000
0010
0000
0000
0000
0000
0000
0000
0000
0000
0000
0000
0000
0000
0000
0000
0000
0000
0000
0000
0000
0000
0000
0000
0000
,
0000
3103
0000
0000
,
0000
0000
0001
1000
2020
0000
0000
0100
,
0000
3131
0000
0000
,
0000
0000
MM22
0000
M100
0000
0000
1M00
,
0000
1133
0000
2002
,
3103
0000
0000
0000
0000
0000
1000
0010
2000
0000
0000
0000
3002
0000
0000
0000
,
0023
0230
1300
1100
,
1100
0000
0000
0000
0000
0000
0000
0000
0000
0000
0000
0000
0000
0000
0000
0000
0000
0000
0000
0000
0000
0000
0000
0000
0000
0000
0000
0000
0000
0000
0000
0000
0000
0000
0000
0000
0000
0000
0000
0000
0000
0000
0000
0000
0000
0000
0000
0000
1000
0000
0000
0000
0000
0000
0000
0000
0000
0000
0000
0000
0000
0000
0000
0000
0000
0000
0000
0000
0000
0000
0000
0000
0000
0000
0000
0000
0000
0000
0000
0000
0000
0000
0000
0000
0000
0000
0000
0000
0000
0000
0000
0000
0000
0000
0000
0000
0001
0000
0000
0001
0010
0000
0000
0010
0000
0100
0000
0000
1000
0000
0000
1000
0100
0000
0000
0100
0000
0010
0000
0000
0001
0000
0000
0001
0010
0000
0000
0010
0000
0100
0000
0000
1000
0000
0000
1000
0100
0000
0000
0100
0000
0010
0000
0000
0001
0000
0000
0001
0100
0000
0000
0100
0000
0010
0000
0000
1000
0000
0000
1000
0010
0000
0000
0010
0000
0100
0000
0000
0001
0000
0000
0001
0100
0000
0000
0100
0000
0010
0000
0000
1000
0000
0000
1000
0010
0000
0000
0010
0000
0100
0000
0000
,
0101
0000
1010
0000
1001
0001
1000
0000
,
1100
0000
0100
0010
0001
1000
0010
0000
,
0110
0000
0100
0001
0010
0100
1000
0100
,
0010
0001
0100
0010
1000
0001
0011
0000
,
0010
0100
1000
0100
0000
0100
0010
0001
,
0100
0010
1000
0001
1000
0010
0010
0000
,
0100
0001
0010
0100
1000
0010
0100
0001
,
0010
0100
1000
0010
0100
0001
0010
0000
,
0001
0000
0000
0001
0010
0000
0000
0010
0000
0001
0000
0000
0010
0000
0000
0010
0001
0000
0000
0001
0000
0010
0000
0000
0100
0000
0000
0100
1000
0000
0000
1000
0000
0100
0000
0000
1000
0000
0000
1000
0100
0000
0000
0100
0000
1000
0000
0000
0010
0000
0000
0010
1000
0000
0000
1000
0000
0010
0000
0000
1000
0000
0000
1000
0010
0000
0000
0010
0000
1000
0000
0000
0001
0000
0000
0001
0100
0000
0000
0100
0000
0001
0000
0000
0001
0000
0000
0100
0001
0000
0000
0100
0000
0001
0000
0000
1000
0000
0000
0000
0000
0000
0000
0000
0000
0000
0000
0000
0000
0000
0000
0000
0000
0000
0000
0000
0000
0000
0000
0000
0010
0000
0000
0000
0000
0000
0000
0000
0000
0000
0000
0000
0000
0000
0000
0000
0000
0000
0000
0000
0000
0000
0000
0000
0100
0000
0000
0000
0000
0000
0000
0000
0000
0000
0000
0000
0000
0000
0000
0000
0000
0000
0000
0000
0000
0000
0000
0000
0001
0000
0000
0000
0000
0000
0000
0000
0000
0000
0000
0000
0000
0000
0000
0000
0000
0000
0000
0000
0000
0000
0000
0000
,
0010
0100
0010
0000
0010
0001
0100
0010
,
1000
0100
1000
0000
0001
0100
0010
1000
,
0100
0010
0100
0000
0010
0001
0100
0010
,
1000
0001
0010
0000
0010
0001
1000
0100
,
1000
0001
0100
0000
0100
0001
1000
0010
,
0100
0001
0010
0000
0010
0100
1000
0100
,
0010
0001
1000
0020
0200
0000
0000
0000
,
0000
0000
0000
0000
,
0330
0000
0000
0000
0100
0000
0001
0010
,
0000
0000
1000
0000
0010
0001
0000
0000
,
0100
1000
0100
0001
0010
0000
0010
0100
,
0000
0100
1000
0000
0000
0100
0010
0001
,
0010
0000
0000
0000
0000
0000
0000
0000
0000
0000
0000
0000
0000
0000
0000
0000
1010
0000
0000
0000
0000
0000
0000
0000
0000
0000
0000
0000
0000
0000
0000
0000
0010
0001
0100
1000
0100
0001
0010
1000
0010
0100
1000
0100
0001
0100
0010
0001
0010
1000
0010
0100
1000
0100
0001
1000
0010
0001
0100
1000
0100
0010
0001
0010
,
1000
0010
0100
0001
0010
1000
0001
0100
1000
0100
0010
0001
0010
1000
0010
0100
1000
0100
0001
0100
0010
0001
0100
1000
0100
0010
0001
0010
1000
0001
0100
1000
1001
0000
0000
0000
0000
0000
0000
0000
0000
0000
0000
0000
0000
0000
0000
0000
0000
0000
0000
0000
0000
0000
0000
0000
0000
0000
0000
0000
0000
0000
0000
0000
,
0000
0000
0000
0000
,
0000
0000
0000
0000
,
0000
0000
0000
0000
,
0000
0000
0000
0000
,
0000
0000
0000
0000
,
0000
0000
0000
0000
,
0000
0000
0000
0000
,
0000
0000
0000
0000
,
0000
0000
0000
0000
,
0000
0000
0000
0000
,
0000
0000
0000
0000
,
0000
0000
0000
0000
,
0000
0000
0000
0000
,
0000
0000
0000
0000
,
0000
0000
0000
0000
,
0000
0000
0000
0000
,
0000
0000
0000
0000
,
0000
0000
0000
0000
,
0000
0000
0000
0000
,
0000
0000
0000
0000
,
0000
0000
0000
0000
,
0000
0000
0000
0000
,
0000
0000
0000
0000
,
0000
0000
0000
0000
,
0000
0000
0000
0000
,
0000
0000
0000
0000
,
0000
0000
0000
0000
,
0000
0000
0000
0000
,
0000
0000
0000
0000
,
0000
0000
0000
0000
,
0000
0000
0000
0000
,
0000
0000
1001
0000
,
0000
0000
1001
0000
,
0000
0000
1001
0000
,
0000
0000
1001
0000
,
0000
0000
1001
0000
,
0000
0000
1001
0000
,
0000
0000
1001
0000
,
0000
0000
1001
0000
,
0000
0000
1001
0000
;
